<?xml version="1.0" standalone="no"?>
<!DOCTYPE svg PUBLIC "-//W3C//DTD SVG 1.1//EN" "http://www.w3.org/Graphics/SVG/1.1/DTD/svg11.dtd" >
<svg xmlns="http://www.w3.org/2000/svg" xmlns:xlink="http://www.w3.org/1999/xlink" version="1.1">
<metadata>
Created by FontForge 20170731 at Mon Dec 20 09:30:52 2021
 By Aleksey,,,
Copyright (c) 2012 by Fontfabric LLC. All rights reserved.
</metadata>
<defs>
<font id="NexaHeavy" horiz-adv-x="1261" >
  <font-face 
    font-family="Nexa Heavy"
    font-weight="900"
    font-stretch="normal"
    units-per-em="2048"
    panose-1="2 0 0 0 0 0 0 0 0 0"
    ascent="1536"
    descent="-512"
    x-height="1010"
    cap-height="1434"
    bbox="-350 -610 2376 2015"
    underline-thickness="102"
    underline-position="-307"
    unicode-range="U+0020-FB02"
  />
<missing-glyph horiz-adv-x="1361" 
d="M496 291q0 -42 19 -73t47 -45t61 -14t61 14t47 45t19 73q0 43 -19 75t-47 46.5t-61 14.5t-61 -14.5t-47 -46.5t-19 -75zM291 907h221q-3 50 40.5 86.5t102.5 36.5q29 0 53.5 -5.5t47.5 -17.5t36.5 -36t14.5 -58q1 -27 -14.5 -45.5t-35 -27t-53.5 -22t-55 -25.5
q-6 -6 -23 -20.5t-28.5 -25.5t-27 -33.5t-24.5 -47t-15.5 -64.5t-6.5 -88l219 -2q0 32 15 100q16 14 46 30t59 28.5t61 34.5t55.5 47.5t38.5 67t14 93.5q0 79 -30.5 140.5t-83.5 99t-120 57t-143 19.5q-159 0 -262 -83.5t-102 -238.5zM106 0v1434h1102v-1434h-1102z" />
    <glyph glyph-name=".notdef" horiz-adv-x="1361" 
d="M496 291q0 -42 19 -73t47 -45t61 -14t61 14t47 45t19 73q0 43 -19 75t-47 46.5t-61 14.5t-61 -14.5t-47 -46.5t-19 -75zM291 907h221q-3 50 40.5 86.5t102.5 36.5q29 0 53.5 -5.5t47.5 -17.5t36.5 -36t14.5 -58q1 -27 -14.5 -45.5t-35 -27t-53.5 -22t-55 -25.5
q-6 -6 -23 -20.5t-28.5 -25.5t-27 -33.5t-24.5 -47t-15.5 -64.5t-6.5 -88l219 -2q0 32 15 100q16 14 46 30t59 28.5t61 34.5t55.5 47.5t38.5 67t14 93.5q0 79 -30.5 140.5t-83.5 99t-120 57t-143 19.5q-159 0 -262 -83.5t-102 -238.5zM106 0v1434h1102v-1434h-1102z" />
    <glyph glyph-name=".null" horiz-adv-x="0" 
 />
    <glyph glyph-name="nonmarkingreturn" horiz-adv-x="682" 
 />
    <glyph glyph-name="space" unicode=" " horiz-adv-x="485" 
 />
    <glyph glyph-name="exclam" unicode="!" horiz-adv-x="612" 
d="M147 1436h318l-8 -1000h-303q0 168 -3.5 499.5t-3.5 500.5zM127 170q0 49 20 88t51.5 59t70 29.5t77 0t70 -29.5t51.5 -59t20 -88t-20 -87.5t-51.5 -58.5t-70 -29t-77 0t-70 29t-51.5 58.5t-20 87.5z" />
    <glyph glyph-name="quotedbl" unicode="&#x22;" horiz-adv-x="940" 
d="M131 1432h268v-555h-268v555zM537 1432h272v-555h-272v555z" />
    <glyph glyph-name="numbersign" unicode="#" horiz-adv-x="1433" 
d="M516 1434h275l-76 -308h223l78 308h272l-76 -308h148v-237h-207l-96 -373h162v-240h-218l-67 -276h-275l68 276h-225l-68 -276h-272l67 276h-155v240h217l94 375h-170v235h225zM901 907h-258l-102 -405h258z" />
    <glyph glyph-name="dollar" unicode="$" horiz-adv-x="1464" 
d="M1325 1190l-252 -117q-31 65 -125 113.5t-209 48.5q-118 0 -202.5 -45.5t-85.5 -130.5q0 -44 24.5 -75t71.5 -48t94 -25.5t113 -13.5q72 -8 131.5 -18t127 -28.5t120 -42.5t102 -61t82.5 -83t52.5 -110t19.5 -140q0 -200 -126.5 -318t-367.5 -143v-195h-281v193
q-185 19 -335 118t-213 253l266 129q44 -96 162 -160t245 -64q61 0 106 4t89 16t71.5 32t44.5 54t17 81t-27 83t-75.5 58.5t-107 35.5t-128.5 19q-73 7 -128.5 15t-120.5 24t-112.5 36.5t-94 54.5t-75 77.5t-46 105t-17.5 136.5q1 98 41.5 176.5t109.5 129t154.5 79.5
t182.5 37v170h270v-170q311 -35 432 -291z" />
    <glyph glyph-name="percent" unicode="%" horiz-adv-x="1669" 
d="M410 1442q108 0 187.5 -48.5t116 -121.5t36.5 -158q0 -64 -21.5 -122t-62.5 -105t-107.5 -75t-148.5 -28q-83 0 -149.5 28t-107 75t-62 105t-21.5 122q0 63 21.5 120.5t62 104.5t107 75t149.5 28zM1143 1432h321l-938 -1434h-325zM1260 643q82 0 148 -28t107 -75
t62.5 -104.5t21.5 -120.5q0 -64 -21.5 -122t-62.5 -104.5t-107 -74.5t-148 -28q-109 0 -188 48.5t-115.5 121.5t-36.5 159q0 85 36.5 158t116 121.5t187.5 48.5zM1260 430q-53 0 -84 -35t-31 -82t31 -80.5t84 -33.5q54 0 83 33t29 81t-29 82.5t-83 34.5zM410 1233
q-55 0 -86 -35.5t-31 -83.5t31 -82.5t86 -34.5t84.5 34.5t29.5 82.5q0 49 -29.5 84t-84.5 35z" />
    <glyph glyph-name="ampersand" unicode="&#x26;" horiz-adv-x="1468" 
d="M666 614q-121 0 -187.5 -48.5t-66.5 -114.5q0 -57 26.5 -97t70 -59t85.5 -27t88 -8q25 0 57 6t70.5 21t69.5 37t52 59t21 82v149h-286zM1235 614v-184q0 -55 39 -97t104 -28v-315q-55 -10 -108 -3t-96.5 26t-77 61t-49.5 102q-60 -103 -168.5 -152t-237.5 -47
q-83 0 -157 12t-146 43t-123.5 78.5t-84 124t-34.5 173.5q-1 108 61 193t173 136q-60 19 -105.5 70.5t-66.5 107.5t-21 105q0 82 24.5 150.5t67.5 115t97.5 81.5t118.5 54.5t125.5 29t123.5 9.5q107 0 197.5 -22.5t166.5 -69.5t123.5 -131t55.5 -197h-293q-11 78 -88 120
t-170 40q-97 -2 -164 -49.5t-67 -130.5q0 -48 21 -82t56.5 -50t71.5 -23t78 -7h668v-244h-115z" />
    <glyph glyph-name="quotesingle" unicode="'" horiz-adv-x="528" 
d="M131 1427h266v-555h-266v555z" />
    <glyph glyph-name="parenleft" unicode="(" horiz-adv-x="739" 
d="M561 1583l148 -203q-163 -134 -248.5 -336.5t-83.5 -420.5q0 -239 80.5 -439.5t240.5 -330.5l-147 -199q-479 317 -479 969q0 308 131 554t358 406z" />
    <glyph glyph-name="parenright" unicode=")" horiz-adv-x="739" 
d="M31 1380l147 203q227 -160 358.5 -406t131.5 -554q0 -651 -480 -969l-147 199q160 130 240.5 330.5t80.5 439.5q2 218 -83.5 420.5t-247.5 336.5z" />
    <glyph glyph-name="asterisk" unicode="*" horiz-adv-x="839" 
d="M700 950l-159 -119l-117 175l-115 -179l-166 123l127 150l-184 43l57 184l183 -67l-11 190h211l-22 -190l192 71l56 -188l-187 -39z" />
    <glyph glyph-name="plus" unicode="+" horiz-adv-x="1017" 
d="M88 801h283v295h270v-295h289v-258h-289v-295h-270v295h-283v258z" />
    <glyph glyph-name="comma" unicode="," horiz-adv-x="538" 
d="M432 131q0 -47 -12 -96.5t-41.5 -132t-38.5 -109.5h-158l31 213q-51 8 -81 39t-30 82q0 43 18 77t47.5 51t64.5 25t70 -0.5t64.5 -25.5t47.5 -49.5t18 -73.5z" />
    <glyph glyph-name="hyphen" unicode="-" horiz-adv-x="1009" 
d="M121 471v256h768v-256h-768z" />
    <glyph glyph-name="period" unicode="." horiz-adv-x="540" 
d="M102 150q0 45 18.5 81t48 54.5t65.5 27t72 0t65.5 -27t48 -54.5t18.5 -81t-18.5 -81t-48 -54.5t-65.5 -27t-72 0t-65.5 27t-48 54.5t-18.5 81z" />
    <glyph glyph-name="slash" unicode="/" horiz-adv-x="1042" 
d="M705 1573h288l-659 -1741h-287z" />
    <glyph glyph-name="zero" unicode="0" horiz-adv-x="1480" 
d="M420 821v-207q0 -182 87.5 -277t231.5 -95t233 95t89 277v207q0 177 -87 272t-229 95q-144 0 -234.5 -93t-90.5 -274zM102 614v209q0 131 33.5 240t92.5 185t140.5 129t176 77.5t200.5 24.5q132 0 245.5 -41.5t200 -121.5t136 -206.5t49.5 -286.5v-207q0 -128 -33 -236
t-90.5 -185t-137 -130.5t-171.5 -79.5t-194 -26q-103 0 -196.5 24.5t-176.5 76.5t-144 128t-96 185t-35 241z" />
    <glyph glyph-name="one" unicode="1" horiz-adv-x="927" 
d="M106 0v262h242v774l-229 -71v278l530 191v-1172h225v-262h-768z" />
    <glyph glyph-name="two" unicode="2" horiz-adv-x="1382" 
d="M428 1008h-307q5 97 40 174t89.5 127t128.5 82.5t152.5 46.5t166.5 14q117 0 219 -27.5t183 -81.5t127.5 -142t46.5 -200q0 -104 -28.5 -183t-78 -130.5t-123.5 -84t-157.5 -45.5t-186.5 -13q-44 0 -78 -3t-77 -14t-71 -31t-48 -57.5t-20 -89.5v-55h858v-295h-1160v352
q0 93 24 168t68 125.5t99.5 86t125 55t136.5 28t143 8.5q44 0 85.5 7.5t83 25t67 53.5t25.5 86q0 88 -70 136.5t-193 48.5q-106 0 -185 -44.5t-85 -127.5z" />
    <glyph glyph-name="three" unicode="3" horiz-adv-x="1394" 
d="M700 604h-219v260h199q31 0 55.5 1.5t57.5 5.5t57 14t46 25t34 39.5t12 56.5q0 21 -5.5 40.5t-22.5 42t-44 39.5t-74 28t-108 11q-235 0 -262 -139h-317q8 93 45 168t92.5 123t129.5 80t151.5 45.5t162.5 13.5q94 0 183.5 -20t171 -61.5t138.5 -115t72 -171.5
q20 -120 -29.5 -216.5t-152.5 -140.5q125 -51 181.5 -156.5t37.5 -234.5q-12 -76 -45 -136t-82 -99.5t-105.5 -67t-124 -42t-128.5 -20.5t-129 -6q-86 0 -166.5 15.5t-155.5 51.5t-132 89t-94 132t-44 177h322q6 -49 30 -85t62.5 -56t83 -29.5t96.5 -9.5q31 0 63 3.5
t72.5 14.5t70.5 29t51 51t21 76q0 22 -3 40t-17.5 44.5t-40 44.5t-76.5 31.5t-121 13.5z" />
    <glyph glyph-name="four" unicode="4" horiz-adv-x="1400" 
d="M836 1432h317v-897h164v-277h-164v-260h-313v260h-764l-27 328zM377 535h463v509z" />
    <glyph glyph-name="five" unicode="5" horiz-adv-x="1347" 
d="M1184 1432v-287h-754v-221h252q98 0 179.5 -12.5t158 -45t129.5 -84.5t84.5 -134.5t30.5 -190.5q0 -102 -35 -184.5t-91.5 -135.5t-132.5 -89t-154.5 -51t-160.5 -15q-129 0 -232 24.5t-184 77.5t-125 143.5t-45 214.5h316q0 -61 43 -103t100.5 -58.5t122.5 -16.5
q27 0 57.5 4t68 17t67 33t49.5 56t20 83q1 56 -26 96.5t-71 60t-85.5 27.5t-83.5 8h-549v783h1051z" />
    <glyph glyph-name="six" unicode="6" horiz-adv-x="1423" 
d="M432 971v-160q66 72 143.5 101.5t192.5 29.5q93 0 176 -18.5t154.5 -57.5t123.5 -95.5t81.5 -135.5t29.5 -174q0 -101 -33.5 -183.5t-91 -138t-135.5 -93t-164 -54.5t-180 -17q-92 0 -178 17t-165 55t-137.5 94t-93 139t-34.5 185v506q0 98 33 180t90 138.5t133.5 96
t162.5 58t179 18.5q98 0 181.5 -14t158 -46.5t127 -82t85 -124t36.5 -169.5h-299q-18 84 -99.5 124t-191.5 40q-117 0 -200.5 -60.5t-84.5 -158.5zM729 258q124 0 205.5 55t81.5 148q0 99 -77.5 155t-207.5 56q-134 0 -216 -56t-79 -155q3 -95 83.5 -149t209.5 -54z" />
    <glyph glyph-name="seven" unicode="7" horiz-adv-x="1146" 
d="M530 0h-358l535 1143h-644v291h1055l10 -158z" />
    <glyph glyph-name="eight" unicode="8" horiz-adv-x="1452" 
d="M725 614q-130 0 -212 -48t-83 -130q-1 -31 12.5 -61t44 -60t92.5 -48.5t146 -18.5t145 18t92 48t44.5 60.5t11.5 61.5q-2 81 -79 129.5t-214 48.5zM94 453q1 47 23 100.5t75 108.5t127 81q-99 54 -144.5 147t-31.5 202q23 178 183 276t395 98q253 0 412 -99t182 -288
q12 -104 -37.5 -190t-144.5 -129q62 -23 108 -62.5t69.5 -84.5t34 -84.5t11.5 -75.5q2 -101 -31 -183.5t-92 -138.5t-140.5 -94t-174.5 -54.5t-197 -15.5q-101 1 -192 18t-172.5 54.5t-140 92.5t-91.5 137.5t-31 183.5zM465 1032q5 -76 73 -127t187 -51t186 51t72 127
q3 67 -64.5 122.5t-197.5 55.5q-75 0 -129.5 -20t-80.5 -50t-37 -57.5t-9 -50.5z" />
    <glyph glyph-name="nine" unicode="9" horiz-adv-x="1433" 
d="M999 467v160q-66 -72 -143 -101.5t-192 -29.5q-93 0 -176 18.5t-154.5 57.5t-124 95.5t-82 135.5t-29.5 174q0 101 33.5 183.5t91 138t135.5 93t164 54t180 16.5q117 0 222 -28t193.5 -84.5t141 -153.5t52.5 -223v-506q0 -104 -35 -189t-94 -140.5t-139 -93t-166.5 -53.5
t-180.5 -16q-98 0 -182.5 14t-160 46.5t-129.5 82.5t-87 124.5t-37 169.5h299q9 -43 38 -74.5t71.5 -49.5t89.5 -26t100 -8q80 0 145 20t110 70t46 123zM702 1180q-123 0 -204.5 -55t-81.5 -148q0 -99 77 -155t207 -56q134 0 216 56t79 155q-3 95 -83.5 149t-209.5 54z" />
    <glyph glyph-name="colon" unicode=":" horiz-adv-x="571" 
d="M121 150q0 45 18 80t47.5 53t64.5 26.5t70 0t64.5 -26.5t47.5 -53t18 -80q0 -44 -18 -79t-47.5 -53t-64.5 -26t-70 0t-64.5 26t-47.5 53t-18 79zM121 737q0 45 18 80t47.5 53t64.5 26.5t70 0t64.5 -26.5t47.5 -53t18 -80q0 -44 -18 -79t-47.5 -53t-64.5 -26t-70 0
t-64.5 26t-47.5 53t-18 79z" />
    <glyph glyph-name="semicolon" unicode=";" horiz-adv-x="587" 
d="M133 737q0 45 18 80t47.5 53t64.5 26.5t70 0t64.5 -26.5t47.5 -53t18 -80q0 -44 -18 -79t-47.5 -53t-64.5 -26t-70 0t-64.5 26t-47.5 53t-18 79zM457 127q0 -21 -2.5 -43t-9 -48.5t-11.5 -46t-16 -51.5t-16.5 -47t-19 -51t-17.5 -47h-158l37 203q-51 8 -84 44t-33 87
q0 43 18 77.5t47.5 52.5t64.5 27t70 0.5t64.5 -26t47.5 -52t18 -79.5z" />
    <glyph glyph-name="less" unicode="&#x3c;" horiz-adv-x="856" 
d="M436 641l301 -297l-190 -203l-481 494v14l481 494l192 -203z" />
    <glyph glyph-name="equal" unicode="=" horiz-adv-x="1167" 
d="M131 262v262h905v-262h-905zM131 743v265h905v-265h-905z" />
    <glyph glyph-name="greater" unicode="&#x3e;" horiz-adv-x="860" 
d="M121 328l301 313l-303 315l192 187l484 -494v-14l-484 -494z" />
    <glyph glyph-name="question" unicode="?" horiz-adv-x="1224" 
d="M401 168q0 51 21 91.5t54 61.5t73.5 30.5t80.5 0t73 -30.5t54 -61.5t21 -91.5t-21 -91t-54 -61t-73 -30.5t-80.5 0t-73.5 30.5t-54 61t-21 91zM385 1001h-319q1 219 149.5 342t388.5 123q219 0 363 -86t178 -252q13 -72 7.5 -123.5t-26 -95t-50 -73t-65.5 -58.5t-73 -51
t-71.5 -50.5t-61.5 -57.5t-43.5 -71.5t-16.5 -92.5h-317q1 85 20 153t48.5 110.5t66.5 77t75 55t73 43t61 42.5t38.5 52t6.5 73q-9 61 -67.5 95t-145.5 34q-91 0 -153 -52.5t-66 -136.5z" />
    <glyph glyph-name="at" unicode="@" horiz-adv-x="1900" 
d="M952 1149q-132 0 -251.5 -47.5t-209 -131t-142 -206.5t-52.5 -266q0 -161 53.5 -284.5t145.5 -196t205 -108.5t243 -36q163 0 301 80l84 -166q-175 -104 -391 -104q-127 0 -247.5 30.5t-230 95.5t-191.5 159t-130.5 230.5t-48.5 299.5q0 156 47.5 291.5t130 234t192 169
t235 105.5t257.5 35q148 0 278.5 -32t240.5 -98t189.5 -162t124 -230.5t44.5 -296.5q0 -245 -106.5 -389.5t-286.5 -144.5q-32 0 -62.5 7.5t-62 24t-54.5 49.5t-30 78q-46 -63 -133 -104t-150 -41q-147 0 -266.5 63.5t-188.5 179t-69 261.5q0 200 124.5 340.5t315.5 165.5
q100 10 198.5 -23t153.5 -111l15 88l190 -30v-692q0 -30 16 -43t33 -13q74 5 116 88t42 240q0 316 -175 478.5t-497 162.5zM938 774q-128 0 -196 -80.5t-68 -193.5q0 -112 68 -191.5t198 -79.5q127 0 195.5 79.5t68.5 201.5q0 115 -68.5 189.5t-197.5 74.5z" />
    <glyph glyph-name="A" unicode="A" horiz-adv-x="1617" 
d="M1280 0l-104 246h-736l-104 -246h-344l643 1434h348l643 -1434h-346zM1055 528l-246 582l-248 -582h494z" />
    <glyph glyph-name="B" unicode="B" horiz-adv-x="1488" 
d="M473 610v-331h393q105 0 158 43t53 120t-56 122.5t-159 45.5h-389zM473 1157v-280h389q92 0 139.5 35.5t47.5 99.5q0 65 -47.5 105t-135.5 40h-393zM160 1434h706q104 0 193 -24t158 -71t108 -122.5t39 -172.5q0 -205 -190 -292q131 -48 191 -166.5t36 -249.5
q-32 -169 -166.5 -252.5t-355.5 -83.5h-719v1434z" />
    <glyph glyph-name="C" unicode="C" horiz-adv-x="1425" 
d="M1196 395l199 -221q-214 -211 -551 -211q-160 0 -289 40t-216.5 109t-147 164.5t-86 203t-27.5 227.5q-1 113 27.5 221t90.5 206t150 171.5t216.5 117t281.5 43.5q302 0 526 -221l-201 -198q-121 118 -325 118q-94 0 -172 -28t-129 -73.5t-86 -106t-50 -124t-14 -128.5
q1 -66 15 -127t48 -120.5t84 -103t128.5 -70t175.5 -26.5q90 0 190 37.5t162 99.5z" />
    <glyph glyph-name="D" unicode="D" horiz-adv-x="1542" 
d="M160 1434h588q144 0 263 -37.5t201.5 -103t139 -155.5t82.5 -193t26 -218t-25.5 -219.5t-81 -198t-137.5 -161.5t-202 -108t-266 -40h-588v1434zM475 1145v-850h273q90 0 160.5 26t114 67.5t72 100t39.5 117.5t11 125q0 82 -20.5 152.5t-65 131t-124 95.5t-187.5 35h-273
z" />
    <glyph glyph-name="E" unicode="E" horiz-adv-x="1343" 
d="M1251 295v-295h-1091v1434h1063v-293h-750v-277h707v-280h-707v-289h778z" />
    <glyph glyph-name="F" unicode="F" horiz-adv-x="1282" 
d="M479 0h-319v1432h1044v-293h-725v-340h680v-285h-680v-514z" />
    <glyph glyph-name="G" unicode="G" horiz-adv-x="1519" 
d="M1376 1255l-198 -198q-64 61 -155 94t-181 33q-209 0 -330 -120t-121 -349q0 -65 14 -127t48 -123.5t84 -107.5t128.5 -74.5t176.5 -28.5q85 0 156.5 21t148.5 79v230h-342v266h618v-625q-186 -266 -583 -266q-161 0 -291 43t-216.5 115.5t-145 170.5t-84 204.5
t-25.5 222.5q0 123 28.5 234t89.5 208t149.5 168t215.5 111.5t281 40.5q155 0 286 -51t248 -171z" />
    <glyph glyph-name="H" unicode="H" horiz-adv-x="1595" 
d="M1436 -2h-316v567h-641v-567h-319v1434h319v-574h641v574h316v-1434z" />
    <glyph glyph-name="I" unicode="I" horiz-adv-x="636" 
d="M477 0h-317v1434h317v-1434z" />
    <glyph glyph-name="J" unicode="J" horiz-adv-x="1466" 
d="M37 596h309q7 -169 94 -246.5t232 -77.5q158 0 246 89.5t88 254.5v527h-398v291h717v-820q0 -141 -42.5 -259t-122.5 -204t-204 -134t-280 -48q-633 0 -639 627z" />
    <glyph glyph-name="K" unicode="K" horiz-adv-x="1378" 
d="M1343 1434v-9l-581 -688l633 -719v-18h-385l-531 612v-612h-319v1434h319v-592l477 592h387z" />
    <glyph glyph-name="L" unicode="L" horiz-adv-x="1228" 
d="M160 1434h319v-1141h717v-293h-1036v1434z" />
    <glyph glyph-name="M" unicode="M" horiz-adv-x="1886" 
d="M1407 -2v997l-442 -557h-58l-428 561v-1001h-319v1434h366l418 -551l420 551h362v-1434h-319z" />
    <glyph glyph-name="N" unicode="N" horiz-adv-x="1617" 
d="M434 1434l723 -932l-20 450v482h321v-1434h-274l-713 918l12 -472v-446h-323v1434h274z" />
    <glyph glyph-name="O" unicode="O" horiz-adv-x="1703" 
d="M1626 717q0 -230 -97.5 -401t-272.5 -261t-404 -90t-404 90t-272.5 261t-97.5 401q0 346 213 548.5t561 202.5t561 -202.5t213 -548.5zM1313 717q0 200 -127.5 332.5t-333.5 132.5q-133 0 -239 -62t-164 -168t-58 -235q0 -202 129 -332.5t332 -130.5q207 0 334 130.5
t127 332.5z" />
    <glyph glyph-name="P" unicode="P" horiz-adv-x="1431" 
d="M479 1130v-432h357q110 0 169.5 61.5t59.5 153.5t-60 154.5t-169 62.5h-357zM836 406h-357v-406h-319v1434h676q134 0 240 -41t172.5 -112.5t101 -163.5t34.5 -197q0 -109 -35 -201t-101.5 -162t-172 -110t-239.5 -41z" />
    <glyph glyph-name="Q" unicode="Q" horiz-adv-x="1703" 
d="M1622 719q0 -261 -125 -447l166 -168l-223 -221l-174 178q-180 -94 -414 -94q-230 0 -404 88.5t-272 259.5t-98 404q0 175 56.5 316.5t158.5 236.5t244.5 146.5t314.5 51.5q230 0 403 -88.5t270 -259t97 -403.5zM1309 719q0 203 -125 332t-332 129q-203 0 -332 -130
t-129 -331q0 -205 128.5 -333t332.5 -128q137 0 243.5 61.5t162.5 167t51 232.5z" />
    <glyph glyph-name="R" unicode="R" horiz-adv-x="1484" 
d="M1432 25v-25h-355l-366 471h-232v-471h-319v1434h680q126 0 228.5 -40t167 -107.5t99.5 -154t35 -182.5q-1 -76 -15 -136t-48.5 -120.5t-102 -109t-166.5 -84.5zM840 1159h-361v-418h365q102 0 156.5 62t54.5 139q-2 84 -56.5 150.5t-158.5 66.5z" />
    <glyph glyph-name="S" unicode="S" horiz-adv-x="1339" 
d="M1208 1264l-200 -177q-57 59 -148.5 90t-183.5 31q-109 0 -182.5 -42.5t-73.5 -114.5q0 -38 15.5 -66.5t39.5 -46t66.5 -29.5t84 -18.5t103.5 -11.5q551 -49 551 -465q0 -115 -50.5 -205.5t-136.5 -144.5t-192 -82t-225 -29q-127 -1 -245.5 30t-220.5 99.5t-161 165.5
l191 198q78 -100 199 -151t239 -51q128 0 207.5 47t79.5 123q1 89 -69.5 134.5t-219.5 57.5q-71 7 -128 16t-118 25.5t-107.5 38.5t-89 56t-69.5 76.5t-43 101t-15 129.5q1 104 48 188t126.5 137.5t180.5 82t213 28.5q175 0 302 -49t232 -172z" />
    <glyph glyph-name="T" unicode="T" horiz-adv-x="1259" 
d="M471 0v1149h-436v285h1190v-285h-437v-1149h-317z" />
    <glyph glyph-name="U" unicode="U" horiz-adv-x="1585" 
d="M1128 1432h318v-801q0 -314 -163.5 -485.5t-451.5 -180.5q-143 -5 -266.5 34.5t-219.5 119.5t-151 211.5t-55 300.5v801h318v-801q0 -190 100 -288.5t277 -90.5q294 19 294 379v801z" />
    <glyph glyph-name="V" unicode="V" horiz-adv-x="1511" 
d="M1518 1434l-596 -1440h-330l-598 1440h358l404 -1059l403 1059h359z" />
    <glyph glyph-name="W" unicode="W" horiz-adv-x="2197" 
d="M2187 1434l-520 -1432h-262l-307 801l-297 -801h-262l-535 1432h358l179 -490l129 -463l321 953h209l336 -953l123 461l170 492h358z" />
    <glyph glyph-name="X" unicode="X" horiz-adv-x="1411" 
d="M707 924l333 510h351v-15l-484 -698l492 -711v-10h-355l-337 504l-338 -504h-355v10l488 711l-482 698v15h351z" />
    <glyph glyph-name="Y" unicode="Y" horiz-adv-x="1441" 
d="M377 1434l344 -570l362 570h367v-17l-573 -848v-569h-320v569l-549 848v17h369z" />
    <glyph glyph-name="Z" unicode="Z" horiz-adv-x="1286" 
d="M98 1159v275h1096v-140l-688 -995h704v-299h-1147v166l701 993h-666z" />
    <glyph glyph-name="bracketleft" unicode="[" horiz-adv-x="743" 
d="M672 -365h-525v1807h525v-252h-234v-1301h234v-254z" />
    <glyph glyph-name="backslash" unicode="\" horiz-adv-x="1046" 
d="M49 1573h293l657 -1741h-290z" />
    <glyph glyph-name="bracketright" unicode="]" horiz-adv-x="743" 
d="M596 -365h-524v254h233v1301h-233v252h524v-1807z" />
    <glyph glyph-name="asciicircum" unicode="^" horiz-adv-x="1329" 
d="M76 672l2 12l491 756h170l510 -752l2 -16h-313l-287 430l-274 -430h-301z" />
    <glyph glyph-name="underscore" unicode="_" horiz-adv-x="1026" 
d="M29 -248v256h968v-256h-968z" />
    <glyph glyph-name="grave" unicode="`" horiz-adv-x="540" 
d="M-6 1417v13h344l151 -287v-15h-258z" />
    <glyph glyph-name="a" unicode="a" horiz-adv-x="1308" 
d="M897 895l10 117h277v-1012h-266l-17 127q-47 -73 -136.5 -110.5t-174.5 -39.5q-232 -2 -377 140.5t-145 388.5t150 388.5t380 139.5q98 0 179 -36.5t120 -102.5zM629 774q-114 0 -190.5 -73t-76.5 -195t76.5 -194t190.5 -72q119 0 193.5 77.5t74.5 178.5q0 116 -71 197
t-197 81z" />
    <glyph glyph-name="b" unicode="b" horiz-adv-x="1310" 
d="M698 766q-109 0 -190.5 -69.5t-81.5 -190.5q0 -69 23.5 -121.5t63 -81.5t86 -43t99.5 -14q115 0 181.5 73.5t66.5 186.5q0 115 -67.5 187.5t-180.5 72.5zM125 1432h297v-543q116 143 317 143q226 0 365 -141.5t139 -384.5q0 -236 -138.5 -381t-361.5 -145
q-106 0 -187.5 32t-147.5 117l-19 -129h-264v1432z" />
    <glyph glyph-name="c" unicode="c" horiz-adv-x="1040" 
d="M827 326l187 -193q-159 -156 -396 -156q-113 0 -211 31.5t-175 94t-121.5 165.5t-44.5 236q0 124 44.5 225.5t120 167.5t175 101.5t210.5 35.5q116 0 205 -31.5t162 -107.5l-164 -186q-77 59 -190 59q-114 0 -190.5 -71t-76.5 -193q0 -117 76.5 -185.5t184.5 -68.5
q53 0 111 20.5t93 55.5z" />
    <glyph glyph-name="d" unicode="d" horiz-adv-x="1310" 
d="M612 766q-113 0 -180 -72.5t-67 -187.5q0 -113 66 -186.5t181 -73.5q53 0 99.5 14t86.5 43t63.5 81.5t23.5 121.5q0 121 -82 190.5t-191 69.5zM889 1432h297v-1432h-264l-19 129q-65 -84 -147 -115.5t-189 -31.5q-223 0 -361 144t-138 380q0 243 138.5 384.5t364.5 141.5
q202 0 318 -143v543z" />
    <glyph glyph-name="e" unicode="e" horiz-adv-x="1181" 
d="M1110 410h-743q11 -78 83 -128.5t191 -50.5q70 0 141 19t121 61l166 -184q-77 -75 -194 -112.5t-240 -37.5q-271 0 -419 145.5t-148 393.5q0 233 145.5 377.5t390.5 144.5q130 0 233 -40.5t172.5 -117.5t96.5 -197.5t4 -272.5zM367 625h479q-4 79 -73.5 120t-168.5 41
q-89 0 -152 -43t-85 -118z" />
    <glyph glyph-name="f" unicode="f" horiz-adv-x="831" 
d="M520 0h-295v745h-178v248h178v60q0 105 36 186.5t96 128t130.5 69.5t147.5 23q81 0 145.5 -21t134.5 -65l-100 -207q-66 41 -145 41q-69 0 -109.5 -39t-40.5 -116v-60h281v-248h-281v-745z" />
    <glyph glyph-name="g" unicode="g" horiz-adv-x="1241" 
d="M82 -139h274q13 -205 254 -205q105 0 177.5 48.5t72.5 137.5q0 80 -58.5 127t-187.5 47q-250 0 -398 138t-148 372q0 125 45 225t122 162.5t174 95.5t205 33q157 0 238 -55l111 143l213 -163l-129 -154q110 -132 104 -291q-3 -113 -57 -206t-160 -148q46 -21 83 -47
t60 -50.5t40 -54.5t24.5 -52t12 -49.5t5 -40.5t0.5 -32q0 -88 -30.5 -162t-82.5 -125.5t-122 -88t-149.5 -53.5t-164.5 -17q-260 0 -395.5 122t-132.5 343zM614 780q-116 0 -189 -67t-73 -187q0 -108 74 -174.5t188 -66.5q107 0 180.5 63t73.5 178q0 107 -72.5 180.5
t-181.5 73.5z" />
    <glyph glyph-name="h" unicode="h" horiz-adv-x="1243" 
d="M125 1434h297v-547q109 141 307 141q404 0 404 -485v-543h-295v541q0 104 -52 161.5t-141 57.5q-97 0 -161 -65.5t-64 -182.5v-512h-295v1434z" />
    <glyph glyph-name="i" unicode="i" horiz-adv-x="544" 
d="M420 1014h-295v-1014h295v1014zM104 1280q0 45 18.5 81t48 54.5t65.5 27t72 0t65.5 -27t48 -54.5t18.5 -81t-18.5 -81t-48 -54.5t-65.5 -27t-72 0t-65.5 27t-48 54.5t-18.5 81z" />
    <glyph glyph-name="j" unicode="j" horiz-adv-x="542" 
d="M418 1014h-293v-1071q0 -209 -203 -107l-84 -215q78 -45 160 -62.5t158 -2t135.5 60.5t94 131t32.5 203v1063zM106 1280q0 53 24.5 91.5t62 56t80.5 17.5t80.5 -17.5t62 -56t24.5 -91.5q0 -45 -18.5 -81t-48 -54.5t-65 -27t-71 0t-65 27t-48 54.5t-18.5 81z" />
    <glyph glyph-name="k" unicode="k" horiz-adv-x="1122" 
d="M125 1432h295v-818l299 396h348v-19l-371 -456l428 -512v-23h-354l-350 444v-444h-295v1432z" />
    <glyph glyph-name="l" unicode="l" horiz-adv-x="550" 
d="M129 1432h293v-1432h-293v1432z" />
    <glyph glyph-name="m" unicode="m" horiz-adv-x="1814" 
d="M1067 0h-291v543q0 104 -43 162.5t-131 58.5q-84 0 -133 -66t-49 -157v-541h-295v1012h258l20 -115q43 75 115.5 106t151.5 31q211 0 295 -188q67 102 144.5 146t190.5 44q67 0 123.5 -13.5t109.5 -48t90 -88t59 -138.5t22 -195v-553h-297v547q0 103 -34.5 157t-119.5 54
t-135.5 -62.5t-50.5 -152.5v-543z" />
    <glyph glyph-name="n" unicode="n" 
d="M1151 0h-297v535q0 235 -209 235q-100 1 -164.5 -72.5t-64.5 -175.5v-522h-291v1012h266l10 -129q120 156 328 153q422 0 422 -499v-537z" />
    <glyph glyph-name="o" unicode="o" horiz-adv-x="1239" 
d="M618 -23q-168 0 -294 68t-192 187.5t-66 271.5q0 232 151.5 381t400.5 149q250 0 403 -149t153 -381q0 -233 -151 -380t-405 -147zM618 240q126 0 191 77t65 187q0 106 -66 186t-190 80q-63 0 -113 -23.5t-80 -62t-45 -85t-15 -95.5t15 -95t44.5 -84.5t79.5 -61.5
t114 -23z" />
    <glyph glyph-name="p" unicode="p" horiz-adv-x="1310" 
d="M698 244q113 0 180.5 72.5t67.5 187.5q0 113 -66.5 186.5t-181.5 73.5q-53 0 -99.5 -14t-86 -43t-63 -81.5t-23.5 -121.5q0 -121 81.5 -190.5t190.5 -69.5zM422 -446h-297v1456h264l19 -129q66 84 147 115.5t188 31.5q223 0 361.5 -144t138.5 -380q0 -243 -139 -385
t-365 -142q-88 0 -172.5 35t-144.5 109v-567z" />
    <glyph glyph-name="q" unicode="q" horiz-adv-x="1310" 
d="M612 244q109 0 191 69.5t82 190.5q0 69 -23.5 121.5t-63.5 81.5t-86.5 43t-99.5 14q-115 0 -181 -73.5t-66 -186.5q0 -115 67 -187.5t180 -72.5zM1186 -446h-297v567q-60 -74 -145 -109t-173 -35q-226 0 -364.5 142t-138.5 385q0 236 138 380t361 144q107 0 189 -31.5
t147 -115.5l19 129h264v-1456z" />
    <glyph glyph-name="r" unicode="r" horiz-adv-x="929" 
d="M125 1010h274l23 -111q98 135 270 135q143 0 248 -92l-123 -233q-71 51 -162 51q-100 0 -167.5 -62t-67.5 -172v-526h-295v1010z" />
    <glyph glyph-name="s" unicode="s" horiz-adv-x="1017" 
d="M907 909l-145 -184q-106 74 -240 74q-70 0 -107.5 -23t-37.5 -61q0 -85 149 -88q56 -2 102 -7.5t99.5 -17.5t93.5 -35.5t74.5 -58t53 -87.5t18.5 -120q1 -51 -14 -98.5t-49 -92t-84 -77.5t-126.5 -52.5t-169.5 -19.5q-128 0 -242 36.5t-233 135.5l127 209
q151 -123 352 -127q66 -2 109.5 22.5t42.5 63.5q0 85 -172 90q-77 3 -147 21t-134.5 54t-103.5 100t-39 149q0 83 37 147t99.5 102t138.5 57t161 19q236 0 387 -131z" />
    <glyph glyph-name="t" unicode="t" horiz-adv-x="858" 
d="M231 1255l295 33v-282h256v-246h-258v-381q0 -73 33 -104t82 -31q73 0 123 24l67 -245q-103 -41 -213 -46q-86 -4 -153.5 15t-120.5 64t-82 126.5t-29 196.5v381h-180v246h180v249z" />
    <glyph glyph-name="u" unicode="u" 
d="M111 1012h297v-535q0 -235 208 -235q100 -1 165 72.5t65 174.5v523h291v-1012h-267l-10 133q-116 -156 -328 -153q-72 0 -131.5 13.5t-114.5 48t-92.5 89t-60 142t-22.5 202.5v537z" />
    <glyph glyph-name="v" unicode="v" horiz-adv-x="1208" 
d="M485 641l119 -334l119 334l145 371h332l-434 -1018h-324l-434 1018h332z" />
    <glyph glyph-name="w" unicode="w" horiz-adv-x="1730" 
d="M750 1012h231l195 -645l65 229l141 416h330l-375 -1018h-293l-180 506l-178 -506h-295l-373 1018h330l141 -416l66 -229z" />
    <glyph glyph-name="x" unicode="x" horiz-adv-x="1110" 
d="M555 709l168 301h352v-11l-321 -491l340 -502v-6h-353l-186 303l-184 -303h-355v6l342 502l-323 491v11h352z" />
    <glyph glyph-name="y" unicode="y" horiz-adv-x="1173" 
d="M838 1012h325l-620 -1467h-322l209 486l-424 981h332l252 -637z" />
    <glyph glyph-name="z" unicode="z" horiz-adv-x="980" 
d="M94 1012h795v-144l-424 -596h444v-272h-854v125l445 631h-406v256z" />
    <glyph glyph-name="braceleft" unicode="{" horiz-adv-x="763" 
d="M684 -92v-232q-228 -43 -355.5 49t-127.5 285v305q0 31 -4.5 53.5t-17.5 47t-43 38t-75 13.5v217q45 0 75 13.5t43 38t17.5 47t4.5 53.5v290q0 206 123.5 302t359.5 53v-224q-91 19 -130.5 -15t-39.5 -132v-274v-30v-45.5t-2.5 -41.5t-7.5 -37.5t-15.5 -33t-25.5 -29
t-38 -25.5t-54 -21q35 -10 61 -23.5t41 -29.5t24.5 -35.5t12.5 -41t4 -46.5t0 -52v-30v-266q0 -98 31.5 -124t138.5 -17z" />
    <glyph glyph-name="bar" unicode="|" horiz-adv-x="577" 
d="M430 1569v-1721h-283v1721h283z" />
    <glyph glyph-name="braceright" unicode="}" horiz-adv-x="763" 
d="M80 -328v230q107 -8 138.5 18.5t31.5 124.5v266q0 104 4 127q13 75 83 110q24 12 56 21q-23 7 -42 16t-33.5 16.5t-25 21t-18 21.5t-12.5 26.5t-7.5 26.5t-3.5 31t-1 31v35.5v36.5v275q0 95 -38.5 123.5t-131.5 15.5v232q236 43 359.5 -53t123.5 -302v-291q0 -24 2 -42
t10.5 -40t22.5 -36t40.5 -23.5t63.5 -9.5v-217q-45 0 -75 -13.5t-42.5 -38t-17 -47t-4.5 -53.5v-305q0 -193 -127.5 -285t-355.5 -49z" />
    <glyph glyph-name="asciitilde" unicode="~" horiz-adv-x="1273" 
d="M944 793l223 -64q-33 -142 -115.5 -219t-195.5 -80q-46 -1 -91.5 14t-83 37.5t-74.5 45t-79.5 37.5t-83.5 14q-81 -4 -127 -113l-204 70q31 125 115.5 204.5t211.5 83.5q53 1 107 -17t92 -42t87 -50t89 -36q81 -11 129 115z" />
    <glyph glyph-name="exclamdown" unicode="&#xa1;" horiz-adv-x="575" 
d="M129 -371h317q0 169 -3 500.5t-3 499.5h-303zM467 895q0 -57 -26.5 -99.5t-67 -61t-87 -18.5t-87 18.5t-67 61t-26.5 99.5t26.5 98.5t67 60.5t87 19t87 -19t67 -60.5t26.5 -98.5z" />
    <glyph glyph-name="cent" unicode="&#xa2;" horiz-adv-x="1124" 
d="M868 305l183 -209q-55 -58 -121.5 -90.5t-157.5 -52.5v-156h-270v160q-188 52 -299 183t-111 337q0 194 110 330.5t300 189.5v158h270v-156q149 -35 258 -141l-168 -182q-72 74 -211 74q-105 0 -185.5 -79t-80.5 -194q0 -117 80 -192.5t186 -75.5q58 0 118 24.5t99 71.5z
" />
    <glyph glyph-name="sterling" unicode="&#xa3;" horiz-adv-x="1353" 
d="M530 967q0 -63 25 -168h406v-256h-349q0 -30 -6 -66.5t-19 -78t-39.5 -72t-62.5 -37.5h772v-289h-1148v291q56 1 93.5 21t57.5 57.5t28 77.5t11 96h-190v256h141q-28 89 -31 166q-9 217 129.5 355t388.5 138q230 0 363 -117t129 -333h-277q-1 63 -32.5 103.5t-77 55.5
t-105.5 15q-87 0 -147 -57t-60 -158z" />
    <glyph glyph-name="currency" unicode="&#xa4;" horiz-adv-x="1271" 
d="M633 436q94 0 146 55t52 150t-52 150t-146 55q-89 0 -145 -56t-56 -149t56 -149t145 -56zM451 242l-117 -121l-223 221l116 115q-37 102 -32.5 185.5t45.5 176.5l-129 121l223 223l119 -119q89 27 184 27q87 0 178 -31l123 123l221 -223l-119 -117q74 -189 4 -366
l115 -115l-217 -217l-121 117q-77 -27 -188 -27q-91 0 -182 27z" />
    <glyph glyph-name="yen" unicode="&#xa5;" horiz-adv-x="1556" 
d="M303 209v219h307v119h-307v219h193l-437 651v17h361l180 -291l168 -297l176 295l191 293h366v-17l-457 -651h189v-219h-309v-119h309v-219h-309v-209h-314v209h-307z" />
    <glyph glyph-name="brokenbar" unicode="&#xa6;" horiz-adv-x="598" 
d="M449 698h-299v758h299v-758zM150 571h299v-759h-299v759z" />
    <glyph glyph-name="section" unicode="&#xa7;" horiz-adv-x="1259" 
d="M100 166l154 184q88 -85 175.5 -118t193.5 -31q108 0 177.5 24t69.5 78q0 81 -239 78q-98 -2 -188 15t-167.5 52.5t-121.5 100.5t-39 151q3 60 41.5 116t113.5 83q-74 27 -107.5 90.5t-33.5 132.5q0 75 36.5 134t92 94t129.5 58t142 31.5t137 8.5q127 0 254.5 -40.5
t205.5 -129.5l-176 -145q-63 45 -132 64.5t-161 21.5q-49 1 -91.5 -4t-78.5 -16t-56.5 -30.5t-20.5 -46.5q0 -26 21.5 -45t58 -28t73.5 -13t78 -4q64 0 120.5 -5t119.5 -17t112 -36t88.5 -58t58.5 -86.5t13 -118.5q-6 -60 -47.5 -115t-106.5 -82q75 -33 113.5 -89.5
t38.5 -123.5q0 -68 -26.5 -123.5t-72 -91.5t-99.5 -61.5t-117.5 -39t-116.5 -19t-105 -5.5q-156 0 -291.5 52t-222.5 153zM874 711q0 52 -68 79t-165 29q-99 2 -173.5 -26t-74.5 -80q0 -50 66 -77.5t162 -29.5q35 -1 74.5 3.5t81.5 15t69.5 33t27.5 53.5z" />
    <glyph glyph-name="dieresis" unicode="&#xa8;" horiz-adv-x="1077" 
d="M121 1327q0 51 24 89t60 55t78.5 17t78.5 -17t60 -55t24 -89t-24 -88.5t-60 -54t-78.5 -16.5t-78.5 16.5t-60 54t-24 88.5zM653 1327q0 51 24 89t60.5 55t78.5 17t78.5 -17t60.5 -55t24 -89t-24 -88.5t-60.5 -54t-78.5 -16.5t-78.5 16.5t-60.5 54t-24 88.5z" />
    <glyph glyph-name="copyright" unicode="&#xa9;" horiz-adv-x="1693" 
d="M856 1477q175 0 317.5 -56.5t236 -157t144 -237t50.5 -297.5q0 -216 -86.5 -384t-257.5 -265.5t-404 -97.5q-173 0 -317.5 56.5t-242.5 155.5t-152 237t-54 298q0 156 54 292.5t151.5 237.5t242.5 159.5t318 58.5zM471 721q0 -120 57.5 -210t147 -133.5t196.5 -43.5
q186 0 322 133l-139 139q-67 -67 -164 -67q-83 0 -143 47.5t-60 134.5q0 97 58.5 147t144.5 50q42 0 86 -17.5t74 -44.5l137 135q-132 129 -307 129q-168 0 -284 -105.5t-126 -293.5zM315 729q0 -247 148.5 -398t392.5 -151q245 0 384.5 148t139.5 401q0 251 -139.5 399
t-384.5 148q-243 0 -392 -153t-149 -394z" />
    <glyph glyph-name="ordfeminine" unicode="&#xaa;" horiz-adv-x="903" 
d="M594 1354l14 80h207v-662h-213l-8 96q-27 -56 -84.5 -85t-120.5 -29q-152 0 -246 89t-94 261q0 170 96.5 259t251.5 89q64 0 118 -27t79 -71zM420 1253q-63 0 -104.5 -39.5t-41.5 -109.5q0 -71 41.5 -110.5t104.5 -39.5q39 0 69.5 16.5t46.5 43t23.5 58t0 63.5
t-23.5 58.5t-46.5 43t-69.5 16.5zM78 457v200h745v-200h-745z" />
    <glyph glyph-name="guillemotleft" unicode="&#xab;" horiz-adv-x="1153" 
d="M61 608l285 455h313v2l-284 -457q188 -312 284 -456h-313zM483 608l285 455h315v2l-284 -457l284 -456h-315z" />
    <glyph glyph-name="logicalnot" unicode="&#xac;" horiz-adv-x="1112" 
d="M969 795v-500h-248v254h-590v246h838z" />
    <glyph glyph-name="registered" unicode="&#xae;" horiz-adv-x="1693" 
d="M1204 348l-170 264q50 14 87 47.5t53 77t18.5 92t-17.5 95t-54 83.5t-92.5 60t-131.5 23h-340v-742h211v221h86l123 -221h227zM764 907h141q29 0 49 -17t25 -41.5t0.5 -49t-24 -41.5t-48.5 -17h-143v166zM856 1477q175 0 317.5 -56.5t236 -157t144 -237t50.5 -297.5
q0 -216 -86.5 -384t-257.5 -265.5t-404 -97.5q-173 0 -317.5 56.5t-242.5 155.5t-152 237t-54 298q0 156 54 292.5t151.5 237.5t242.5 159.5t318 58.5zM315 729q0 -247 148.5 -398t392.5 -151q245 0 384.5 148t139.5 401q0 251 -139.5 399t-384.5 148q-243 0 -392 -153
t-149 -394z" />
    <glyph glyph-name="macron" unicode="&#xaf;" horiz-adv-x="927" 
d="M102 1194v244h736v-244h-736z" />
    <glyph glyph-name="degree" unicode="&#xb0;" horiz-adv-x="747" 
d="M373 1296q-35 0 -62.5 -13t-41.5 -34.5t-21 -47t-0.5 -50.5t20.5 -46.5t41 -34.5t62 -13q49 0 82.5 24.5t41 59.5t0 70.5t-40.5 60t-81 24.5zM373 1454q110 0 185.5 -57t93 -138t0 -162.5t-94 -138.5t-188.5 -57q-62 0 -114 19t-85.5 51t-57 73.5t-28.5 87.5t0.5 91.5
t29 87t57.5 73.5t86.5 51t115.5 19z" />
    <glyph glyph-name="plusminus" unicode="&#xb1;" horiz-adv-x="1118" 
d="M129 639v276h287v293h286v-293h287v-276h-287v-291h-286v291h-287zM125 23v258h868v-258h-868z" />
    <glyph glyph-name="twosuperior" unicode="&#xb2;" horiz-adv-x="770" 
d="M276 1329h-200q1 75 45.5 131t112 82.5t145.5 26.5q141 0 229 -64.5t88 -187.5q0 -61 -23.5 -106t-61.5 -69.5t-84 -41t-92 -26t-84 -19.5t-61.5 -26.5t-23.5 -41.5h424v-196h-618v196q0 60 23 103.5t59.5 67.5t80.5 40t88.5 25.5t81 20t59.5 28.5t23 45q0 44 -49.5 62
t-101.5 2.5t-60 -52.5z" />
    <glyph glyph-name="threesuperior" unicode="&#xb3;" horiz-adv-x="788" 
d="M389 1102h-119v153h111q59 0 87 19.5t28 52.5q0 31 -31 48.5t-84 19.5q-47 2 -82 -13t-41 -45h-182q0 59 28 105t73.5 73t98.5 40.5t109 13.5q77 0 146.5 -25.5t119 -82.5t49.5 -136q0 -104 -98 -147q52 -17 85.5 -63.5t33.5 -102.5q0 -69 -31 -119t-83 -75t-106 -35.5
t-114 -10.5q-57 0 -112.5 14t-104 41.5t-78.5 75.5t-31 109h215q8 -58 109 -58q47 0 82 20t35 56q0 33 -30 52.5t-83 19.5z" />
    <glyph glyph-name="acute" unicode="&#xb4;" horiz-adv-x="569" 
d="M526 1430v-13l-237 -289h-258v15l151 287h344z" />
    <glyph glyph-name="mu" unicode="&#xb5;" horiz-adv-x="1267" 
d="M1163 0h-256l-30 104q-27 -70 -88 -109t-134 -42t-136 31.5t-93 101.5v-522h-283v1448h297v-557q0 -103 62.5 -164.5t144.5 -59.5q54 0 102 25t81.5 82.5t33.5 138.5v535h299v-1012z" />
    <glyph glyph-name="mu" unicode="&#x3bc;" horiz-adv-x="1267" 
d="M1163 0h-256l-30 104q-27 -70 -88 -109t-134 -42t-136 31.5t-93 101.5v-522h-283v1448h297v-557q0 -103 62.5 -164.5t144.5 -59.5q54 0 102 25t81.5 82.5t33.5 138.5v535h299v-1012z" />
    <glyph glyph-name="paragraph" unicode="&#xb6;" horiz-adv-x="1753" 
d="M870 1130v-1564h-321v819q-113 9 -204.5 50t-147.5 104t-92.5 141.5t-39 163.5t14 169.5t66 160.5t116 134t165.5 92t214 34h1024v-304h-174v-1564h-322v1564h-299z" />
    <glyph glyph-name="periodcentered" unicode="&#xb7;" horiz-adv-x="569" 
d="M106 608q0 49 19.5 87t51 57.5t69.5 29t76.5 0t70 -29t51 -57.5t19.5 -87q0 -48 -19.5 -85.5t-51 -57t-69.5 -28.5t-76.5 0t-70 28.5t-51 57t-19.5 85.5z" />
    <glyph glyph-name="cedilla" unicode="&#xb8;" horiz-adv-x="745" 
d="M104 -356l125 104q23 -28 74.5 -48t101 -13.5t60.5 49.5q9 37 -22.5 64.5t-75 28.5t-82.5 -24l-66 50l72 196h211l-35 -100q56 -3 98 -19.5t65.5 -41.5t38.5 -56.5t16 -64t-1 -64.5q-11 -79 -62 -130.5t-122.5 -66t-147.5 -6t-144 47t-104 94.5z" />
    <glyph glyph-name="onesuperior" unicode="&#xb9;" horiz-adv-x="583" 
d="M72 793v178h127v352l-107 -23v173l311 81v-583h132v-178h-463z" />
    <glyph glyph-name="ordmasculine" unicode="&#xba;" horiz-adv-x="870" 
d="M72 446v203h729v-203h-729zM434 748q-167 0 -270 92t-103 264q0 169 102.5 258.5t270.5 89.5q169 0 271 -89.5t102 -258.5q0 -173 -102.5 -264.5t-270.5 -91.5zM434 954q63 0 105.5 39.5t42.5 110.5q0 69 -42.5 109t-105.5 40q-62 0 -104.5 -40t-42.5 -109
q0 -70 42.5 -110t104.5 -40z" />
    <glyph glyph-name="guillemotright" unicode="&#xbb;" horiz-adv-x="1150" 
d="M805 1067l285 -455l-285 -454h-316l285 454l-285 457v-2h316zM385 1067l285 -455l-285 -454h-313l284 454l-284 457v-2h313z" />
    <glyph glyph-name="onequarter" unicode="&#xbc;" horiz-adv-x="1648" 
d="M1221 758h266v-455h92v-178h-92v-125h-197v125h-403l-8 176zM1290 303v256l-203 -256h203zM522 -2h-246l799 1452h250zM92 676v180h127v350l-108 -22v172l313 82v-582h129v-180h-461z" />
    <glyph glyph-name="onehalf" unicode="&#xbd;" horiz-adv-x="1675" 
d="M516 -4h-246l799 1454h250zM84 674v180h127v352l-107 -24v174l312 82v-584h131v-180h-463zM1182 528h-201q1 75 45.5 131t112 82.5t145.5 26.5q142 0 230 -64.5t88 -187.5q0 -61 -24 -106t-62 -69.5t-84 -41t-91.5 -26t-83.5 -19.5t-62 -26.5t-24 -41.5h424v-196h-618
v196q0 60 23 103.5t59.5 67.5t81 40t89 25.5t81 20t59.5 28.5t23 45q0 44 -49.5 62t-101.5 2.5t-60 -52.5z" />
    <glyph glyph-name="threequarters" unicode="&#xbe;" horiz-adv-x="1726" 
d="M387 1014h-113v147h105q63 0 84 11t24 55q0 7 -3.5 15.5t-13 21t-33 20.5t-56.5 8q-52 0 -78 -10t-39 -43h-178q0 74 48 126t113.5 73.5t137.5 21.5q74 0 140.5 -24t114 -78.5t48.5 -130.5q0 -42 -24 -85t-66 -55q49 -17 78 -59t29 -88q0 -64 -30.5 -113t-80 -76
t-104 -40t-111.5 -13q-54 0 -105.5 13.5t-97 39.5t-73.5 72t-29 105h205q38 -51 108 -51q45 0 77 16t32 41q0 39 -24 59.5t-85 20.5zM608 -12h-248l805 1462h250zM1296 758h267v-455h92v-178h-92v-125h-197v125h-403l-9 176zM1366 303v256l-203 -256h203z" />
    <glyph glyph-name="questiondown" unicode="&#xbf;" horiz-adv-x="1212" 
d="M815 872q0 -51 -21 -91.5t-54 -61.5t-73.5 -30.5t-80.5 0t-73 30.5t-54 61.5t-21 91.5q0 40 12.5 73.5t34.5 55t50 36.5t59.5 18.5t62.5 0t59.5 -18.5t50.5 -36.5t35 -55t13 -73.5zM1153 39h-322q-4 -84 -66 -136.5t-153 -52.5q-86 0 -145 34.5t-68 95.5q-6 41 6.5 73
t38.5 52t61 42.5t73 43t75 55t66.5 77t48.5 110.5t20 153h-317q0 -56 -20.5 -102.5t-53 -77t-73.5 -61.5t-82.5 -56.5t-78.5 -61.5t-62.5 -76.5t-34.5 -101.5t6 -137q34 -166 178.5 -252t361.5 -86q240 0 389 122.5t152 342.5z" />
    <glyph glyph-name="Agrave" unicode="&#xc0;" horiz-adv-x="1617" 
d="M1280 0l-104 246h-736l-104 -246h-344l643 1434h348l643 -1434h-346zM1055 528l-246 582l-248 -582h494zM453 1839v12h344l151 -286v-15h-258z" />
    <glyph glyph-name="Aacute" unicode="&#xc1;" horiz-adv-x="1617" 
d="M1176 246l104 -246h346l-643 1434h-348l-643 -1434h344l104 246h736zM809 1110l246 -582h-494zM1151 1851v-12l-238 -289h-258v15l152 286h344z" />
    <glyph glyph-name="Acircumflex" unicode="&#xc2;" horiz-adv-x="1617" 
d="M1176 246l104 -246h346l-643 1434h-348l-643 -1434h344l104 246h736zM809 1110l246 -582h-494zM731 1858h154l305 -287v-10h-287l-96 86l-94 -86h-289v10z" />
    <glyph glyph-name="Atilde" unicode="&#xc3;" horiz-adv-x="1617" 
d="M1280 0l-104 246h-736l-104 -246h-344l643 1434h348l643 -1434h-346zM1055 528l-246 582l-248 -582h494zM594 1544l-174 103q109 234 297 184q24 -6 59 -22t59.5 -26.5t51.5 -15t47.5 11.5t34.5 54l182 -90q-56 -129 -125.5 -172t-159.5 -12q-24 8 -57 22.5t-53.5 23.5
t-46.5 15t-44.5 1.5t-37 -23.5t-33.5 -54z" />
    <glyph glyph-name="Adieresis" unicode="&#xc4;" horiz-adv-x="1617" 
d="M1176 246l104 -246h346l-643 1434h-348l-643 -1434h344l104 246h736zM809 1110l246 -582h-494zM377 1712q0 44 18 79t46.5 53t63.5 26t69.5 0t63 -26t46.5 -53t18 -79t-18 -78.5t-46.5 -52t-63.5 -26t-69.5 0t-63 26t-46.5 52t-18 78.5zM909 1712q0 44 18 79t46.5 53
t63.5 26t70 0t63.5 -26t46.5 -53t18 -79t-18 -78.5t-46.5 -52t-63.5 -26t-70 0t-63.5 26t-46.5 52t-18 78.5z" />
    <glyph glyph-name="Aring" unicode="&#xc5;" horiz-adv-x="1617" 
d="M518 1640q0 83 43.5 144.5t108.5 90t139 28.5q72 0 135.5 -28.5t106.5 -90t43 -144.5q0 -134 -111 -213l643 -1427h-348l-109 246h-718l-113 -246h-346l641 1427q-115 73 -115 213zM580 543h460l-104 250l-127 350l-129 -359zM803 1743q-55 0 -86.5 -31t-31 -68.5
t31.5 -68.5t86 -31q57 0 87.5 31t29.5 68.5t-32.5 68.5t-84.5 31z" />
    <glyph glyph-name="AE" unicode="&#xc6;" horiz-adv-x="1826" 
d="M1739 283v-283h-838v223h-455l-129 -223h-372l899 1434h862v-279h-518v-295h483v-270h-483v-307h551zM610 504h291l12 520z" />
    <glyph glyph-name="Ccedilla" unicode="&#xc7;" horiz-adv-x="1431" 
d="M500 -416l125 105q23 -28 74.5 -48.5t100.5 -14t60 49.5q9 37 -22.5 65t-75 29t-82.5 -24l-66 49l66 180q-154 24 -271 92.5t-187 168.5t-104.5 218t-35.5 253q-1 113 27.5 221t90.5 206t150 171.5t216.5 117t281.5 43.5q302 0 526 -221l-200 -198q-61 60 -147.5 89
t-178.5 29q-94 0 -172 -28t-129 -73.5t-86 -106t-50 -124t-14 -128.5q1 -66 15 -127t48 -120.5t84 -103t128.5 -70t175.5 -26.5q90 0 190 37.5t162 99.5l199 -221q-201 -198 -512 -211l-25 -72q56 -3 98 -19.5t65.5 -41t38.5 -56t16 -64t-1 -64.5q-9 -66 -47 -113.5
t-91.5 -68.5t-118 -24t-125 13t-114 50t-83.5 81z" />
    <glyph glyph-name="Egrave" unicode="&#xc8;" horiz-adv-x="1343" 
d="M1251 295v-295h-1091v1434h1063v-293h-750v-277h707v-280h-707v-289h778zM358 1862v12h344l152 -287v-14h-258z" />
    <glyph glyph-name="Eacute" unicode="&#xc9;" horiz-adv-x="1343" 
d="M1251 0v295h-778v289h707v280h-707v277h750v293h-1063v-1434h1091zM1038 1874v-12l-237 -289h-258v14l151 287h344z" />
    <glyph glyph-name="Ecircumflex" unicode="&#xca;" horiz-adv-x="1343" 
d="M1251 0v295h-778v289h707v280h-707v277h750v293h-1063v-1434h1091zM633 1870h153l306 -287v-10h-287l-96 86l-95 -86h-288v10z" />
    <glyph glyph-name="Edieresis" unicode="&#xcb;" horiz-adv-x="1343" 
d="M1251 0v295h-778v289h707v280h-707v277h750v293h-1063v-1434h1091zM283 1718q0 44 18 79t46.5 53t63.5 26t69.5 0t63 -26t46.5 -53t18 -79t-18 -78.5t-46.5 -52t-63.5 -26t-69.5 0t-63 26t-46.5 52t-18 78.5zM815 1718q0 44 18 79t46.5 53t63.5 26t70 0t63.5 -26
t46.5 -53t18 -79t-18 -78.5t-46.5 -52t-63.5 -26t-70 0t-63.5 26t-46.5 52t-18 78.5z" />
    <glyph glyph-name="Igrave" unicode="&#xcc;" horiz-adv-x="636" 
d="M477 0h-317v1434h317v-1434zM-31 1849v13h344l152 -287v-14h-258z" />
    <glyph glyph-name="Iacute" unicode="&#xcd;" horiz-adv-x="636" 
d="M160 0h317v1434h-317v-1434zM666 1853v-12l-238 -289h-258v15l152 286h344z" />
    <glyph glyph-name="Icircumflex" unicode="&#xce;" horiz-adv-x="636" 
d="M160 0h317v1434h-317v-1434zM244 1864h153l305 -287v-10h-286l-97 86l-94 -86h-288v10z" />
    <glyph glyph-name="Idieresis" unicode="&#xcf;" horiz-adv-x="636" 
d="M160 0h317v1434h-317v-1434zM-109 1718q0 51 24 89t60.5 55t78.5 17t78.5 -17t60.5 -55t24 -89t-24 -88.5t-60.5 -54t-78.5 -16.5t-78.5 16.5t-60.5 54t-24 88.5zM424 1718q0 44 18 79t46.5 53t63.5 26t70 0t63.5 -26t46.5 -53t18 -79t-18 -78.5t-46.5 -52t-63.5 -26
t-70 0t-63.5 26t-46.5 52t-18 78.5z" />
    <glyph glyph-name="Eth" unicode="&#xd0;" horiz-adv-x="1550" 
d="M31 586v256h145v592h543q177 0 320.5 -53.5t237 -147.5t143.5 -220.5t50 -273.5q0 -155 -46 -287t-136.5 -234t-236 -160t-332.5 -58h-543v586h-145zM481 586v-303h238q217 0 325.5 119.5t110.5 336.5q1 210 -110.5 315t-325.5 105h-238v-317h258v-256h-258z" />
    <glyph glyph-name="Ntilde" unicode="&#xd1;" horiz-adv-x="1617" 
d="M434 1434l723 -932l-20 450v482h321v-1434h-274l-713 918l12 -472v-446h-323v1434h274zM580 1556l-185 109q114 248 314 195q25 -6 62.5 -23.5t64 -28.5t55 -15.5t50 12.5t36.5 57l192 -97q-59 -136 -132.5 -181.5t-168.5 -12.5q-26 8 -60.5 23.5t-56.5 25.5t-49.5 16.5
t-46.5 1.5t-39 -25t-36 -57z" />
    <glyph glyph-name="Ograve" unicode="&#xd2;" horiz-adv-x="1703" 
d="M1626 717q0 -230 -97.5 -401t-272.5 -261t-404 -90t-404 90t-272.5 261t-97.5 401q0 346 213 548.5t561 202.5t561 -202.5t213 -548.5zM1313 717q0 200 -127.5 332.5t-333.5 132.5q-133 0 -239 -62t-164 -168t-58 -235q0 -202 129 -332.5t332 -130.5q207 0 334 130.5
t127 332.5zM487 1870v12h344l152 -287v-14h-258z" />
    <glyph glyph-name="Oacute" unicode="&#xd3;" horiz-adv-x="1703" 
d="M1626 717q0 346 -213 548.5t-561 202.5t-561 -202.5t-213 -548.5q0 -230 97.5 -401t272.5 -261t404 -90t404 90t272.5 261t97.5 401zM1313 717q0 -202 -127 -332.5t-334 -130.5q-203 0 -332 130.5t-129 332.5q0 129 58 235t164 168t239 62q206 0 333.5 -132.5
t127.5 -332.5zM1192 1888v-12l-238 -289h-258v15l152 286h344z" />
    <glyph glyph-name="Ocircumflex" unicode="&#xd4;" horiz-adv-x="1703" 
d="M1626 717q0 346 -213 548.5t-561 202.5t-561 -202.5t-213 -548.5q0 -230 97.5 -401t272.5 -261t404 -90t404 90t272.5 261t97.5 401zM1313 717q0 -202 -127 -332.5t-334 -130.5q-203 0 -332 130.5t-129 332.5q0 129 58 235t164 168t239 62q206 0 333.5 -132.5
t127.5 -332.5zM776 1884h154l305 -287v-10h-287l-96 86l-94 -86h-289v10z" />
    <glyph glyph-name="Otilde" unicode="&#xd5;" horiz-adv-x="1703" 
d="M1626 717q0 -230 -97.5 -401t-272.5 -261t-404 -90t-404 90t-272.5 261t-97.5 401q0 346 213 548.5t561 202.5t561 -202.5t213 -548.5zM1313 717q0 200 -127.5 332.5t-333.5 132.5q-133 0 -239 -62t-164 -168t-58 -235q0 -202 129 -332.5t332 -130.5q207 0 334 130.5
t127 332.5zM649 1579l-182 107q55 114 129 167.5t182 26.5q25 -6 61.5 -23.5t62.5 -28.5t54 -15.5t49.5 12.5t36.5 57l191 -96q-59 -135 -131.5 -180.5t-165.5 -12.5q-28 9 -70.5 28.5t-67 28.5t-54.5 11t-53 -18t-42 -64z" />
    <glyph glyph-name="Odieresis" unicode="&#xd6;" horiz-adv-x="1703" 
d="M1626 717q0 346 -213 548.5t-561 202.5t-561 -202.5t-213 -548.5q0 -230 97.5 -401t272.5 -261t404 -90t404 90t272.5 261t97.5 401zM1313 717q0 -202 -127 -332.5t-334 -130.5q-203 0 -332 130.5t-129 332.5q0 129 58 235t164 168t239 62q206 0 333.5 -132.5
t127.5 -332.5zM428 1733q0 51 24 89t60.5 55t78.5 17t78.5 -17t60.5 -55t24 -89t-24 -88.5t-60.5 -54t-78.5 -16.5t-78.5 16.5t-60.5 54t-24 88.5zM961 1733q0 44 18 79t46.5 53t63.5 26t69.5 0t63 -26t46.5 -53t18 -79t-18 -78.5t-46.5 -52t-63 -26t-69.5 0t-63.5 26
t-46.5 52t-18 78.5z" />
    <glyph glyph-name="multiply" unicode="&#xd7;" horiz-adv-x="942" 
d="M303 1014l172 -183l182 183l183 -183l-191 -192l189 -186l-183 -174l-184 184l-178 -184l-191 188l183 178l-179 180z" />
    <glyph glyph-name="Oslash" unicode="&#xd8;" horiz-adv-x="1634" 
d="M819 1464q126 0 258 -39l90 146h308l-168 -277q124 -107 189 -263t63 -324q-1 -113 -28.5 -219t-86.5 -201.5t-144 -166.5t-208.5 -113t-272.5 -42q-169 0 -297 49l-96 -157h-305l178 290q-110 105 -165.5 249.5t-55.5 305.5q0 114 28.5 223t89 207t146 171.5t209 117
t268.5 43.5zM819 256q92 0 165.5 26.5t120.5 69.5t78.5 102t45.5 119.5t16 126.5q4 200 -100 332l-467 -762q72 -14 141 -14zM819 1176q-91 0 -165.5 -29.5t-123 -77.5t-81.5 -111t-46.5 -128.5t-11.5 -131.5q7 -163 70 -278l461 747q-74 9 -103 9z" />
    <glyph glyph-name="Ugrave" unicode="&#xd9;" horiz-adv-x="1585" 
d="M1128 1432h318v-801q0 -314 -163.5 -485.5t-451.5 -180.5q-143 -5 -266.5 34.5t-219.5 119.5t-151 211.5t-55 300.5v801h318v-801q0 -190 100 -288.5t277 -90.5q294 19 294 379v801zM457 1851v13h344l151 -287v-14h-258z" />
    <glyph glyph-name="Uacute" unicode="&#xda;" horiz-adv-x="1585" 
d="M1446 1432h-318v-801q0 -360 -294 -379q-177 -8 -277 90.5t-100 288.5v801h-318v-801q0 -169 55 -300.5t151 -211.5t219.5 -119.5t266.5 -34.5q288 9 451.5 180.5t163.5 485.5v801zM1116 1862v-13l-237 -288h-258v14l151 287h344z" />
    <glyph glyph-name="Ucircumflex" unicode="&#xdb;" horiz-adv-x="1585" 
d="M1446 1432h-318v-801q0 -360 -294 -379q-177 -8 -277 90.5t-100 288.5v801h-318v-801q0 -169 55 -300.5t151 -211.5t219.5 -119.5t266.5 -34.5q288 9 451.5 180.5t163.5 485.5v801zM719 1870h153l306 -287v-10h-287l-96 86l-95 -86h-288v10z" />
    <glyph glyph-name="Udieresis" unicode="&#xdc;" horiz-adv-x="1585" 
d="M1446 1432h-318v-801q0 -360 -294 -379q-177 -8 -277 90.5t-100 288.5v801h-318v-801q0 -169 55 -300.5t151 -211.5t219.5 -119.5t266.5 -34.5q288 9 451.5 180.5t163.5 485.5v801zM375 1718q0 44 18 79t46.5 53t63.5 26t69.5 0t63 -26t46.5 -53t18 -79t-18 -78.5
t-46.5 -52t-63.5 -26t-69.5 0t-63 26t-46.5 52t-18 78.5zM907 1718q0 44 18 79t46.5 53t63.5 26t70 0t63.5 -26t46.5 -53t18 -79t-18 -78.5t-46.5 -52t-63.5 -26t-70 0t-63.5 26t-46.5 52t-18 78.5z" />
    <glyph glyph-name="Yacute" unicode="&#xdd;" horiz-adv-x="1441" 
d="M721 864l-344 570h-369v-17l549 -848v-569h320v569l573 848v17h-367zM1044 1870v-12l-237 -289h-258v14l151 287h344z" />
    <glyph glyph-name="Thorn" unicode="&#xde;" horiz-adv-x="1404" 
d="M160 0l2 1432h315v-230h340q131 0 237 -41.5t171.5 -109.5t101 -154.5t35.5 -177.5t-35 -177.5t-100.5 -154.5t-172 -109.5t-237.5 -41.5h-338v-236h-319zM479 911v-391h338q73 0 127 29t78 72.5t24 94t-24.5 94t-78 72.5t-126.5 29h-338z" />
    <glyph glyph-name="germandbls" unicode="&#xdf;" horiz-adv-x="1294" 
d="M553 -2q0 45 -1 122.5t-1 121.5q67 -13 121.5 -13.5t92 8.5t66 27.5t44.5 39.5t26 47t13.5 48.5t3.5 46.5q0 60 -23 104.5t-62.5 69t-86.5 36.5t-101 12h-90v280h68q93 0 143.5 29.5t50.5 83.5q0 50 -38 83t-92.5 40t-109.5 -2.5t-94.5 -46t-42.5 -88.5v-1047h-315v1051
q0 108 55.5 194t144 131.5t195 68.5t213.5 4.5t195.5 -61t144 -127.5t55.5 -194q0 -56 -20 -106.5t-69 -93.5t-121 -60q149 -31 230 -130t81 -226q0 -102 -25 -182.5t-70.5 -135t-107.5 -90.5t-138 -50.5t-159.5 -13t-175.5 18.5z" />
    <glyph glyph-name="agrave" unicode="&#xe0;" horiz-adv-x="1308" 
d="M897 895l10 117h277v-1012h-266l-17 127q-47 -73 -136.5 -110.5t-174.5 -39.5q-232 -2 -377 140.5t-145 388.5t150 388.5t380 139.5q98 0 179 -36.5t120 -102.5zM629 774q-114 0 -190.5 -73t-76.5 -195t76.5 -194t190.5 -72q119 0 193.5 77.5t74.5 178.5q0 116 -71 197
t-197 81zM305 1452v12h344l152 -286v-15h-258z" />
    <glyph glyph-name="aacute" unicode="&#xe1;" horiz-adv-x="1308" 
d="M897 895q-39 66 -120 102.5t-179 36.5q-230 3 -380 -139.5t-150 -388.5t145 -388.5t377 -140.5q85 2 174.5 39.5t136.5 110.5l17 -127h266v1012h-277zM629 774q126 0 197 -81t71 -197q0 -101 -74.5 -178.5t-193.5 -77.5q-114 0 -190.5 72t-76.5 194t76.5 195t190.5 73z
M971 1464v-12l-238 -289h-258v15l152 286h344z" />
    <glyph glyph-name="acircumflex" unicode="&#xe2;" horiz-adv-x="1308" 
d="M897 895q-39 66 -120 102.5t-179 36.5q-230 3 -380 -139.5t-150 -388.5t145 -388.5t377 -140.5q85 2 174.5 39.5t136.5 110.5l17 -127h266v1012h-277zM629 774q126 0 197 -81t71 -197q0 -101 -74.5 -178.5t-193.5 -77.5q-114 0 -190.5 72t-76.5 194t76.5 195t190.5 73z
M565 1462h154l305 -286v-11h-287l-96 86l-94 -86h-289v11z" />
    <glyph glyph-name="atilde" unicode="&#xe3;" horiz-adv-x="1308" 
d="M432 1178l-174 110q56 114 129 166t178 21q25 -7 60 -24.5t60 -29t51.5 -17t48 10.5t36.5 55l183 -98q-110 -254 -291 -184q-25 8 -58 23.5t-54 26t-47.5 17t-45.5 2t-39.5 -23.5t-36.5 -55zM897 895l10 117h277v-1012h-266l-17 127q-47 -73 -136.5 -110.5t-174.5 -39.5
q-232 -2 -377 140.5t-145 388.5t150 388.5t380 139.5q98 0 179 -36.5t120 -102.5zM629 774q-114 0 -190.5 -73t-76.5 -195t76.5 -194t190.5 -72q119 0 193.5 77.5t74.5 178.5q0 116 -71 197t-197 81z" />
    <glyph glyph-name="adieresis" unicode="&#xe4;" horiz-adv-x="1308" 
d="M897 895q-39 66 -120 102.5t-179 36.5q-230 3 -380 -139.5t-150 -388.5t145 -388.5t377 -140.5q85 2 174.5 39.5t136.5 110.5l17 -127h266v1012h-277zM629 774q126 0 197 -81t71 -197q0 -101 -74.5 -178.5t-193.5 -77.5q-114 0 -190.5 72t-76.5 194t76.5 195t190.5 73z
M223 1341q0 51 24 89t60.5 55t78.5 17t78.5 -17t60.5 -55t24 -89t-24 -88.5t-60.5 -54t-78.5 -16.5t-78.5 16.5t-60.5 54t-24 88.5zM756 1341q0 44 18 79t46.5 53t63.5 26t69.5 0t63 -26t46.5 -53t18 -79q0 -51 -24 -88.5t-60 -54t-78.5 -16.5t-78.5 16.5t-60 54t-24 88.5z
" />
    <glyph glyph-name="aring" unicode="&#xe5;" horiz-adv-x="1308" 
d="M897 895l10 117h277v-1012h-266l-17 127q-47 -73 -136.5 -110.5t-174.5 -39.5q-232 -2 -377 140.5t-145 388.5t150 388.5t380 139.5q98 0 179 -36.5t120 -102.5zM629 774q-114 0 -190.5 -73t-76.5 -195t76.5 -194t190.5 -72q119 0 193.5 77.5t74.5 178.5q0 116 -71 197
t-197 81zM473 1358q0 63 25.5 111t68.5 75t93 40t106 13q53 0 100.5 -13.5t88 -40.5t64 -74.5t23.5 -110.5q0 -75 -42.5 -130t-103.5 -79.5t-130 -24.5q-43 0 -82.5 7t-78.5 24.5t-68 43.5t-46.5 67t-17.5 92zM760 1458q-54 0 -84.5 -30t-30 -66t31 -66t83.5 -30q55 0 85 30
t29 66t-32 66t-82 30z" />
    <glyph glyph-name="ae" unicode="&#xe6;" horiz-adv-x="1972" 
d="M1905 420h-750q22 -93 101.5 -144t179.5 -51q68 0 137 23t113 61l157 -188q-142 -154 -407 -154q-95 0 -180.5 35.5t-135.5 106.5l-12 -109h-215l-2 127q-31 -72 -124 -110t-181 -40q-116 -1 -210 30.5t-163.5 94.5t-107 166t-37.5 238q0 125 42.5 227t114.5 166.5
t163.5 99.5t193.5 35q95 0 176 -35.5t131 -103.5l10 115h221v-103q59 70 149.5 101.5t182.5 31.5q106 0 199.5 -42t161 -122t94 -195t-1.5 -261zM627 776q-115 0 -190 -72t-75 -198q0 -127 75.5 -200t189.5 -73q65 0 118 23.5t86 61.5t50.5 87t17.5 99.5t-17.5 99.5
t-50.5 87t-86 61.5t-118 23.5zM1161 637h471q-10 73 -65 111t-129 38q-102 0 -173 -39t-104 -110z" />
    <glyph glyph-name="ccedilla" unicode="&#xe7;" horiz-adv-x="1042" 
d="M293 -389l121 119q22 -26 72.5 -45t99 -12.5t59.5 46.5q9 35 -20.5 62.5t-73.5 30.5t-90 -21l-58 39l64 162q-179 37 -289 167t-110 345q0 164 76.5 287t200 184t273.5 61q116 0 205 -31.5t162 -107.5l-164 -186q-77 59 -190 59q-114 0 -190 -72t-76 -194
q0 -117 76 -186.5t184 -69.5q53 0 111 20.5t93 55.5l187 -193q-139 -136 -344 -154l-25 -57q59 -5 102.5 -22.5t65 -42.5t35.5 -54.5t13 -57.5t-3 -52q-10 -78 -58 -130t-115.5 -69t-141 -11.5t-142 40.5t-110.5 90z" />
    <glyph glyph-name="egrave" unicode="&#xe8;" horiz-adv-x="1181" 
d="M1110 410h-743q11 -78 83 -128.5t191 -50.5q70 0 141 19t121 61l166 -184q-77 -75 -194 -112.5t-240 -37.5q-271 0 -419 145.5t-148 393.5q0 233 145.5 377.5t390.5 144.5q130 0 233 -40.5t172.5 -117.5t96.5 -197.5t4 -272.5zM367 625h479q-4 79 -73.5 120t-168.5 41
q-89 0 -152 -43t-85 -118zM285 1456v12h344l151 -286v-15h-258z" />
    <glyph glyph-name="eacute" unicode="&#xe9;" horiz-adv-x="1181" 
d="M1110 410h-743q11 -78 83 -128.5t191 -50.5q70 0 141 19t121 61l166 -184q-77 -75 -194 -112.5t-240 -37.5q-271 0 -419 145.5t-148 393.5q0 233 145.5 377.5t390.5 144.5q130 0 233 -40.5t172.5 -117.5t96.5 -197.5t4 -272.5zM367 625h479q-4 79 -73.5 120t-168.5 41
q-89 0 -152 -43t-85 -118zM926 1458v-12l-238 -289h-258v14l152 287h344z" />
    <glyph glyph-name="ecircumflex" unicode="&#xea;" horiz-adv-x="1181" 
d="M1110 410h-743q11 -78 83 -128.5t191 -50.5q70 0 141 19t121 61l166 -184q-77 -75 -194 -112.5t-240 -37.5q-271 0 -419 145.5t-148 393.5q0 233 145.5 377.5t390.5 144.5q130 0 233 -40.5t172.5 -117.5t96.5 -197.5t4 -272.5zM367 625h479q-4 79 -73.5 120t-168.5 41
q-89 0 -152 -43t-85 -118zM528 1473h154l305 -287v-10h-287l-96 86l-94 -86h-289v10z" />
    <glyph glyph-name="edieresis" unicode="&#xeb;" horiz-adv-x="1181" 
d="M213 1315q0 73 49 114t108.5 41t108.5 -41t49 -114q0 -42 -17.5 -74.5t-45 -49.5t-61 -25t-67.5 0t-61.5 25t-45 49.5t-17.5 74.5zM690 1315q0 49 23.5 85t58.5 52t76 16t76 -16t58.5 -52t23.5 -85q0 -48 -23.5 -84t-58.5 -52t-76 -16t-76 16t-58.5 52t-23.5 84z
M1110 410h-743q11 -78 83 -128.5t191 -50.5q70 0 141 19t121 61l166 -184q-77 -75 -194 -112.5t-240 -37.5q-271 0 -419 145.5t-148 393.5q0 233 145.5 377.5t390.5 144.5q130 0 233 -40.5t172.5 -117.5t96.5 -197.5t4 -272.5zM367 625h479q-4 79 -73.5 120t-168.5 41
q-89 0 -152 -43t-85 -118z" />
    <glyph glyph-name="igrave" unicode="&#xec;" horiz-adv-x="546" 
d="M4 1419v13h322l100 -289v-15h-254zM422 0h-297v1012h297v-1012z" />
    <glyph glyph-name="iacute" unicode="&#xed;" horiz-adv-x="546" 
d="M545 1432v-13l-168 -291h-254v15l100 289h322zM125 0h297v1012h-297v-1012z" />
    <glyph glyph-name="icircumflex" unicode="&#xee;" horiz-adv-x="546" 
d="M125 0h297v1012h-297v-1012zM205 1458h137l268 -307v-10h-252l-86 90l-82 -90h-256v10z" />
    <glyph glyph-name="idieresis" unicode="&#xef;" horiz-adv-x="546" 
d="M-59 1296q0 41 17 73.5t43.5 49.5t59.5 25t65.5 0t59 -25t43.5 -49.5t17 -73.5t-17 -73.5t-43.5 -49.5t-59.5 -25t-65.5 0t-59 25t-43.5 49.5t-17 73.5zM334 1296q0 41 17 73.5t43.5 49.5t59 25t65.5 0t59.5 -25t43.5 -49.5t17 -73.5t-17 -73.5t-43.5 -49.5t-59.5 -25
t-65.5 0t-59 25t-43.5 49.5t-17 73.5zM125 0h297v1012h-297v-1012z" />
    <glyph glyph-name="eth" unicode="&#xf0;" horiz-adv-x="1187" 
d="M618 1352l105 116l172 -137l-86 -96q161 -130 236.5 -320t66.5 -403q-11 -240 -146 -384t-374 -144q-126 0 -228 42.5t-165.5 113.5t-97 160t-33.5 187q0 109 40 206.5t125.5 173.5t204.5 106q202 36 316 -45q-37 64 -98 116t-130.5 85.5t-137 54.5t-132.5 30l49 224
q172 -23 313 -86zM592 244q105 0 165 68t68 177q8 103 -58.5 172.5t-174.5 69.5q-104 0 -167 -72.5t-63 -169.5q0 -98 63 -171.5t167 -73.5z" />
    <glyph glyph-name="ntilde" unicode="&#xf1;" 
d="M1151 0h-297v535q0 235 -209 235q-100 1 -164.5 -72.5t-64.5 -175.5v-522h-291v1012h266l10 -129q120 156 328 153q422 0 422 -499v-537zM444 1188l-168 100q105 227 287 180q23 -6 56.5 -22t57.5 -26t49.5 -14.5t45.5 11.5t33 53l176 -88q-55 -127 -121.5 -169
t-152.5 -11q-26 8 -65 26t-61.5 26t-50 10t-48.5 -16.5t-38 -59.5z" />
    <glyph glyph-name="ograve" unicode="&#xf2;" horiz-adv-x="1239" 
d="M618 -23q-168 0 -294 68t-192 187.5t-66 271.5q0 232 151.5 381t400.5 149q250 0 403 -149t153 -381q0 -233 -151 -380t-405 -147zM618 240q126 0 191 77t65 187q0 106 -66 186t-190 80q-63 0 -113 -23.5t-80 -62t-45 -85t-15 -95.5t15 -95t44.5 -84.5t79.5 -61.5
t114 -23zM291 1442v12h344l151 -287v-14h-258z" />
    <glyph glyph-name="oacute" unicode="&#xf3;" horiz-adv-x="1239" 
d="M618 -23q254 0 405 147t151 380q0 232 -153 381t-403 149q-249 0 -400.5 -149t-151.5 -381q0 -152 66 -271.5t192 -187.5t294 -68zM618 240q-64 0 -114 23t-79.5 61.5t-44.5 84.5t-15 95t15 95.5t45 85t80 62t113 23.5q124 0 190 -80t66 -186q0 -110 -65 -187t-191 -77z
M973 1458v-12l-238 -289h-258v14l152 287h344z" />
    <glyph glyph-name="ocircumflex" unicode="&#xf4;" horiz-adv-x="1239" 
d="M618 -23q254 0 405 147t151 380q0 232 -153 381t-403 149q-249 0 -400.5 -149t-151.5 -381q0 -152 66 -271.5t192 -187.5t294 -68zM618 240q-64 0 -114 23t-79.5 61.5t-44.5 84.5t-15 95t15 95.5t45 85t80 62t113 23.5q124 0 190 -80t66 -186q0 -110 -65 -187t-191 -77z
M541 1462h153l305 -286v-11h-286l-97 86l-94 -86h-289v11z" />
    <glyph glyph-name="otilde" unicode="&#xf5;" horiz-adv-x="1239" 
d="M618 -23q-168 0 -294 68t-192 187.5t-66 271.5q0 232 151.5 381t400.5 149q250 0 403 -149t153 -381q0 -233 -151 -380t-405 -147zM618 240q126 0 191 77t65 187q0 106 -66 186t-190 80q-63 0 -113 -23.5t-80 -62t-45 -85t-15 -95.5t15 -95t44.5 -84.5t79.5 -61.5
t114 -23zM418 1178l-174 102q109 234 297 184q24 -6 59 -22t59.5 -26.5t51.5 -15t47.5 11.5t34.5 54l182 -90q-56 -129 -125.5 -172t-159.5 -12q-24 8 -56.5 22.5t-53.5 24t-47 15.5t-44.5 1.5t-37 -23.5t-33.5 -54z" />
    <glyph glyph-name="odieresis" unicode="&#xf6;" horiz-adv-x="1239" 
d="M217 1311q0 51 24 89t60.5 55t78.5 17t78.5 -17t60.5 -55t24 -89t-24 -88.5t-60.5 -54t-78.5 -16.5t-78.5 16.5t-60.5 54t-24 88.5zM705 1311q0 44 18 79t46.5 53t63.5 26t69.5 0t63 -26t46.5 -53t18 -79t-18 -78.5t-46.5 -52t-63.5 -26t-69.5 0t-63 26t-46.5 52
t-18 78.5zM618 -23q254 0 405 147t151 380q0 232 -153 381t-403 149q-249 0 -400.5 -149t-151.5 -381q0 -152 66 -271.5t192 -187.5t294 -68zM618 240q-64 0 -114 23t-79.5 61.5t-44.5 84.5t-15 95t15 95.5t45 85t80 62t113 23.5q124 0 190 -80t66 -186q0 -110 -65 -187
t-191 -77z" />
    <glyph glyph-name="divide" unicode="&#xf7;" horiz-adv-x="1130" 
d="M94 782v-264h942v264h-942zM403 270q0 52 24 90t60 55t78 17t78 -17t60 -55t24 -90q0 -51 -24 -88.5t-60 -54t-78 -16.5t-78 16.5t-60 54t-24 88.5zM403 1038q0 52 24 90t60 55t78 17t78 -17t60 -55t24 -90q0 -51 -24 -88.5t-60 -54t-78 -16.5t-78 16.5t-60 54t-24 88.5z
" />
    <glyph glyph-name="oslash" unicode="&#xf8;" horiz-adv-x="1239" 
d="M618 -23q-90 0 -167 21l-64 -111h-258l121 207q-89 71 -136.5 176t-47.5 234q0 114 39.5 212t110 168.5t174.5 111t228 40.5q90 0 173 -22l67 114h258l-127 -215q88 -73 136.5 -178.5t48.5 -230.5q0 -233 -151 -380t-405 -147zM618 770q-63 0 -113 -23.5t-80 -62t-45 -85
t-15 -95.5q0 -87 38 -150l244 414q-10 2 -29 2zM594 240h24q126 0 191 77t65 187q0 84 -38 147z" />
    <glyph glyph-name="ugrave" unicode="&#xf9;" 
d="M111 1012h297v-535q0 -235 208 -235q100 -1 165 72.5t65 174.5v523h291v-1012h-267l-10 133q-116 -156 -328 -153q-72 0 -131.5 13.5t-114.5 48t-92.5 89t-60 142t-22.5 202.5v537zM289 1434v12h344l151 -287v-14h-258z" />
    <glyph glyph-name="uacute" unicode="&#xfa;" 
d="M408 1012h-297v-537q0 -115 22.5 -202.5t60 -142t92.5 -89t114.5 -48t131.5 -13.5q212 -3 328 153l10 -133h267v1012h-291v-523q0 -101 -65 -174.5t-165 -72.5q-208 0 -208 235v535zM958 1454v-12l-237 -289h-258v14l151 287h344z" />
    <glyph glyph-name="ucircumflex" unicode="&#xfb;" 
d="M408 1012h-297v-537q0 -115 22.5 -202.5t60 -142t92.5 -89t114.5 -48t131.5 -13.5q212 -3 328 153l10 -133h267v1012h-291v-523q0 -101 -65 -174.5t-165 -72.5q-208 0 -208 235v535zM543 1458h153l305 -287v-10h-286l-97 86l-94 -86h-288v10z" />
    <glyph glyph-name="udieresis" unicode="&#xfc;" 
d="M408 1012h-297v-537q0 -115 22.5 -202.5t60 -142t92.5 -89t114.5 -48t131.5 -13.5q212 -3 328 153l10 -133h267v1012h-291v-523q0 -101 -65 -174.5t-165 -72.5q-208 0 -208 235v535zM195 1317q0 42 18 75t47 50.5t63.5 25.5t69.5 0t64 -25.5t47 -50.5t18 -75t-18 -74.5
t-47 -49.5t-63.5 -25t-69.5 0t-64 25t-47 49.5t-18 74.5zM729 1317q0 42 18 75t46.5 50.5t63.5 25.5t70 0t63.5 -25.5t46.5 -50.5t18 -75t-18 -74.5t-46.5 -49.5t-63.5 -25t-70 0t-63.5 25t-46.5 49.5t-18 74.5z" />
    <glyph glyph-name="yacute" unicode="&#xfd;" horiz-adv-x="1173" 
d="M1163 1012h-325l-248 -637l-252 637h-332l424 -981l-209 -486h322zM903 1450v-12l-237 -289h-258v14l151 287h344z" />
    <glyph glyph-name="thorn" unicode="&#xfe;" horiz-adv-x="1308" 
d="M696 258q106 0 178 67.5t72 178.5t-72 178.5t-178 67.5q-100 0 -175 -74t-75 -172q0 -99 74.5 -172.5t175.5 -73.5zM420 -422h-295v1856h295v-531q43 63 131 97t166 34q234 2 378 -135.5t144 -394.5q0 -256 -140 -393.5t-370 -137.5q-81 0 -168.5 32t-140.5 104v-531z
" />
    <glyph glyph-name="ydieresis" unicode="&#xff;" horiz-adv-x="1173" 
d="M1163 1012h-325l-248 -637l-252 637h-332l424 -981l-209 -486h322zM168 1327q0 51 24 89t60.5 55t78.5 17t78.5 -17t60.5 -55t24 -89t-24 -88.5t-60.5 -54t-78.5 -16.5t-78.5 16.5t-60.5 54t-24 88.5zM700 1327q0 51 24 89t60.5 55t78.5 17t78.5 -17t60.5 -55t24 -89
t-24 -88.5t-60.5 -54t-78.5 -16.5t-78.5 16.5t-60.5 54t-24 88.5z" />
    <glyph glyph-name="Amacron" unicode="&#x100;" horiz-adv-x="1617" 
d="M1280 0l-104 246h-736l-104 -246h-344l643 1434h348l643 -1434h-346zM1055 528l-246 582l-248 -582h494zM442 1563v243h736v-243h-736z" />
    <glyph glyph-name="amacron" unicode="&#x101;" horiz-adv-x="1308" 
d="M897 895l10 117h277v-1012h-266l-17 127q-47 -73 -136.5 -110.5t-174.5 -39.5q-232 -2 -377 140.5t-145 388.5t150 388.5t380 139.5q98 0 179 -36.5t120 -102.5zM629 774q-114 0 -190.5 -73t-76.5 -195t76.5 -194t190.5 -72q119 0 193.5 77.5t74.5 178.5q0 116 -71 197
t-197 81zM291 1200v244h735v-244h-735z" />
    <glyph glyph-name="Abreve" unicode="&#x102;" horiz-adv-x="1617" 
d="M1280 0l-104 246h-736l-104 -246h-344l643 1434h348l643 -1434h-346zM1055 528l-246 582l-248 -582h494zM905 1853h246q6 -135 -92 -219t-244 -84q-68 0 -131.5 19t-114.5 55t-78 95.5t-18 133.5h246q0 -47 31 -66.5t65 -19.5q90 0 90 86z" />
    <glyph glyph-name="abreve" unicode="&#x103;" horiz-adv-x="1308" 
d="M897 895l10 117h277v-1012h-266l-17 127q-47 -73 -136.5 -110.5t-174.5 -39.5q-232 -2 -377 140.5t-145 388.5t150 388.5t380 139.5q98 0 179 -36.5t120 -102.5zM629 774q-114 0 -190.5 -73t-76.5 -195t76.5 -194t190.5 -72q119 0 193.5 77.5t74.5 178.5q0 116 -71 197
t-197 81zM760 1462h244q6 -130 -90.5 -211.5t-241.5 -81.5q-68 0 -131 18.5t-113.5 53.5t-77 92.5t-18.5 128.5h246q0 -46 29.5 -64t64.5 -18q88 0 88 82z" />
    <glyph glyph-name="Aogonek" unicode="&#x104;" horiz-adv-x="1624" 
d="M1040 543l-231 530l-229 -530h460zM1493 -141l145 -115q-36 -49 -95 -81t-122 -40q-83 -11 -155 10t-118 63t-69 98.5t-16.5 113t50 109.5t120.5 85l-64 144h-718l-113 -246h-346l643 1434h348l649 -1434q-133 6 -233 -4q-64 -7 -87.5 -50.5t4.5 -83t89 -34.5q39 3 88 31
z" />
    <glyph glyph-name="aogonek" unicode="&#x105;" horiz-adv-x="1310" 
d="M1149 -246l145 -112q-64 -104 -219 -125q-72 -9 -141 8t-123.5 66t-69.5 122q-1 21 -3.5 46.5t7.5 58.5t27 64t56 63.5t94 56.5l-27 125q-31 -73 -125 -117.5t-178 -44.5q-236 -5 -379 134t-143 407q0 132 40.5 235t112.5 166.5t167.5 96t209.5 32.5q94 0 176 -39.5
t119 -101.5l10 115h281v-1119q-15 4 -42.5 4.5t-61.5 -4.5t-64 -16t-50 -34t-20 -54q0 -37 26.5 -59t74.5 -17.5t100 43.5zM631 776q-115 0 -190.5 -72t-75.5 -198q0 -127 76 -200t190 -73q62 0 112 23.5t80.5 61.5t47.5 87t17 99.5t-17 99.5t-47.5 87t-80.5 61.5t-112 23.5
z" />
    <glyph glyph-name="Cacute" unicode="&#x106;" horiz-adv-x="1425" 
d="M1395 174l-199 221q-62 -62 -162 -99.5t-190 -37.5q-97 0 -175.5 26.5t-128.5 70t-84 103t-48 120.5t-15 127q-1 65 14 128.5t50 124t86 106t129 73.5t172 28q204 0 325 -118l201 198q-224 221 -526 221q-153 0 -281.5 -43.5t-216.5 -117t-150 -171.5t-90.5 -206
t-27.5 -221q1 -120 27.5 -227.5t86 -203t147 -164.5t216.5 -109t289 -40q337 0 551 211zM1145 1868v-10l-225 -277h-246v14l145 273h326z" />
    <glyph glyph-name="cacute" unicode="&#x107;" horiz-adv-x="1040" 
d="M1014 133l-187 193q-35 -35 -93 -55.5t-111 -20.5q-108 0 -184.5 68.5t-76.5 185.5q0 122 76.5 193t190.5 71q113 0 190 -59l164 186q-73 76 -162 107.5t-205 31.5q-111 0 -210.5 -35.5t-175 -101.5t-120 -167.5t-44.5 -225.5q0 -133 44.5 -236t121.5 -165.5t175 -94
t211 -31.5q237 0 396 156zM872 1432v-13l-208 -252h-228v13l133 252h303z" />
    <glyph glyph-name="Ccircumflex" unicode="&#x108;" horiz-adv-x="1425" 
d="M758 1892h147l295 -276v-10h-287l-82 71l-83 -71h-287v10zM1395 174l-199 221q-62 -62 -162 -99.5t-190 -37.5q-97 0 -175.5 26.5t-128.5 70t-84 103t-48 120.5t-15 127q-1 65 14 128.5t50 124t86 106t129 73.5t172 28q204 0 325 -118l201 198q-224 221 -526 221
q-153 0 -281.5 -43.5t-216.5 -117t-150 -171.5t-90.5 -206t-27.5 -221q1 -120 27.5 -227.5t86 -203t147 -164.5t216.5 -109t289 -40q337 0 551 211z" />
    <glyph glyph-name="ccircumflex" unicode="&#x109;" horiz-adv-x="1040" 
d="M1014 133l-187 193q-35 -35 -93 -55.5t-111 -20.5q-108 0 -184.5 68.5t-76.5 185.5q0 122 76.5 193t190.5 71q113 0 190 -59l164 186q-73 76 -162 107.5t-205 31.5q-111 0 -210.5 -35.5t-175 -101.5t-120 -167.5t-44.5 -225.5q0 -133 44.5 -236t121.5 -165.5t175 -94
t211 -31.5q237 0 396 156zM522 1444h144l282 -266v-9h-266l-90 80l-86 -80h-268v9z" />
    <glyph glyph-name="Cdotaccent" unicode="&#x10a;" horiz-adv-x="1425" 
d="M1395 174l-199 221q-62 -62 -162 -99.5t-190 -37.5q-97 0 -175.5 26.5t-128.5 70t-84 103t-48 120.5t-15 127q-1 65 14 128.5t50 124t86 106t129 73.5t172 28q204 0 325 -118l201 198q-224 221 -526 221q-153 0 -281.5 -43.5t-216.5 -117t-150 -171.5t-90.5 -206
t-27.5 -221q1 -120 27.5 -227.5t86 -203t147 -164.5t216.5 -109t289 -40q337 0 551 211zM631 1749q0 50 25.5 86.5t64 53t83.5 16.5t83.5 -16.5t64 -53t25.5 -86.5q0 -49 -25.5 -85.5t-64 -53t-83.5 -16.5t-83.5 16.5t-64 53t-25.5 85.5z" />
    <glyph glyph-name="cdotaccent" unicode="&#x10b;" horiz-adv-x="1040" 
d="M1014 133l-187 193q-35 -35 -93 -55.5t-111 -20.5q-108 0 -184.5 68.5t-76.5 185.5q0 122 76.5 193t190.5 71q113 0 190 -59l164 186q-73 76 -162 107.5t-205 31.5q-111 0 -210.5 -35.5t-175 -101.5t-120 -167.5t-44.5 -225.5q0 -133 44.5 -236t121.5 -165.5t175 -94
t211 -31.5q237 0 396 156zM440 1313q0 45 24.5 78.5t60.5 48.5t79 15t79 -15t60.5 -48.5t24.5 -78.5q0 -67 -51 -104.5t-113 -37.5t-113 37.5t-51 104.5z" />
    <glyph glyph-name="Ccaron" unicode="&#x10c;" horiz-adv-x="1425" 
d="M1395 174l-199 221q-62 -62 -162 -99.5t-190 -37.5q-97 0 -175.5 26.5t-128.5 70t-84 103t-48 120.5t-15 127q-1 65 14 128.5t50 124t86 106t129 73.5t172 28q204 0 325 -118l201 198q-224 221 -526 221q-153 0 -281.5 -43.5t-216.5 -117t-150 -171.5t-90.5 -206
t-27.5 -221q1 -120 27.5 -227.5t86 -203t147 -164.5t216.5 -109t289 -40q337 0 551 211zM469 1841v10h285l90 -73l96 73h274v-10l-305 -264h-145z" />
    <glyph glyph-name="ccaron" unicode="&#x10d;" horiz-adv-x="1040" 
d="M1014 133l-187 193q-35 -35 -93 -55.5t-111 -20.5q-108 0 -184.5 68.5t-76.5 185.5q0 122 76.5 193t190.5 71q113 0 190 -59l164 186q-73 76 -162 107.5t-205 31.5q-111 0 -210.5 -35.5t-175 -101.5t-120 -167.5t-44.5 -225.5q0 -133 44.5 -236t121.5 -165.5t175 -94
t211 -31.5q237 0 396 156zM238 1421v13h272l86 -76l92 76h262v-13l-291 -264h-141z" />
    <glyph glyph-name="Dcaron" unicode="&#x10e;" horiz-adv-x="1542" 
d="M748 1434h-588v-1434h588q146 0 266 40t202 108t137.5 161.5t81 198t25.5 219.5t-26 218t-82.5 193t-139 155.5t-201.5 103t-263 37.5zM475 295v850h273q108 0 187.5 -35t124 -95.5t65 -131t20.5 -152.5q0 -66 -11 -125t-39.5 -117.5t-72 -100t-114 -67.5t-160.5 -26
h-273zM330 1827v10h299l94 -74l100 74h289v-10l-319 -258h-154z" />
    <glyph glyph-name="dcaron" unicode="&#x10f;" horiz-adv-x="1435" 
d="M612 766q-113 0 -180 -72.5t-67 -187.5q0 -113 66 -186.5t181 -73.5q53 0 99.5 14t86.5 43t63.5 81.5t23.5 121.5q0 121 -82 190.5t-191 69.5zM889 1432h297v-1432h-264l-19 129q-65 -84 -147 -115.5t-189 -31.5q-223 0 -361 144t-138 380q0 243 138.5 384.5t364.5 141.5
q202 0 318 -143v543zM1251 997l88 437h267l-154 -437h-201z" />
    <glyph glyph-name="Dcroat" unicode="&#x110;" horiz-adv-x="1554" 
d="M45 590v258h127v586h588q144 0 263 -40t200.5 -108t138 -160t83 -193.5t28.5 -211.5t-23 -213t-81.5 -196t-138.5 -162t-203 -109.5t-267 -40.5h-588v590h-127zM481 590v-295h279q106 0 186.5 37t125.5 99.5t66 136.5t19 157q-2 79 -25.5 150t-69 131.5t-123.5 96.5
t-179 36h-279v-291h205v-258h-205z" />
    <glyph glyph-name="dcroat" unicode="&#x111;" horiz-adv-x="1302" 
d="M889 1432h289v-113h129v-201h-129v-1118h-269l-20 115q-94 -140 -297 -140q-230 0 -377 144t-147 387q0 256 142 393t374 137q73 0 170.5 -39.5t134.5 -99.5v221h-203v201h203v113zM610 762q-106 0 -177 -71.5t-71 -184.5q0 -109 72 -183.5t176 -74.5q106 0 182 70.5
t76 187.5q0 112 -76.5 184t-181.5 72z" />
    <glyph glyph-name="Emacron" unicode="&#x112;" horiz-adv-x="1343" 
d="M1251 295v-295h-1091v1434h1063v-293h-750v-277h707v-280h-707v-289h778zM332 1583v244h735v-244h-735z" />
    <glyph glyph-name="emacron" unicode="&#x113;" horiz-adv-x="1181" 
d="M1110 410h-743q11 -78 83 -128.5t191 -50.5q70 0 141 19t121 61l166 -184q-77 -75 -194 -112.5t-240 -37.5q-271 0 -419 145.5t-148 393.5q0 233 145.5 377.5t390.5 144.5q130 0 233 -40.5t172.5 -117.5t96.5 -197.5t4 -272.5zM367 625h479q-4 79 -73.5 120t-168.5 41
q-89 0 -152 -43t-85 -118zM274 1196v225h656v-225h-656z" />
    <glyph glyph-name="Ebreve" unicode="&#x114;" horiz-adv-x="1343" 
d="M1251 295v-295h-1091v1434h1063v-293h-750v-277h707v-280h-707v-289h778zM803 1843h237q6 -126 -87.5 -204t-235.5 -78q-66 0 -127.5 18t-111 51.5t-75.5 89t-18 123.5h240q0 -30 17.5 -49.5t36.5 -25t38 -5.5q20 0 37 4.5t33 24t16 51.5z" />
    <glyph glyph-name="ebreve" unicode="&#x115;" horiz-adv-x="1181" 
d="M1110 410h-743q11 -78 83 -128.5t191 -50.5q70 0 141 19t121 61l166 -184q-77 -75 -194 -112.5t-240 -37.5q-271 0 -419 145.5t-148 393.5q0 233 145.5 377.5t390.5 144.5q130 0 233 -40.5t172.5 -117.5t96.5 -197.5t4 -272.5zM367 625h479q-4 79 -73.5 120t-168.5 41
q-89 0 -152 -43t-85 -118zM707 1452h239q6 -130 -88.5 -212.5t-236.5 -82.5q-67 0 -129.5 18.5t-112.5 54t-76 93t-18 129.5h241q0 -46 30 -64t65 -18q86 0 86 82z" />
    <glyph glyph-name="Edotaccent" unicode="&#x116;" horiz-adv-x="1343" 
d="M1251 0v295h-778v289h707v280h-707v277h750v293h-1063v-1434h1091zM553 1729q0 49 26 85.5t65 53t84 16.5t84 -16.5t65 -53t26 -85.5q0 -48 -26 -84t-65 -52t-84 -16t-84 16t-65 52t-26 84z" />
    <glyph glyph-name="edotaccent" unicode="&#x117;" horiz-adv-x="1181" 
d="M1110 410h-743q11 -78 83 -128.5t191 -50.5q70 0 141 19t121 61l166 -184q-77 -75 -194 -112.5t-240 -37.5q-271 0 -419 145.5t-148 393.5q0 233 145.5 377.5t390.5 144.5q130 0 233 -40.5t172.5 -117.5t96.5 -197.5t4 -272.5zM367 625h479q-4 79 -73.5 120t-168.5 41
q-89 0 -152 -43t-85 -118zM436 1323q0 41 19.5 73t50.5 48.5t68.5 24.5t75 0t68.5 -24.5t50.5 -48.5t19.5 -73q0 -55 -36.5 -92.5t-88 -46.5t-103 0t-88 46.5t-36.5 92.5z" />
    <glyph glyph-name="Eogonek" unicode="&#x118;" horiz-adv-x="1368" 
d="M1251 313v-313q-279 38 -301 -92q-7 -39 20 -58.5t67.5 -18t80.5 11t60 22.5l143 -115q-52 -83 -162.5 -123.5t-220.5 -26t-166 75.5q-43 47 -48.5 115t30 127.5t102.5 81.5h-696v1434h1097v-310h-782v-262h758v-297h-758v-252h776z" />
    <glyph glyph-name="eogonek" unicode="&#x119;" horiz-adv-x="1187" 
d="M1124 403h-751q11 -73 80 -120t188 -47q64 0 134.5 20.5t107.5 54.5l186 -186q-79 -76 -203 -119q-60 -4 -85.5 -49t-8.5 -82q19 -38 73.5 -40t125.5 48l145 -114q-71 -79 -183 -115t-216 -16t-152 90q-40 55 -34 127t63 120q-80 6 -154 27q-182 56 -277 189t-95 323
q0 235 146 382.5t398 147.5q268 0 404.5 -164.5t107.5 -476.5zM379 643h461q-15 73 -70.5 112.5t-146.5 39.5q-179 0 -244 -152z" />
    <glyph glyph-name="Ecaron" unicode="&#x11a;" horiz-adv-x="1343" 
d="M1251 0v295h-778v289h707v280h-707v277h750v293h-1063v-1434h1091zM311 1835v12h299l97 -75l100 75h289v-12l-320 -260h-155z" />
    <glyph glyph-name="ecaron" unicode="&#x11b;" horiz-adv-x="1181" 
d="M1110 410h-743q11 -78 83 -128.5t191 -50.5q70 0 141 19t121 61l166 -184q-77 -75 -194 -112.5t-240 -37.5q-271 0 -419 145.5t-148 393.5q0 233 145.5 377.5t390.5 144.5q130 0 233 -40.5t172.5 -117.5t96.5 -197.5t4 -272.5zM367 625h479q-4 79 -73.5 120t-168.5 41
q-89 0 -152 -43t-85 -118zM231 1421v13h297l93 -74l100 74h287v-13l-318 -258h-151z" />
    <glyph glyph-name="Gcircumflex" unicode="&#x11c;" horiz-adv-x="1519" 
d="M1178 1057l198 198q-117 120 -248 171t-286 51q-154 0 -281 -40.5t-215.5 -111.5t-149.5 -168t-89.5 -208t-28.5 -234q0 -116 25.5 -222.5t84 -204.5t145 -170.5t216.5 -115.5t291 -43q397 0 583 266v625h-618v-266h342v-230q-77 -58 -148.5 -79t-156.5 -21
q-98 0 -176.5 28.5t-128.5 74.5t-84 107.5t-48 123.5t-14 127q0 229 121 349t330 120q90 0 181 -33t155 -94zM743 1872h160l316 -273v-10h-297l-101 82l-96 -82h-301v10z" />
    <glyph glyph-name="gcircumflex" unicode="&#x11d;" horiz-adv-x="1241" 
d="M82 -139h274q13 -205 254 -205q105 0 177.5 48.5t72.5 137.5q0 80 -58.5 127t-187.5 47q-250 0 -398 138t-148 372q0 125 45 225t122 162.5t174 95.5t205 33q157 0 238 -55l111 143l213 -163l-129 -154q110 -132 104 -291q-3 -113 -57 -206t-160 -148q46 -21 83 -47
t60 -50.5t40 -54.5t24.5 -52t12 -49.5t5 -40.5t0.5 -32q0 -88 -30.5 -162t-82.5 -125.5t-122 -88t-149.5 -53.5t-164.5 -17q-260 0 -395.5 122t-132.5 343zM614 780q-116 0 -189 -67t-73 -187q0 -108 74 -174.5t188 -66.5q107 0 180.5 63t73.5 178q0 107 -72.5 180.5
t-181.5 73.5zM543 1491h145l291 -281v-10h-272l-93 84l-90 -84h-276v10z" />
    <glyph glyph-name="Gbreve" unicode="&#x11e;" horiz-adv-x="1519" 
d="M1376 1255l-198 -198q-64 61 -155 94t-181 33q-209 0 -330 -120t-121 -349q0 -65 14 -127t48 -123.5t84 -107.5t128.5 -74.5t176.5 -28.5q85 0 156.5 21t148.5 79v230h-342v266h618v-625q-186 -266 -583 -266q-161 0 -291 43t-216.5 115.5t-145 170.5t-84 204.5
t-25.5 222.5q0 123 28.5 234t89.5 208t149.5 168t215.5 111.5t281 40.5q155 0 286 -51t248 -171zM926 1890h248q6 -134 -92.5 -217.5t-245.5 -83.5q-69 0 -133.5 19t-116.5 55t-79.5 95t-19.5 132h250q0 -25 10.5 -43.5t27 -27t31.5 -12t30 -3.5q20 0 38 5t35 25.5t17 55.5z
" />
    <glyph glyph-name="gbreve" unicode="&#x11f;" horiz-adv-x="1241" 
d="M82 -139h274q13 -205 254 -205q105 0 177.5 48.5t72.5 137.5q0 80 -58.5 127t-187.5 47q-250 0 -398 138t-148 372q0 125 45 225t122 162.5t174 95.5t205 33q157 0 238 -55l111 143l213 -163l-129 -154q110 -132 104 -291q-3 -113 -57 -206t-160 -148q46 -21 83 -47
t60 -50.5t40 -54.5t24.5 -52t12 -49.5t5 -40.5t0.5 -32q0 -88 -30.5 -162t-82.5 -125.5t-122 -88t-149.5 -53.5t-164.5 -17q-260 0 -395.5 122t-132.5 343zM614 780q-116 0 -189 -67t-73 -187q0 -108 74 -174.5t188 -66.5q107 0 180.5 63t73.5 178q0 107 -72.5 180.5
t-181.5 73.5zM723 1466h248q6 -133 -92.5 -216t-245.5 -83q-55 0 -107.5 11.5t-99.5 35.5t-80.5 58.5t-50.5 84.5t-10 109h250q0 -33 18.5 -53.5t38.5 -26.5t41 -6q20 0 38 5t35 25.5t17 55.5z" />
    <glyph glyph-name="Gdotaccent" unicode="&#x120;" horiz-adv-x="1519" 
d="M1178 1057l198 198q-117 120 -248 171t-286 51q-154 0 -281 -40.5t-215.5 -111.5t-149.5 -168t-89.5 -208t-28.5 -234q0 -116 25.5 -222.5t84 -204.5t145 -170.5t216.5 -115.5t291 -43q397 0 583 266v625h-618v-266h342v-230q-77 -58 -148.5 -79t-156.5 -21
q-98 0 -176.5 28.5t-128.5 74.5t-84 107.5t-48 123.5t-14 127q0 229 121 349t330 120q90 0 181 -33t155 -94zM639 1753q0 51 27 89t67 55t87 17t87 -17t67 -55t27 -89q0 -50 -27 -87t-67 -54t-87 -17t-87 17t-67 54t-27 87z" />
    <glyph glyph-name="gdotaccent" unicode="&#x121;" horiz-adv-x="1241" 
d="M82 -139h274q13 -205 254 -205q105 0 177.5 48.5t72.5 137.5q0 80 -58.5 127t-187.5 47q-250 0 -398 138t-148 372q0 125 45 225t122 162.5t174 95.5t205 33q157 0 238 -55l111 143l213 -163l-129 -154q110 -132 104 -291q-3 -113 -57 -206t-160 -148q46 -21 83 -47
t60 -50.5t40 -54.5t24.5 -52t12 -49.5t5 -40.5t0.5 -32q0 -88 -30.5 -162t-82.5 -125.5t-122 -88t-149.5 -53.5t-164.5 -17q-260 0 -395.5 122t-132.5 343zM614 780q-116 0 -189 -67t-73 -187q0 -108 74 -174.5t188 -66.5q107 0 180.5 63t73.5 178q0 107 -72.5 180.5
t-181.5 73.5zM434 1335q0 45 20 80.5t52.5 53.5t71 26.5t77.5 0t71.5 -26.5t52.5 -53.5t20 -80.5q0 -44 -20 -79t-52.5 -53t-71 -26t-77.5 0t-71.5 26t-52.5 53t-20 79z" />
    <glyph glyph-name="Gcommaaccent" unicode="&#x122;" horiz-adv-x="1519" 
d="M1376 1255l-198 -198q-64 61 -155 94t-181 33q-209 0 -330 -120t-121 -349q0 -65 14 -127t48 -123.5t84 -107.5t128.5 -74.5t176.5 -28.5q85 0 156.5 21t148.5 79v230h-342v266h618v-625q-186 -266 -583 -266q-161 0 -291 43t-216.5 115.5t-145 170.5t-84 204.5
t-25.5 222.5q0 123 28.5 234t89.5 208t149.5 168t215.5 111.5t281 40.5q155 0 286 -51t248 -171zM1001 -283q0 -45 -12 -93t-42 -128t-38 -106h-157l30 207q-53 8 -82.5 37t-29.5 79q0 42 18.5 75t47.5 49.5t64 24t70.5 -0.5t64.5 -24.5t47.5 -48t18.5 -71.5z" />
    <glyph glyph-name="gcommaaccent" unicode="&#x123;" horiz-adv-x="1241" 
d="M446 1329q1 43 15 89.5t45.5 120.5t42.5 103h166l-37 -198q56 -8 87 -36.5t30 -74.5q-2 -104 -90 -144.5t-174.5 1.5t-84.5 139zM82 -139h274q13 -205 254 -205q105 0 177.5 48.5t72.5 137.5q0 80 -58.5 127t-187.5 47q-250 0 -398 138t-148 372q0 125 45 225t122 162.5
t174 95.5t205 33q157 0 238 -55l111 143l213 -163l-129 -154q110 -132 104 -291q-3 -113 -57 -206t-160 -148q46 -21 83 -47t60 -50.5t40 -54.5t24.5 -52t12 -49.5t5 -40.5t0.5 -32q0 -88 -30.5 -162t-82.5 -125.5t-122 -88t-149.5 -53.5t-164.5 -17q-260 0 -395.5 122
t-132.5 343zM614 780q-116 0 -189 -67t-73 -187q0 -108 74 -174.5t188 -66.5q107 0 180.5 63t73.5 178q0 107 -72.5 180.5t-181.5 73.5z" />
    <glyph glyph-name="Hcircumflex" unicode="&#x124;" horiz-adv-x="1595" 
d="M1120 0h316v1434h-316v-574h-641v574h-319v-1434h319v567h641v-567zM715 1876h149l297 -279v-10h-278l-95 84l-92 -84h-280v10z" />
    <glyph glyph-name="hcircumflex" unicode="&#x125;" horiz-adv-x="1243" 
d="M422 1434h-297v-1434h295v512q0 117 64 182.5t161 65.5q89 0 141 -57.5t52 -161.5v-541h295v543q0 485 -404 485q-198 0 -307 -141v547zM535 1876h147l293 -277v-10h-277l-92 84l-90 -84h-276v10z" />
    <glyph glyph-name="Hbar" unicode="&#x126;" horiz-adv-x="1617" 
d="M1446 -2h-316v557h-641v-557h-319v1057h-127v196h127v181h319v-181h641v181h316v-181h133v-196h-133v-1057zM489 850h641v205h-641v-205z" />
    <glyph glyph-name="hbar" unicode="&#x127;" horiz-adv-x="1243" 
d="M6 1122v197h119v115h297v-115h209v-197h-209v-235q116 137 301 137q208 0 309 -133.5t101 -372.5v-518h-295v516q0 123 -57 179.5t-144 56.5q-94 0 -155.5 -72.5t-61.5 -175.5v-504h-295v1122h-119z" />
    <glyph glyph-name="Itilde" unicode="&#x128;" horiz-adv-x="636" 
d="M477 0h-317v1434h317v-1434zM121 1587l-170 101q109 228 291 178q24 -6 57.5 -21t57.5 -25.5t50 -14.5t46 11t34 52l179 -88q-55 -125 -123 -167t-156 -11q-24 7 -56 21t-52 23t-45.5 15t-43 1.5t-36 -23t-33.5 -52.5z" />
    <glyph glyph-name="itilde" unicode="&#x129;" horiz-adv-x="546" 
d="M422 0h-297v1012h297v-1012zM113 1178l-144 98q43 104 101 153t143 23q20 -6 49 -21t49.5 -25t42.5 -14t38.5 11t27.5 51l149 -86q-45 -125 -102 -166t-131 -10q-21 8 -54 26t-52 25.5t-43 9.5t-41.5 -16.5t-32.5 -58.5z" />
    <glyph glyph-name="Imacron" unicode="&#x12a;" horiz-adv-x="636" 
d="M477 0h-317v1434h317v-1434zM43 1581v240h551v-240h-551z" />
    <glyph glyph-name="imacron" unicode="&#x12b;" horiz-adv-x="546" 
d="M422 0h-297v1012h297v-1012zM41 1202v228h469v-228h-469z" />
    <glyph glyph-name="Ibreve" unicode="&#x12c;" horiz-adv-x="636" 
d="M477 0h-317v1434h317v-1434zM422 1888h235q6 -143 -87 -231t-234 -88q-66 0 -127 20t-110 58t-75 101t-18 140h238q0 -50 29.5 -70t62.5 -20q86 0 86 90z" />
    <glyph glyph-name="ibreve" unicode="&#x12d;" horiz-adv-x="546" 
d="M422 0h-297v1012h297v-1012zM358 1432h207q6 -133 -76.5 -217.5t-205.5 -84.5q-58 0 -111.5 19t-96.5 55t-66 95.5t-17 132.5h209q0 -25 8.5 -43t22.5 -26t26.5 -11.5t24.5 -3.5q75 0 75 84z" />
    <glyph glyph-name="Iogonek" unicode="&#x12e;" horiz-adv-x="641" 
d="M479 -139l146 -115q-52 -64 -139 -98t-172.5 -32t-157.5 50.5t-95 136.5q-8 22 -6 56t10 67t34 67t65 56v1385h317v-1434q-104 8 -162.5 -35t-44.5 -90q6 -20 23.5 -35t43.5 -21.5t62.5 4t75.5 38.5z" />
    <glyph glyph-name="iogonek" unicode="&#x12f;" horiz-adv-x="550" 
d="M426 1012h-295v-957q-51 -25 -84 -60t-46 -74.5t-12.5 -79.5t13.5 -79q15 -44 43 -75t67.5 -46.5t79 -22.5t89.5 -9q86 -3 164.5 33.5t121.5 105.5l-147 115q-52 -41 -109 -41q-38 1 -63 22t-25 47q-6 45 28.5 73t81.5 35.5t93 0.5v1012zM113 1288q0 45 18.5 81t48 54.5
t65.5 27t72 0t65.5 -27t48 -54.5t18.5 -81t-18.5 -81t-48 -54.5t-65.5 -27t-72 0t-65.5 27t-48 54.5t-18.5 81z" />
    <glyph glyph-name="Idotaccent" unicode="&#x130;" horiz-adv-x="636" 
d="M160 0h317v1434h-317v-1434zM143 1731q0 44 20 79t52 53t70.5 26t77.5 0t71 -26t52 -53t20 -79q0 -43 -20 -77t-52 -51t-71 -25.5t-77.5 0t-70.5 25.5t-52 51t-20 77z" />
    <glyph glyph-name="dotlessi" unicode="&#x131;" horiz-adv-x="546" 
d="M422 0h-297v1012h297v-1012z" />
    <glyph glyph-name="IJ" unicode="&#x132;" horiz-adv-x="2103" 
d="M477 0h-317v1434h317v-1434zM674 596h309q7 -169 94 -246.5t232 -77.5q158 0 245.5 89.5t87.5 254.5v527h-397v291h717v-820q0 -141 -42.5 -259t-122.5 -204t-204 -134t-280 -48q-633 0 -639 627z" />
    <glyph glyph-name="ij" unicode="&#x133;" horiz-adv-x="1087" 
d="M420 1014h-295v-1014h295v1014zM104 1280q0 45 18.5 81t48 54.5t65.5 27t72 0t65.5 -27t48 -54.5t18.5 -81t-18.5 -81t-48 -54.5t-65.5 -27t-72 0t-65.5 27t-48 54.5t-18.5 81zM963 1014h-293v-1071q0 -209 -203 -107l-84 -215q78 -45 160 -62.5t158 -2t135.5 60.5
t94 131t32.5 203v1063zM651 1280q0 53 24.5 91.5t62 56t80.5 17.5t80.5 -17.5t62 -56t24.5 -91.5t-24.5 -91.5t-62 -56t-80.5 -17.5t-80.5 17.5t-62 56t-24.5 91.5z" />
    <glyph glyph-name="Jcircumflex" unicode="&#x134;" horiz-adv-x="1466" 
d="M346 596h-309q6 -627 639 -627q156 0 280 48t204 134t122.5 204t42.5 259v820h-717v-291h398v-527q0 -165 -88 -254.5t-246 -89.5q-145 0 -232 77.5t-94 246.5zM864 1892h160l317 -301v-10h-297l-100 90l-98 -90h-301v10z" />
    <glyph glyph-name="jcircumflex" unicode="&#x135;" horiz-adv-x="542" 
d="M199 1470h127l249 -299v-10h-235l-78 88l-78 -88h-237v10zM418 1014h-293v-1106q0 -149 -86 -158q-47 -3 -113 25l-100 -213q107 -72 237 -72q175 0 265 100t90 318v1106z" />
    <glyph glyph-name="Kcommaaccent" unicode="&#x136;" horiz-adv-x="1378" 
d="M1343 1434v-9l-581 -688l633 -719v-18h-385l-531 612v-612h-319v1434h319v-592l477 592h387zM915 -233q0 -45 -12.5 -92.5t-43.5 -126t-40 -105.5h-166l33 205q-53 8 -85 37t-32 77q0 42 19 74.5t49.5 48.5t67.5 24t74 0t67.5 -24.5t49.5 -47.5t19 -70z" />
    <glyph glyph-name="kcommaaccent" unicode="&#x137;" horiz-adv-x="1122" 
d="M125 1432h295v-818l299 396h348v-19l-371 -456l428 -512v-23h-354l-350 444v-444h-295v1432zM770 -236q0 -45 -12 -93t-42 -128t-38 -106h-158l31 207q-51 8 -81 37.5t-30 78.5q0 42 18 75t47.5 49.5t64.5 24t70 -0.5t64.5 -24.5t47.5 -48t18 -71.5z" />
    <glyph glyph-name="kgreenlandic" unicode="&#x138;" horiz-adv-x="1120" 
d="M125 1008h295v-394l299 396h348v-19l-381 -456l438 -512v-23h-354l-350 444v-444h-295v1008z" />
    <glyph glyph-name="Lacute" unicode="&#x139;" horiz-adv-x="1228" 
d="M479 1434h-319v-1434h1036v293h-717v1141zM662 1858v-11l-234 -264h-252v14l148 261h338z" />
    <glyph glyph-name="lacute" unicode="&#x13a;" horiz-adv-x="550" 
d="M422 1432h-293v-1432h293v1432zM614 1825v-10l-225 -259h-248v13l146 256h327z" />
    <glyph glyph-name="Lcommaaccent" unicode="&#x13b;" horiz-adv-x="1228" 
d="M160 1434h319v-1141h717v-293h-1036v1434zM858 -254q0 -47 -12 -96.5t-41.5 -132t-38.5 -109.5h-158l31 213q-51 8 -81 39t-30 82q0 43 18 77t47.5 51t64.5 25t70 -0.5t64.5 -25.5t47.5 -49.5t18 -73.5z" />
    <glyph glyph-name="lcommaaccent" unicode="&#x13c;" horiz-adv-x="550" 
d="M129 1432h293v-1432h-293v1432zM442 -264q0 -47 -12 -96.5t-41.5 -132t-38.5 -109.5h-157l30 213q-51 8 -80.5 39t-29.5 82q0 60 34 100.5t82 49.5t96.5 -0.5t82.5 -49t34 -96.5z" />
    <glyph glyph-name="Lcaron" unicode="&#x13d;" horiz-adv-x="1232" 
d="M160 1434h319v-1141h717v-293h-1036v1434zM764 979l92 448h274l-157 -448h-209z" />
    <glyph glyph-name="lcaron" unicode="&#x13e;" horiz-adv-x="684" 
d="M129 1432h293v-1432h-293v1432zM487 981l93 453h274l-158 -453h-209z" />
    <glyph glyph-name="Ldot" unicode="&#x13f;" horiz-adv-x="1228" 
d="M160 1434h319v-1141h717v-293h-1036v1434zM682 764q0 49 19.5 87t51 57.5t69.5 29t76 0t69.5 -29t51 -57.5t19.5 -87q0 -48 -19.5 -85.5t-51 -57t-69.5 -28.5t-76 0t-69.5 28.5t-51 57t-19.5 85.5z" />
    <glyph glyph-name="ldot" unicode="&#x140;" horiz-adv-x="870" 
d="M129 1432h293v-1432h-293v1432zM535 670q0 49 19.5 87t51 57.5t69.5 29t76 0t69.5 -29t51 -57.5t19.5 -87q0 -48 -19.5 -85.5t-51 -57t-69.5 -28.5t-76 0t-69.5 28.5t-51 57t-19.5 85.5z" />
    <glyph glyph-name="Lslash" unicode="&#x141;" horiz-adv-x="1253" 
d="M504 872l211 109v-240l-211 -104v-344h717v-293h-1035v479l-163 -84v234l163 84v721h318v-562z" />
    <glyph glyph-name="lslash" unicode="&#x142;" horiz-adv-x="620" 
d="M590 928v-209l-139 -74v-645h-293v500l-125 -66v213l125 66v719h293v-576z" />
    <glyph glyph-name="Nacute" unicode="&#x143;" horiz-adv-x="1617" 
d="M1157 502l-723 932h-274v-1434h323v446l-12 472l713 -918h274v1434h-321v-482zM1161 1862v-13l-250 -280h-272v14l160 279h362z" />
    <glyph glyph-name="nacute" unicode="&#x144;" 
d="M854 0h297v537q0 499 -422 499q-208 3 -328 -153l-10 129h-266v-1012h291v522q0 102 64.5 175.5t164.5 72.5q209 0 209 -235v-535zM971 1454v-12l-223 -273h-244v13l143 272h324z" />
    <glyph glyph-name="Ncommaaccent" unicode="&#x145;" horiz-adv-x="1617" 
d="M434 1434l723 -932l-20 450v482h321v-1434h-274l-713 918l12 -472v-446h-323v1434h274zM1014 -229q0 -47 -12 -96.5t-41.5 -132t-38.5 -109.5h-158l31 213q-51 8 -81 39t-30 82q0 43 18 77t47.5 51t64.5 25t70 -0.5t64.5 -25.5t47.5 -49.5t18 -73.5z" />
    <glyph glyph-name="ncommaaccent" unicode="&#x146;" 
d="M1151 0h-297v535q0 235 -209 235q-100 1 -164.5 -72.5t-64.5 -175.5v-522h-291v1012h266l10 -129q120 156 328 153q422 0 422 -499v-537zM799 -242q0 -47 -12 -96.5t-41.5 -132t-38.5 -109.5h-158l31 213q-51 8 -81 39t-30 82q0 43 18 77t47.5 51t64.5 25t70 -0.5
t64.5 -25.5t47.5 -49.5t18 -73.5z" />
    <glyph glyph-name="Ncaron" unicode="&#x147;" horiz-adv-x="1617" 
d="M1157 502l-723 932h-274v-1434h323v446l-12 472l713 -918h274v1434h-321v-482zM436 1845v10h289l92 -75l96 75h279v-10l-307 -266h-150z" />
    <glyph glyph-name="ncaron" unicode="&#x148;" 
d="M854 0h297v537q0 499 -422 499q-208 3 -328 -153l-10 129h-266v-1012h291v522q0 102 64.5 175.5t164.5 72.5q209 0 209 -235v-535zM297 1432v12h278l89 -78l94 78h268v-12l-297 -269h-143z" />
    <glyph glyph-name="napostrophe" unicode="&#x149;" 
d="M1151 0h-297v535q0 235 -209 235q-100 1 -164.5 -72.5t-64.5 -175.5v-522h-291v1012h266l10 -129q120 156 328 153q422 0 422 -499v-537z" />
    <glyph glyph-name="Eng" unicode="&#x14a;" horiz-adv-x="1609" 
d="M430 1434l703 -895v895h317v-1473q0 -122 -32 -213.5t-89 -141.5t-131.5 -67.5t-162 3t-179.5 75.5l109 227q103 -43 146.5 -15t43.5 132v72l-676 852v-885h-319v1434h270z" />
    <glyph glyph-name="eng" unicode="&#x14b;" horiz-adv-x="1257" 
d="M854 -59v571q0 105 -54 175.5t-155 70.5q-100 1 -164.5 -74.5t-64.5 -181.5v-502h-291v1012h260l21 -125q89 72 162 105t161 32q86 0 161.5 -34t133.5 -97t91.5 -161t33.5 -218v-573q0 -209 -90.5 -305.5t-245.5 -96.5q-131 0 -254 72l92 207q55 -27 107 -27q96 0 96 150
z" />
    <glyph glyph-name="Omacron" unicode="&#x14c;" horiz-adv-x="1703" 
d="M1626 717q0 -230 -97.5 -401t-272.5 -261t-404 -90t-404 90t-272.5 261t-97.5 401q0 346 213 548.5t561 202.5t561 -202.5t213 -548.5zM1313 717q0 200 -127.5 332.5t-333.5 132.5q-133 0 -239 -62t-164 -168t-58 -235q0 -202 129 -332.5t332 -130.5q207 0 334 130.5
t127 332.5zM496 1610v243h735v-243h-735z" />
    <glyph glyph-name="omacron" unicode="&#x14d;" horiz-adv-x="1239" 
d="M618 -23q-168 0 -294 68t-192 187.5t-66 271.5q0 232 151.5 381t400.5 149q250 0 403 -149t153 -381q0 -233 -151 -380t-405 -147zM618 240q126 0 191 77t65 187q0 106 -66 186t-190 80q-63 0 -113 -23.5t-80 -62t-45 -85t-15 -95.5t15 -95t44.5 -84.5t79.5 -61.5
t114 -23zM309 1184v248h641v-248h-641z" />
    <glyph glyph-name="Obreve" unicode="&#x14e;" horiz-adv-x="1703" 
d="M1626 717q0 -230 -97.5 -401t-272.5 -261t-404 -90t-404 90t-272.5 261t-97.5 401q0 346 213 548.5t561 202.5t561 -202.5t213 -548.5zM1313 717q0 200 -127.5 332.5t-333.5 132.5q-133 0 -239 -62t-164 -168t-58 -235q0 -202 129 -332.5t332 -130.5q207 0 334 130.5
t127 332.5zM961 1866h249q6 -133 -93 -216t-249 -83q-55 0 -107.5 11.5t-100 35.5t-81.5 58.5t-51 84.5t-10 109h254q0 -47 31 -66.5t65 -19.5q93 0 93 86z" />
    <glyph glyph-name="obreve" unicode="&#x14f;" horiz-adv-x="1239" 
d="M618 -23q-168 0 -294 68t-192 187.5t-66 271.5q0 232 151.5 381t400.5 149q250 0 403 -149t153 -381q0 -233 -151 -380t-405 -147zM618 240q126 0 191 77t65 187q0 106 -66 186t-190 80q-63 0 -113 -23.5t-80 -62t-45 -85t-15 -95.5t15 -95t44.5 -84.5t79.5 -61.5
t114 -23zM723 1446h233q6 -130 -87 -210.5t-232 -80.5q-65 0 -125.5 18.5t-109 53t-74 91.5t-17.5 128h236q0 -46 28.5 -64t61.5 -18q86 0 86 82z" />
    <glyph glyph-name="Ohungarumlaut" unicode="&#x150;" horiz-adv-x="1703" 
d="M1626 717q0 346 -213 548.5t-561 202.5t-561 -202.5t-213 -548.5q0 -230 97.5 -401t272.5 -261t404 -90t404 90t272.5 261t97.5 401zM1313 717q0 -202 -127 -332.5t-334 -130.5q-203 0 -332 130.5t-129 332.5q0 129 58 235t164 168t239 62q206 0 333.5 -132.5
t127.5 -332.5zM1114 1870h305v-10l-245 -269h-267zM709 1872h305v-10l-217 -269h-279z" />
    <glyph glyph-name="ohungarumlaut" unicode="&#x151;" horiz-adv-x="1239" 
d="M618 -23q254 0 405 147t151 380q0 232 -153 381t-403 149q-249 0 -400.5 -149t-151.5 -381q0 -152 66 -271.5t192 -187.5t294 -68zM618 240q-64 0 -114 23t-79.5 61.5t-44.5 84.5t-15 95t15 95.5t45 85t80 62t113 23.5q124 0 190 -80t66 -186q0 -110 -65 -187t-191 -77z
M854 1417h287v-8l-232 -244h-250zM473 1419h287v-8l-203 -246h-262z" />
    <glyph glyph-name="OE" unicode="&#x152;" horiz-adv-x="2125" 
d="M2028 291v-287h-949q-125 -39 -264 -39q-183 0 -325 56.5t-231 158.5t-134 239t-45 304q0 165 46.5 300.5t137 235t231 154.5t320.5 55q27 0 55 -2t60.5 -6.5t49.5 -7t54.5 -9t42.5 -7.5h934v-285h-645v-281h606v-276h-606v-303h662zM399 721q0 -76 16 -146t50.5 -133.5
t85 -110.5t125 -74.5t164.5 -27.5q138 0 239 56v866q-124 55 -250 55q-200 0 -314 -130.5t-116 -354.5z" />
    <glyph glyph-name="oe" unicode="&#x153;" horiz-adv-x="1957" 
d="M618 -23q-168 0 -294 68t-192 187.5t-66 271.5q0 114 39.5 212t110 168.5t174.5 111t228 40.5q123 0 224 -49.5t162 -136.5q61 89 159.5 138.5t218.5 49.5q130 0 233 -41t172.5 -118.5t96.5 -198t4 -272.5h-749q11 -77 85.5 -128t194.5 -51q70 0 141 19t121 61l166 -184
q-78 -76 -195 -114t-239 -38q-133 0 -236 51.5t-169 141.5q-61 -88 -163 -138.5t-227 -50.5zM618 242q126 0 194.5 78.5t68.5 183.5t-69 185.5t-194 80.5q-63 0 -113 -23.5t-80 -62t-45 -85t-15 -95.5q0 -47 15 -92t44.5 -84t79.5 -62.5t114 -23.5zM1139 623h491
q-4 79 -73 121t-168 42q-90 0 -159 -44.5t-91 -118.5z" />
    <glyph glyph-name="Racute" unicode="&#x154;" horiz-adv-x="1484" 
d="M1432 0v25l-394 475q99 36 166.5 84.5t102 109t48.5 120.5t15 136q0 96 -35 182.5t-99.5 154t-167 107.5t-228.5 40h-680v-1434h319v471h232l366 -471h355zM479 1159h361q104 0 158.5 -66.5t56.5 -150.5q0 -77 -54.5 -139t-156.5 -62h-365v418zM1018 1870v-12l-227 -277
h-248v12l145 277h330z" />
    <glyph glyph-name="racute" unicode="&#x155;" horiz-adv-x="929" 
d="M399 1010h-274v-1010h295v526q0 110 67.5 172t167.5 62q91 0 162 -51l123 233q-105 92 -248 92q-172 0 -270 -135zM772 1442v-10l-211 -256h-229v12l135 254h305z" />
    <glyph glyph-name="Rcommaaccent" unicode="&#x156;" horiz-adv-x="1484" 
d="M1432 25v-25h-355l-366 471h-232v-471h-319v1434h680q126 0 228.5 -40t167 -107.5t99.5 -154t35 -182.5q-1 -76 -15 -136t-48.5 -120.5t-102 -109t-166.5 -84.5zM840 1159h-361v-418h365q102 0 156.5 62t54.5 139q-2 84 -56.5 150.5t-158.5 66.5zM942 -246
q0 -47 -12 -96.5t-41.5 -132t-38.5 -109.5h-158l31 213q-51 8 -81 39t-30 82q0 43 18 77t47.5 51t64.5 25t70 -0.5t64.5 -25.5t47.5 -49.5t18 -73.5z" />
    <glyph glyph-name="rcommaaccent" unicode="&#x157;" horiz-adv-x="929" 
d="M125 1010h274l23 -111q98 135 270 135q143 0 248 -92l-123 -233q-71 51 -162 51q-100 0 -167.5 -62t-67.5 -172v-526h-295v1010zM430 -254q0 -45 -11.5 -93.5t-40 -128t-36.5 -106.5h-154l31 207q-49 8 -78.5 38t-29.5 79q0 42 17.5 75t45.5 49.5t62 24t68.5 -0.5
t62.5 -24.5t45.5 -48t17.5 -71.5z" />
    <glyph glyph-name="Rcaron" unicode="&#x158;" horiz-adv-x="1484" 
d="M1432 0v25l-394 475q99 36 166.5 84.5t102 109t48.5 120.5t15 136q0 96 -35 182.5t-99.5 154t-167 107.5t-228.5 40h-680v-1434h319v471h232l366 -471h355zM479 1159h361q104 0 158.5 -66.5t56.5 -150.5q0 -77 -54.5 -139t-156.5 -62h-365v418zM344 1843v12h283l88 -77
l96 77h272v-12l-301 -272h-147z" />
    <glyph glyph-name="rcaron" unicode="&#x159;" horiz-adv-x="929" 
d="M399 1010h-274v-1010h295v526q0 110 67.5 172t167.5 62q91 0 162 -51l123 233q-105 92 -248 92q-172 0 -270 -135zM164 1430v10h266l86 -74l90 74h260v-10l-286 -259h-140z" />
    <glyph glyph-name="Sacute" unicode="&#x15a;" horiz-adv-x="1339" 
d="M1008 1087l200 177q-105 123 -232 172t-302 49q-112 0 -213 -28.5t-180.5 -82t-126.5 -137.5t-48 -188q-1 -71 15 -129.5t43 -101t69.5 -76.5t89 -56t107.5 -38.5t118 -25.5t128 -16q149 -12 219.5 -57.5t69.5 -134.5q0 -76 -79.5 -123t-207.5 -47q-118 0 -239 51
t-199 151l-191 -198q59 -97 161 -165.5t220.5 -99.5t245.5 -30q119 1 225 29t192 82t136.5 144.5t50.5 205.5q0 416 -551 465q-62 5 -103.5 11.5t-84 18.5t-66.5 29.5t-39.5 46t-15.5 66.5q0 72 73.5 114.5t182.5 42.5q92 0 183.5 -31t148.5 -90zM1018 1896v-12l-236 -285
h-256v13l150 284h342z" />
    <glyph glyph-name="sacute" unicode="&#x15b;" horiz-adv-x="1017" 
d="M907 909l-145 -184q-106 74 -240 74q-70 0 -107.5 -23t-37.5 -61q0 -85 149 -88q56 -2 102 -7.5t99.5 -17.5t93.5 -35.5t74.5 -58t53 -87.5t18.5 -120q1 -51 -14 -98.5t-49 -92t-84 -77.5t-126.5 -52.5t-169.5 -19.5q-128 0 -242 36.5t-233 135.5l127 209
q151 -123 352 -127q66 -2 109.5 22.5t42.5 63.5q0 85 -172 90q-77 3 -147 21t-134.5 54t-103.5 100t-39 149q0 83 37 147t99.5 102t138.5 57t161 19q236 0 387 -131zM825 1448v-12l-219 -265h-237v13l139 264h317z" />
    <glyph glyph-name="Scircumflex" unicode="&#x15c;" horiz-adv-x="1339" 
d="M1008 1087l200 177q-105 123 -232 172t-302 49q-112 0 -213 -28.5t-180.5 -82t-126.5 -137.5t-48 -188q-1 -71 15 -129.5t43 -101t69.5 -76.5t89 -56t107.5 -38.5t118 -25.5t128 -16q149 -12 219.5 -57.5t69.5 -134.5q0 -76 -79.5 -123t-207.5 -47q-118 0 -239 51
t-199 151l-191 -198q59 -97 161 -165.5t220.5 -99.5t245.5 -30q119 1 225 29t192 82t136.5 144.5t50.5 205.5q0 416 -551 465q-62 5 -103.5 11.5t-84 18.5t-66.5 29.5t-39.5 46t-15.5 66.5q0 72 73.5 114.5t182.5 42.5q92 0 183.5 -31t148.5 -90zM625 1903h153l305 -287v-10
h-286l-97 86l-94 -86h-289v10z" />
    <glyph glyph-name="scircumflex" unicode="&#x15d;" horiz-adv-x="1017" 
d="M907 909l-145 -184q-106 74 -240 74q-70 0 -107.5 -23t-37.5 -61q0 -85 149 -88q56 -2 102 -7.5t99.5 -17.5t93.5 -35.5t74.5 -58t53 -87.5t18.5 -120q1 -51 -14 -98.5t-49 -92t-84 -77.5t-126.5 -52.5t-169.5 -19.5q-128 0 -242 36.5t-233 135.5l127 209
q151 -123 352 -127q66 -2 109.5 22.5t42.5 63.5q0 85 -172 90q-77 3 -147 21t-134.5 54t-103.5 100t-39 149q0 83 37 147t99.5 102t138.5 57t161 19q236 0 387 -131zM442 1458h140l276 -278v-11h-260l-86 84l-86 -84h-260v11z" />
    <glyph glyph-name="Scedilla" unicode="&#x15e;" horiz-adv-x="1355" 
d="M389 -401l129 100q25 -29 66 -47q52 -22 107 -11.5t67 48.5q11 35 -20.5 59.5t-78.5 23.5t-75 -28l-76 55l65 170q-188 15 -317 97.5t-211 246.5l262 138q56 -116 150 -163.5t233 -47.5q131 0 211 50t80 142q0 156 -289 182q-99 9 -177 25t-155 49t-127.5 81t-82 124
t-31.5 174q4 104 54 187.5t131 135.5t180 79.5t206 27.5q170 0 312.5 -57.5t211.5 -165.5l-217 -170q-45 60 -126.5 89.5t-176.5 27.5q-112 -2 -187 -47t-75 -119q0 -137 283 -160q101 -11 179.5 -28t156.5 -51.5t129.5 -83t83.5 -125t32 -175.5q1 -201 -137.5 -320
t-365.5 -143l-29 -78q57 -3 101.5 -19t69 -40t40.5 -53.5t16.5 -60t-2.5 -60.5q-11 -63 -58.5 -109t-115.5 -71q-78 -22 -156.5 -19t-152.5 40.5t-117 99.5z" />
    <glyph glyph-name="scedilla" unicode="&#x15f;" horiz-adv-x="1017" 
d="M236 -389l118 92q24 -29 73 -46.5t97.5 -8.5t63.5 49q9 26 -8.5 48.5t-46 32t-61 6t-50.5 -23.5l-70 54l60 151q-98 8 -185.5 45t-177.5 123l121 201q143 -129 358 -129q65 0 108.5 28.5t41.5 65.5q0 40 -37.5 64t-132.5 28q-60 2 -117 13t-114 36t-99 61t-68.5 91.5
t-25.5 124.5q0 87 41.5 152.5t108.5 101t138.5 52.5t143.5 17q128 0 219.5 -28t179.5 -103l-147 -174q-73 68 -238 68q-68 0 -111.5 -19.5t-43.5 -56.5q-1 -28 18.5 -46.5t53.5 -27.5t78 -15t92.5 -13.5t97.5 -18.5t93 -33.5t78.5 -55t55 -87t21.5 -125.5q1 -59 -19.5 -114
t-62 -103t-114 -81t-167.5 -42l-22 -65q110 -2 174.5 -64t40.5 -164q-19 -95 -110 -147t-200 -47q-75 3 -140.5 38t-106.5 95z" />
    <glyph glyph-name="Scaron" unicode="&#x160;" horiz-adv-x="1339" 
d="M1008 1087l200 177q-105 123 -232 172t-302 49q-112 0 -213 -28.5t-180.5 -82t-126.5 -137.5t-48 -188q-1 -71 15 -129.5t43 -101t69.5 -76.5t89 -56t107.5 -38.5t118 -25.5t128 -16q149 -12 219.5 -57.5t69.5 -134.5q0 -76 -79.5 -123t-207.5 -47q-118 0 -239 51
t-199 151l-191 -198q59 -97 161 -165.5t220.5 -99.5t245.5 -30q119 1 225 29t192 82t136.5 144.5t50.5 205.5q0 416 -551 465q-62 5 -103.5 11.5t-84 18.5t-66.5 29.5t-39.5 46t-15.5 66.5q0 72 73.5 114.5t182.5 42.5q92 0 183.5 -31t148.5 -90zM297 1860v10h301l94 -78
l103 78h288v-10l-319 -275h-156z" />
    <glyph glyph-name="scaron" unicode="&#x161;" horiz-adv-x="1017" 
d="M907 909l-145 -184q-106 74 -240 74q-70 0 -107.5 -23t-37.5 -61q0 -85 149 -88q56 -2 102 -7.5t99.5 -17.5t93.5 -35.5t74.5 -58t53 -87.5t18.5 -120q1 -51 -14 -98.5t-49 -92t-84 -77.5t-126.5 -52.5t-169.5 -19.5q-128 0 -242 36.5t-233 135.5l127 209
q151 -123 352 -127q66 -2 109.5 22.5t42.5 63.5q0 85 -172 90q-77 3 -147 21t-134.5 54t-103.5 100t-39 149q0 83 37 147t99.5 102t138.5 57t161 19q236 0 387 -131zM150 1430v10h276l88 -78l94 78h266v-10l-294 -275h-144z" />
    <glyph glyph-name="Tcommaaccent" unicode="&#x162;" horiz-adv-x="1263" 
d="M473 0v1145h-436v289h1190v-289h-436v-1145h-107l-33 -100q117 -13 182.5 -74.5t57.5 -142.5q-7 -64 -43 -115t-88.5 -80t-118 -39t-129 1t-124 46.5t-101.5 91.5l129 113q68 -74 157 -70q44 3 69 20t30 42q9 49 -54 83t-165 7l-47 33z" />
    <glyph glyph-name="tcommaaccent" unicode="&#x163;" horiz-adv-x="862" 
d="M233 1255l295 33v-282h260v-254h-262v-408q0 -48 36.5 -69t78.5 -21q55 0 111 27l79 -252q-107 -41 -219 -41l-26 -72q55 -3 98.5 -20t67.5 -41t39.5 -54t16 -59.5t-2.5 -56.5q-15 -76 -68.5 -127t-124.5 -67.5t-145.5 -11t-140.5 39.5t-101 86l113 114
q38 -36 94.5 -50.5t102 -3t53.5 45.5q9 38 -25.5 66.5t-83.5 33t-94 -9.5l-41 23l74 199q-82 43 -133.5 125t-51.5 196v408h-180v254h180v249z" />
    <glyph glyph-name="Tcaron" unicode="&#x164;" horiz-adv-x="1259" 
d="M471 1149v-1149h317v1149h437v285h-1190v-285h436zM236 1843v12h296l95 -81l100 81h287v-12l-318 -287h-153z" />
    <glyph glyph-name="tcaron" unicode="&#x165;" horiz-adv-x="1015" 
d="M221 1255l295 33v-282h195v-246h-197v-381q0 -72 37.5 -103.5t87.5 -31.5q73 0 123 24l67 -245q-103 -41 -213 -46q-86 -4 -155 15t-124 63.5t-85.5 127t-30.5 196.5v381h-170v246h170v249zM774 856l90 442h269l-154 -442h-205z" />
    <glyph glyph-name="Tbar" unicode="&#x166;" horiz-adv-x="1277" 
d="M252 582v239h227v324h-436v289h1190v-289h-436v-324h254v-239h-254v-582h-318v582h-227z" />
    <glyph glyph-name="tbar" unicode="&#x167;" horiz-adv-x="860" 
d="M92 418v186h141v160h-180v242h180v249l295 33v-282h260v-242h-262v-160h197v-186h-197v-76q0 -59 34.5 -90t80.5 -31q66 0 113 23l77 -230q-89 -35 -213 -41q-173 -8 -279 84t-106 285v76h-141z" />
    <glyph glyph-name="Utilde" unicode="&#x168;" horiz-adv-x="1585" 
d="M1128 1432h318v-801q0 -314 -163.5 -485.5t-451.5 -180.5q-143 -5 -266.5 34.5t-219.5 119.5t-151 211.5t-55 300.5v801h318v-801q0 -190 100 -288.5t277 -90.5q294 19 294 379v801zM586 1577l-185 109q55 116 130.5 170.5t185.5 25.5q26 -6 63 -23.5t63 -28.5
t54.5 -15.5t50.5 12.5t37 57l195 -96q-60 -137 -134.5 -183t-168.5 -12q-26 8 -60.5 23.5t-57 25.5t-50 16.5t-47.5 1.5t-40 -25t-36 -58z" />
    <glyph glyph-name="utilde" unicode="&#x169;" 
d="M111 1012h297v-535q0 -235 208 -235q100 -1 165 72.5t65 174.5v523h291v-1012h-267l-10 133q-116 -156 -328 -153q-72 0 -131.5 13.5t-114.5 48t-92.5 89t-60 142t-22.5 202.5v537zM428 1165l-170 105q108 240 291 190q23 -6 57 -23t58 -27.5t50 -15t46.5 12t34.5 55.5
l176 -92q-54 -134 -122 -178.5t-155 -11.5q-26 9 -65.5 27.5t-63 27.5t-51 11t-48.5 -18t-38 -63z" />
    <glyph glyph-name="Umacron" unicode="&#x16a;" horiz-adv-x="1585" 
d="M1128 1432h318v-801q0 -314 -163.5 -485.5t-451.5 -180.5q-143 -5 -266.5 34.5t-219.5 119.5t-151 211.5t-55 300.5v801h318v-801q0 -190 100 -288.5t277 -90.5q294 19 294 379v801zM449 1579v256h700v-256h-700z" />
    <glyph glyph-name="umacron" unicode="&#x16b;" 
d="M111 1012h297v-535q0 -235 208 -235q100 -1 165 72.5t65 174.5v523h291v-1012h-267l-10 133q-116 -156 -328 -153q-72 0 -131.5 13.5t-114.5 48t-92.5 89t-60 142t-22.5 202.5v537zM297 1212v242h653v-242h-653z" />
    <glyph glyph-name="Ubreve" unicode="&#x16c;" horiz-adv-x="1585" 
d="M1128 1432h318v-801q0 -314 -163.5 -485.5t-451.5 -180.5q-143 -5 -266.5 34.5t-219.5 119.5t-151 211.5t-55 300.5v801h318v-801q0 -190 100 -288.5t277 -90.5q294 19 294 379v801zM893 1853h246q6 -133 -91.5 -216t-244.5 -83q-68 0 -131.5 18.5t-114.5 54t-78 94.5
t-18 132h246q0 -47 31 -66.5t65 -19.5q90 0 90 86z" />
    <glyph glyph-name="ubreve" unicode="&#x16d;" 
d="M111 1012h297v-535q0 -235 208 -235q100 -1 165 72.5t65 174.5v523h291v-1012h-267l-10 133q-116 -156 -328 -153q-72 0 -131.5 13.5t-114.5 48t-92.5 89t-60 142t-22.5 202.5v537zM731 1448h236q6 -129 -88 -209t-234 -80q-66 0 -127 18t-110 52.5t-75 91.5t-18 127h238
q0 -46 29 -64t63 -18q86 0 86 82z" />
    <glyph glyph-name="Uring" unicode="&#x16e;" horiz-adv-x="1585" 
d="M1128 1432h318v-801q0 -314 -163.5 -485.5t-451.5 -180.5q-143 -5 -266.5 34.5t-219.5 119.5t-151 211.5t-55 300.5v801h318v-801q0 -190 100 -288.5t277 -90.5q294 19 294 379v801zM526 1778q0 63 24.5 110t66 74t89.5 40t101 13q51 0 97 -13.5t84.5 -40.5t61.5 -74
t23 -109q0 -74 -41 -128.5t-100 -79t-125 -24.5q-52 0 -99 12.5t-89.5 38t-67.5 72.5t-25 109zM801 1876q-51 0 -80 -29.5t-29 -65.5t29 -65.5t80 -29.5q53 0 82 29.5t28 65.5t-30.5 65.5t-79.5 29.5z" />
    <glyph glyph-name="uring" unicode="&#x16f;" 
d="M111 1012h297v-535q0 -235 208 -235q100 -1 165 72.5t65 174.5v523h291v-1012h-267l-10 133q-116 -156 -328 -153q-72 0 -131.5 13.5t-114.5 48t-92.5 89t-60 142t-22.5 202.5v537zM379 1352q0 58 23 101t62 67t84.5 35.5t96.5 11.5q48 0 91.5 -12t80.5 -36t58.5 -67
t21.5 -100q0 -67 -39 -116.5t-95 -72t-118 -22.5q-49 0 -94 11t-84.5 34.5t-63.5 66t-24 99.5zM639 1442q-49 0 -77 -27t-27.5 -60t28 -60t76.5 -27q50 0 77.5 27t26.5 60t-29 60t-75 27z" />
    <glyph glyph-name="Uhungarumlaut" unicode="&#x170;" horiz-adv-x="1585" 
d="M1446 1432h-318v-801q0 -360 -294 -379q-177 -8 -277 90.5t-100 288.5v801h-318v-801q0 -169 55 -300.5t151 -211.5t219.5 -119.5t266.5 -34.5q288 9 451.5 180.5t163.5 485.5v801zM1028 1858h301v-11l-242 -288h-260zM633 1860h299v-11l-213 -288h-273z" />
    <glyph glyph-name="uhungarumlaut" unicode="&#x171;" 
d="M408 1012h-297v-537q0 -115 22.5 -202.5t60 -142t92.5 -89t114.5 -48t131.5 -13.5q212 -3 328 153l10 -133h267v1012h-291v-523q0 -101 -65 -174.5t-165 -72.5q-208 0 -208 235v535zM844 1436h289v-9l-232 -260h-252zM463 1438h289v-11l-205 -258h-262z" />
    <glyph glyph-name="Uogonek" unicode="&#x172;" horiz-adv-x="1589" 
d="M1128 1432h318v-846q0 -206 -96.5 -354t-253.5 -214h2q-85 -30 -93 -86q-7 -43 33 -71q49 -33 108 -3q24 13 46 36l168 -144q-47 -77 -128.5 -119t-171 -41t-165.5 43q-85 46 -116.5 146.5t12.5 191.5q-197 4 -342 78t-227.5 222.5t-82.5 359.5v801h318v-801
q0 -176 82.5 -272t244.5 -105q169 -7 256.5 93.5t87.5 283.5v801z" />
    <glyph glyph-name="uogonek" unicode="&#x173;" horiz-adv-x="1259" 
d="M1135 1008v-1149q-25 5 -62.5 -1.5t-72.5 -22t-54.5 -45.5t-7.5 -66q8 -24 31 -40.5t55 -20.5t73.5 12t80.5 53l92 -125q-63 -86 -178 -118.5t-224 5t-153 137.5q-24 65 -18 130.5t52.5 125t122.5 86.5l-20 152q-91 -74 -163.5 -105.5t-172.5 -31.5q-80 0 -153 32
t-129.5 91t-89.5 150.5t-33 201.5v549h295v-547q0 -85 60 -148t146 -63q100 0 165 75t65 181v502h293z" />
    <glyph glyph-name="Wcircumflex" unicode="&#x174;" horiz-adv-x="2197" 
d="M1667 2l520 1432h-358l-170 -492l-123 -461l-336 953h-209l-321 -953l-129 463l-179 490h-358l535 -1432h262l297 801l307 -801h262zM1014 1909h168l331 -312v-10h-311l-106 92l-103 -92h-313v10z" />
    <glyph glyph-name="wcircumflex" unicode="&#x175;" horiz-adv-x="1730" 
d="M981 1012h-231l-195 -645l-66 229l-141 416h-330l373 -1018h295l178 506l180 -506h293l375 1018h-330l-141 -416l-65 -229zM795 1470h155l312 -284v-10h-293l-97 86l-96 -86h-293v10z" />
    <glyph glyph-name="Ycircumflex" unicode="&#x176;" horiz-adv-x="1441" 
d="M721 864l-344 570h-369v-17l549 -848v-569h320v569l573 848v17h-367zM645 1884h160l315 -282v-11h-297l-98 86l-98 -86h-299v11z" />
    <glyph glyph-name="ycircumflex" unicode="&#x177;" horiz-adv-x="1173" 
d="M1163 1012h-325l-248 -637l-252 637h-332l424 -981l-209 -486h322zM506 1481h170l340 -299v-11h-320l-106 89l-105 -89h-321v11z" />
    <glyph glyph-name="Ydieresis" unicode="&#x178;" horiz-adv-x="1441" 
d="M721 864l-344 570h-369v-17l549 -848v-569h320v569l573 848v17h-367zM307 1714q0 73 48.5 114t107 41t107 -41t48.5 -114q0 -42 -17 -74.5t-44.5 -49.5t-61 -25t-66.5 0t-60.5 25t-44.5 49.5t-17 74.5zM815 1714q0 49 23 85t57 52t74.5 16t74.5 -16t57 -52t23 -85
q0 -48 -23 -84t-57 -52t-74.5 -16t-74.5 16t-57 52t-23 84z" />
    <glyph glyph-name="Zacute" unicode="&#x179;" horiz-adv-x="1286" 
d="M98 1434v-275h666l-701 -993v-166h1147v299h-704l688 995v140h-1096zM967 1872v-12l-238 -289h-258v14l152 287h344z" />
    <glyph glyph-name="zacute" unicode="&#x17a;" horiz-adv-x="980" 
d="M889 1012h-795v-256h406l-445 -631v-125h854v272h-444l424 596v144zM834 1430v-11l-222 -252h-239v13l141 250h320z" />
    <glyph glyph-name="Zdotaccent" unicode="&#x17b;" horiz-adv-x="1286" 
d="M98 1434v-275h666l-701 -993v-166h1147v299h-704l688 995v140h-1096zM473 1735q0 44 21 79t54 53t73.5 26t80.5 0t73 -26t54 -53t21 -79q0 -43 -21 -77.5t-54 -52t-73 -25.5t-80.5 0t-73.5 25.5t-54 52t-21 77.5z" />
    <glyph glyph-name="zdotaccent" unicode="&#x17c;" horiz-adv-x="980" 
d="M889 1012h-795v-256h406l-445 -631v-125h854v272h-444l424 596v144zM356 1329q0 55 36 92.5t87 46.5t102.5 0t87.5 -46.5t36 -92.5q0 -39 -19 -69.5t-50 -46.5t-68.5 -23.5t-74.5 0t-68 23.5t-50 46.5t-19 69.5z" />
    <glyph glyph-name="Zcaron" unicode="&#x17d;" horiz-adv-x="1286" 
d="M98 1434v-275h666l-701 -993v-166h1147v299h-704l688 995v140h-1096zM276 1845v13h297l95 -82l100 82h287v-13l-318 -286h-153z" />
    <glyph glyph-name="zcaron" unicode="&#x17e;" horiz-adv-x="980" 
d="M889 1012h-795v-256h406l-445 -631v-125h854v272h-444l424 596v144zM147 1415v12h281l88 -73l94 73h269v-12l-297 -258h-146z" />
    <glyph glyph-name="longs" unicode="&#x17f;" horiz-adv-x="690" 
d="M524 0h-295v735h-182v258h182v60q0 105 36 187t96 129t130.5 71t147.5 24q154 0 264 -69l-104 -221q-36 25 -64.5 31.5t-72.5 6.5q-59 0 -98.5 -40.5t-39.5 -118.5v-1053z" />
    <glyph glyph-name="florin" unicode="&#x192;" horiz-adv-x="1019" 
d="M883 745h-281v-755q0 -96 -28.5 -173.5t-76.5 -125.5t-112 -75.5t-135 -30t-146.5 18.5t-144.5 64l100 207q109 -61 178.5 -30t69.5 145v755h-207v248h207v60q0 105 36 186.5t96 128t130.5 69.5t147.5 23q81 0 145.5 -21t134.5 -65l-100 -207q-66 41 -145 41
q-69 0 -109.5 -39t-40.5 -116v-60h281v-248z" />
    <glyph glyph-name="Aringacute" unicode="&#x1fa;" horiz-adv-x="1617" 
d="M809 1110l246 -582h-494zM807 1599q53 0 84.5 -34t32.5 -74.5t-29.5 -74.5t-87.5 -34q-54 0 -85 34t-31 74.5t30.5 74.5t85.5 34zM516 1501q0 -111 70 -174l-594 -1327h344l104 246h736l104 -246h346l-598 1333q70 67 70 168q0 54 -18 97.5t-46.5 71t-66.5 46.5t-76.5 27
t-77.5 8q-40 0 -79 -7.5t-79 -26.5t-70.5 -46.5t-49.5 -71.5t-19 -98zM1174 2007v-8l-248 -197h-269v10l158 195h359z" />
    <glyph glyph-name="aringacute" unicode="&#x1fb;" horiz-adv-x="1308" 
d="M897 895q-39 66 -120 102.5t-179 36.5q-230 3 -380 -139.5t-150 -388.5t145 -388.5t377 -140.5q85 2 174.5 39.5t136.5 110.5l17 -127h266v1012h-277zM629 774q126 0 197 -81t71 -197q0 -101 -74.5 -178.5t-193.5 -77.5q-114 0 -190.5 72t-76.5 194t76.5 195t190.5 73z
M393 1311q0 -46 16 -82.5t42 -60t61 -39.5t71 -22.5t74 -6.5q98 0 174 56t76 155q0 57 -21.5 100t-58 67t-79.5 36t-91 12q-50 0 -95 -12t-84 -36t-62 -67t-23 -100zM651 1401q47 0 75 -27t29 -60t-26.5 -60t-77.5 -27q-48 0 -75.5 27t-27.5 60t27 60t76 27zM993 1792v-10
l-225 -197h-248v8l146 199h327z" />
    <glyph glyph-name="AEacute" unicode="&#x1fc;" horiz-adv-x="1826" 
d="M1739 0v283h-551v307h483v270h-483v295h518v279h-862l-899 -1434h372l129 223h455v-223h838zM901 504h-291l303 520zM1417 1851v-10l-243 -272h-267v14l158 268h352z" />
    <glyph glyph-name="aeacute" unicode="&#x1fd;" horiz-adv-x="1970" 
d="M1155 420h750q28 146 1.5 261t-94 195t-161 122t-199.5 42q-92 0 -182.5 -31.5t-149.5 -101.5v103h-221l-10 -115q-50 68 -131 103.5t-176 35.5q-102 0 -193.5 -35t-163.5 -99.5t-114.5 -166.5t-42.5 -227q0 -135 37.5 -238t107 -166t163.5 -94.5t210 -30.5q88 2 181 40
t124 110l2 -127h215l12 109q50 -71 135.5 -106.5t180.5 -35.5q265 0 407 154l-157 188q-44 -38 -113 -61t-137 -23q-100 0 -179.5 51t-101.5 144zM627 776q65 0 118 -23.5t86 -61.5t50.5 -87t17.5 -99.5t-17.5 -99.5t-50.5 -87t-86 -61.5t-118 -23.5q-114 0 -189.5 73
t-75.5 200q0 126 75 198t190 72zM1161 637q33 71 104 110t173 39q74 0 129 -38t65 -111h-471zM1341 1434v-13l-219 -264h-237v12l139 265h317z" />
    <glyph glyph-name="Oslashacute" unicode="&#x1fe;" horiz-adv-x="1634" 
d="M1198 1909v-13l-237 -288h-259v14l152 287h344zM819 1464q-145 0 -268.5 -43.5t-209 -117t-146 -171.5t-89 -207t-28.5 -223q0 -161 55.5 -305.5t165.5 -249.5l-178 -290h305l96 157q128 -49 297 -49q149 0 272.5 42t208.5 113t144 166.5t86.5 201.5t28.5 219
q2 168 -63 324t-189 263l168 277h-308l-90 -146q-132 39 -258 39zM819 256q-69 0 -141 14l467 762q104 -132 100 -332q-2 -66 -16 -126.5t-45.5 -119.5t-78.5 -102t-120.5 -69.5t-165.5 -26.5zM819 1176q29 0 103 -9l-461 -747q-63 115 -70 278q-2 66 11.5 131.5t46.5 128.5
t81.5 111t123 77.5t165.5 29.5z" />
    <glyph glyph-name="oslashacute" unicode="&#x1ff;" horiz-adv-x="1239" 
d="M956 1452v-10l-213 -260h-231v12l135 258h309zM618 -23q254 0 405 147t151 380q0 125 -48.5 230.5t-136.5 178.5l127 215h-258l-67 -114q-83 22 -173 22q-124 0 -228 -40.5t-174.5 -111t-110 -168.5t-39.5 -212q0 -129 47.5 -234t136.5 -176l-121 -207h258l64 111
q77 -21 167 -21zM618 770q19 0 29 -2l-244 -414q-38 63 -38 150q0 49 15 95.5t45 85t80 62t113 23.5zM618 240h-24l242 411q38 -63 38 -147q0 -110 -65 -187t-191 -77z" />
    <glyph glyph-name="Scommaaccent" unicode="&#x218;" horiz-adv-x="1339" 
d="M1208 1264l-200 -177q-57 59 -148.5 90t-183.5 31q-109 0 -182.5 -42.5t-73.5 -114.5q0 -38 15.5 -66.5t39.5 -46t66.5 -29.5t84 -18.5t103.5 -11.5q551 -49 551 -465q0 -115 -50.5 -205.5t-136.5 -144.5t-192 -82t-225 -29q-127 -1 -245.5 30t-220.5 99.5t-161 165.5
l191 198q78 -100 199 -151t239 -51q128 0 207.5 47t79.5 123q1 89 -69.5 134.5t-219.5 57.5q-71 7 -128 16t-118 25.5t-107.5 38.5t-89 56t-69.5 76.5t-43 101t-15 129.5q1 104 48 188t126.5 137.5t180.5 82t213 28.5q175 0 302 -49t232 -172zM870 -279q0 -35 -10.5 -78
t-22.5 -75.5t-34 -86.5t-33 -85h-170l33 205q-55 8 -87 37.5t-32 78.5q0 42 19.5 74t51 48.5t69.5 24t76 -0.5t69.5 -24.5t51 -47.5t19.5 -70z" />
    <glyph glyph-name="scommaaccent" unicode="&#x219;" horiz-adv-x="1017" 
d="M907 909l-145 -184q-106 74 -240 74q-70 0 -107.5 -23t-37.5 -61q0 -85 149 -88q56 -2 102 -7.5t99.5 -17.5t93.5 -35.5t74.5 -58t53 -87.5t18.5 -120q1 -51 -14 -98.5t-49 -92t-84 -77.5t-126.5 -52.5t-169.5 -19.5q-128 0 -242 36.5t-233 135.5l127 209
q151 -123 352 -127q66 -2 109.5 22.5t42.5 63.5q0 85 -172 90q-77 3 -147 21t-134.5 54t-103.5 100t-39 149q0 83 37 147t99.5 102t138.5 57t161 19q236 0 387 -131zM674 -266q0 -42 -11 -85t-39 -116t-36 -96h-150l31 188q-47 6 -75.5 34t-28.5 73q0 52 32 87.5t77.5 43.5
t90.5 -0.5t77 -43.5t32 -85z" />
    <glyph glyph-name="uni021A" unicode="&#x21a;" horiz-adv-x="1259" 
d="M471 0v1149h-436v285h1190v-285h-437v-1149h-317zM788 -250q0 -36 -9.5 -80.5t-20 -77t-30.5 -89.5t-30 -87h-155l30 211q-51 8 -80.5 38.5t-29.5 80.5q0 43 18 76.5t46.5 50.5t63.5 24.5t69.5 -0.5t63 -25t46.5 -49t18 -73z" />
    <glyph glyph-name="uni021B" unicode="&#x21b;" horiz-adv-x="858" 
d="M231 1255l295 33v-282h256v-246h-258v-381q0 -73 33 -104t82 -31q73 0 123 24l67 -245q-103 -41 -213 -46q-86 -4 -153.5 15t-120.5 64t-82 126.5t-29 196.5v381h-180v246h180v249zM666 -264q0 -36 -9.5 -80.5t-20.5 -77.5t-31 -89t-30 -87h-155l31 211q-51 8 -81 38.5
t-30 80.5q0 43 18 76.5t46.5 50.5t63.5 24.5t70 -0.5t63.5 -25t46.5 -49t18 -73z" />
    <glyph glyph-name="dotlessj" unicode="&#x237;" horiz-adv-x="542" 
d="M125 1014h293v-1106q0 -218 -90 -318t-265 -100q-130 0 -237 72l100 213q66 -28 113 -25q86 9 86 158v1106z" />
    <glyph glyph-name="circumflex" unicode="&#x2c6;" horiz-adv-x="923" 
d="M375 1473h153l306 -287v-10h-287l-96 86l-95 -86h-288v10z" />
    <glyph glyph-name="caron" unicode="&#x2c7;" horiz-adv-x="888" 
d="M51 1421v13h297l94 -82l101 82h286v-13l-317 -286h-154z" />
    <glyph glyph-name="breve" unicode="&#x2d8;" horiz-adv-x="831" 
d="M498 1432h235q6 -143 -87.5 -231.5t-233.5 -88.5q-66 0 -127 20.5t-110 58.5t-75 101t-18 140h237q0 -50 30 -70.5t63 -20.5q14 0 27 3.5t27.5 12t23 28t8.5 47.5z" />
    <glyph glyph-name="dotaccent" unicode="&#x2d9;" horiz-adv-x="565" 
d="M121 1294q0 45 18.5 80t48 53t65.5 26.5t72 0t65.5 -26.5t48 -53t18.5 -80q0 -44 -18.5 -78.5t-48 -52t-65.5 -26t-72 0t-65.5 26t-48 52t-18.5 78.5z" />
    <glyph glyph-name="ring" unicode="&#x2da;" horiz-adv-x="874" 
d="M137 1198q0 70 26 123t70 82.5t95 44t108 14.5q55 0 104 -14.5t90.5 -44.5t66 -83t24.5 -122q0 -83 -44 -143.5t-107 -87.5t-134 -27q-55 0 -105 13.5t-95 42t-72 80.5t-27 122zM430 1309q-55 0 -86.5 -33.5t-31 -73t31.5 -73t86 -33.5q46 0 76 22t36.5 53t-1.5 62.5
t-38 53.5t-73 22z" />
    <glyph glyph-name="ogonek" unicode="&#x2db;" horiz-adv-x="798" 
d="M516 -319l146 -123q-38 -58 -102.5 -89t-139.5 -34q-65 -2 -122.5 12.5t-109.5 56t-77 107.5q-10 26 -12 62t7.5 80t36.5 82t75 68t123 38t181 -7l31 -118q-11 5 -40 5.5t-64.5 -5t-67 -17.5t-48 -37.5t-7.5 -60.5q8 -35 46 -47t79 -2.5t65 29.5z" />
    <glyph glyph-name="tilde" unicode="&#x2dc;" horiz-adv-x="856" 
d="M227 1319l-174 102q109 235 297 185q24 -6 59 -22t59.5 -26.5t51.5 -15t47.5 11.5t34.5 54l182 -90q-56 -130 -125 -173t-159 -12q-24 8 -57 22.5t-54 24t-47 15.5t-44 1.5t-37 -23.5t-34 -54z" />
    <glyph glyph-name="hungarumlaut" unicode="&#x2dd;" horiz-adv-x="782" 
d="M635 1436h303v-11l-244 -295h-264zM233 1438h304v-11l-215 -294h-277z" />
    <glyph glyph-name="_375" unicode="&#x394;" horiz-adv-x="1626" 
d="M1591 63v-63h-1573v74l611 1360h348zM803 1118l-365 -842h727z" />
    <glyph glyph-name="_376" unicode="&#x3a9;" horiz-adv-x="1691" 
d="M846 1176q-106 0 -191.5 -39.5t-137.5 -104t-79.5 -141t-29.5 -156.5q-3 -142 70.5 -267t207.5 -183v-285h-518v272h162q-232 165 -232 478q0 152 58.5 285t159 227t238.5 148t292 54q155 0 293 -54t237.5 -148t158 -227t58.5 -285q0 -140 -55.5 -265t-173.5 -213h160
v-272h-518v285q134 58 207.5 183t70.5 267q-1 80 -28.5 156.5t-79.5 141t-138 104t-192 39.5z" />
    <glyph glyph-name="pi" unicode="&#x3c0;" horiz-adv-x="1374" 
d="M539 0h-293v752h-201v258h1258v-258h-201v-428q0 -68 37 -93.5t123 -3.5l28 -233q-150 -27 -256.5 -8t-165 102.5t-59.5 230.5v433h-270v-752z" />
    <glyph glyph-name="Wgrave" unicode="&#x1e80;" horiz-adv-x="2197" 
d="M2187 1434l-520 -1432h-262l-307 801l-297 -801h-262l-535 1432h358l179 -490l129 -463l321 953h209l336 -953l123 461l170 492h358zM711 1849v13h372l164 -267v-12h-280z" />
    <glyph glyph-name="wgrave" unicode="&#x1e81;" horiz-adv-x="1730" 
d="M750 1012h231l195 -645l65 229l141 416h330l-375 -1018h-293l-180 506l-178 -506h-295l-373 1018h330l141 -416l66 -229zM528 1419v13h338l148 -252v-13h-252z" />
    <glyph glyph-name="Wacute" unicode="&#x1e82;" horiz-adv-x="2197" 
d="M1667 2l520 1432h-358l-170 -492l-123 -461l-336 953h-209l-321 -953l-129 463l-179 490h-358l535 -1432h262l297 801l307 -801h262zM1477 1864v-11l-254 -272h-275v14l162 269h367z" />
    <glyph glyph-name="wacute" unicode="&#x1e83;" horiz-adv-x="1730" 
d="M981 1012h-231l-195 -645l-66 229l-141 416h-330l373 -1018h295l178 506l180 -506h293l375 1018h-330l-141 -416l-65 -229zM1196 1436v-13l-238 -258h-256v13l152 258h342z" />
    <glyph glyph-name="Wdieresis" unicode="&#x1e84;" horiz-adv-x="2197" 
d="M1667 2l520 1432h-358l-170 -492l-123 -461l-336 953h-209l-321 -953l-129 463l-179 490h-358l535 -1432h262l297 801l307 -801h262zM664 1706q0 44 18 79t46.5 53t63.5 26t69.5 0t63 -26t46.5 -53t18 -79t-18 -78.5t-46.5 -52t-63.5 -26t-69.5 0t-63 26t-46.5 52
t-18 78.5zM1196 1706q0 44 18 79t46.5 53t63.5 26t70 0t63.5 -26t46.5 -53t18 -79t-18 -78.5t-46.5 -52t-63.5 -26t-70 0t-63.5 26t-46.5 52t-18 78.5z" />
    <glyph glyph-name="wdieresis" unicode="&#x1e85;" horiz-adv-x="1730" 
d="M981 1012h-231l-195 -645l-66 229l-141 416h-330l373 -1018h295l178 506l180 -506h293l375 1018h-330l-141 -416l-65 -229zM465 1298q0 48 22.5 83.5t55.5 51t72.5 15.5t72.5 -15.5t55.5 -51t22.5 -83.5q0 -41 -16.5 -73t-43 -48.5t-58.5 -24.5t-64.5 0t-59 24.5
t-43 48.5t-16.5 73zM958 1298q0 57 31.5 96.5t76 48.5t89 0t76 -48.5t31.5 -96.5q0 -48 -22.5 -82.5t-56.5 -50.5t-73 -16t-73 16t-56.5 50.5t-22.5 82.5z" />
    <glyph glyph-name="Ygrave" unicode="&#x1ef2;" horiz-adv-x="1441" 
d="M377 1434l344 -570l362 570h367v-17l-573 -848v-569h-320v569l-549 848v17h369zM377 1853v11h375l166 -265v-12h-283z" />
    <glyph glyph-name="ygrave" unicode="&#x1ef3;" horiz-adv-x="1173" 
d="M838 1012h325l-620 -1467h-322l209 486l-424 981h332l252 -637zM248 1417v13h346l151 -271v-14h-260z" />
    <glyph glyph-name="endash" unicode="&#x2013;" horiz-adv-x="1222" 
d="M119 457v256h985v-256h-985z" />
    <glyph glyph-name="emdash" unicode="&#x2014;" horiz-adv-x="1413" 
d="M119 463v256h1175v-256h-1175z" />
    <glyph glyph-name="quoteleft" unicode="&#x2018;" horiz-adv-x="559" 
d="M481 1436l-100 -500h-301l174 500h227z" />
    <glyph glyph-name="quoteright" unicode="&#x2019;" horiz-adv-x="546" 
d="M94 938l101 496h301l-172 -496h-230z" />
    <glyph glyph-name="quotesinglbase" unicode="&#x201a;" horiz-adv-x="573" 
d="M53 -276l101 495h299l-172 -495h-228z" />
    <glyph glyph-name="quotedblleft" unicode="&#x201c;" horiz-adv-x="913" 
d="M836 1432l-101 -496h-276l147 496h230zM481 1432l-121 -496h-278l170 496h229z" />
    <glyph glyph-name="quotedblright" unicode="&#x201d;" horiz-adv-x="903" 
d="M96 936l101 496h276l-147 -496h-230zM451 936l120 496h279l-170 -496h-229z" />
    <glyph glyph-name="quotedblbase" unicode="&#x201e;" horiz-adv-x="960" 
d="M53 -276l101 495h299l-172 -495h-228zM440 -276l101 495h299l-172 -495h-228z" />
    <glyph glyph-name="dagger" unicode="&#x2020;" horiz-adv-x="1234" 
d="M780 1432v-377h387v-264h-387v-1018h-325v1018h-387v264h387v377h325z" />
    <glyph glyph-name="daggerdbl" unicode="&#x2021;" horiz-adv-x="1302" 
d="M809 1432v-373h389v-264h-389v-418h389v-260h-389v-369h-315v369h-390v260h390v418h-390v264h390v373h315z" />
    <glyph glyph-name="bullet" unicode="&#x2022;" horiz-adv-x="858" 
d="M430 369q-123 0 -204 76.5t-81 199.5t81 201t204 78q121 0 202 -78t81 -201t-80.5 -199.5t-202.5 -76.5z" />
    <glyph glyph-name="ellipsis" unicode="&#x2026;" horiz-adv-x="1513" 
d="M102 150q0 45 18.5 81t48 54.5t65.5 27t72 0t65.5 -27t48 -54.5t18.5 -81t-18.5 -81t-48 -54.5t-65.5 -27t-72 0t-65.5 27t-48 54.5t-18.5 81zM588 150q0 53 24.5 91.5t62 56t80.5 17.5t80.5 -17.5t62 -56t24.5 -91.5t-24.5 -91.5t-62 -56t-80.5 -17.5t-80.5 17.5t-62 56
t-24.5 91.5zM1077 150q0 45 18.5 81t48 54.5t65 27t71 0t65 -27t48 -54.5t18.5 -81t-18.5 -81t-48 -54.5t-65 -27t-71 0t-65 27t-48 54.5t-18.5 81z" />
    <glyph glyph-name="perthousand" unicode="&#x2030;" horiz-adv-x="2441" 
d="M416 1442q108 0 187.5 -48.5t116 -121.5t36.5 -158q0 -64 -21.5 -122t-62.5 -105t-107.5 -75t-148.5 -28q-83 0 -149.5 28t-107 75t-62 105t-21.5 122q0 63 21.5 120.5t62 104.5t107 75t149.5 28zM1149 1432h321l-938 -1434h-325zM1266 643q108 0 187.5 -48.5t116 -121.5
t36.5 -158q0 -86 -36.5 -159t-115.5 -121.5t-188 -48.5t-188 48.5t-115.5 121.5t-36.5 159q0 85 36.5 158t116 121.5t187.5 48.5zM1266 430q-53 0 -84 -35t-31 -82t31 -80.5t84 -33.5q54 0 83 33t29 81t-29 82.5t-83 34.5zM416 1233q-55 0 -86 -35.5t-31 -83.5t31 -82.5
t86 -34.5t84.5 34.5t29.5 82.5q0 49 -29.5 84t-84.5 35zM2036 643q108 0 187.5 -48.5t116 -121.5t36.5 -158q0 -86 -36.5 -159t-115.5 -121.5t-188 -48.5t-188 48.5t-115.5 121.5t-36.5 159q0 85 36.5 158t116 121.5t187.5 48.5zM2036 430q-53 0 -84 -35t-31 -82t31 -80.5
t84 -33.5q54 0 83 33t29 81t-29 82.5t-83 34.5z" />
    <glyph glyph-name="guilsinglleft" unicode="&#x2039;" horiz-adv-x="729" 
d="M61 604l285 455h313v2l-284 -457q224 -367 284 -457h-313z" />
    <glyph glyph-name="guilsinglright" unicode="&#x203a;" horiz-adv-x="731" 
d="M385 1069l285 -455l-285 -454h-313l282 454l-282 457v-2h313z" />
    <glyph glyph-name="fraction" unicode="&#x2044;" horiz-adv-x="350" 
d="M453 1450h247l-802 -1460h-248z" />
    <glyph glyph-name="zerosuperior" unicode="&#x2070;" horiz-adv-x="835" 
d="M272 1389v-115q0 -55 30 -92t72.5 -45.5t84.5 0.5t72 46t30 91v115q0 56 -30 94t-72 47t-84.5 0.5t-72.5 -47t-30 -94.5zM72 1278v113q0 80 29.5 145t78.5 105.5t111 62t127 21.5t127 -21.5t111 -61.5t78.5 -105t29.5 -146v-113q0 -82 -29.5 -148.5t-78.5 -107
t-111 -62.5t-127 -22t-127 22t-111 62.5t-78.5 107t-29.5 148.5z" />
    <glyph glyph-name="foursuperior" unicode="&#x2074;" horiz-adv-x="821" 
d="M389 1714h266v-459h93v-174h-93v-125h-204v125h-396l-8 176zM451 1255v261l-195 -261h195z" />
    <glyph glyph-name="fivesuperior" unicode="&#x2075;" horiz-adv-x="772" 
d="M664 1704v-176h-377v-90h110q316 0 316 -252q0 -71 -27.5 -125t-73 -83.5t-97 -43.5t-107.5 -14q-93 0 -163 24.5t-115 83t-46 146.5h207q5 -41 39 -61.5t72.5 -17t70 28t31.5 62.5q0 40 -31 61t-76 21h-303v436h570z" />
    <glyph glyph-name="sixsuperior" unicode="&#x2076;" horiz-adv-x="784" 
d="M510 1196q0 39 -33 59.5t-80 20.5t-80 -20.5t-32 -59.5q0 -36 33 -57t77 -21q46 0 80.5 21t34.5 57zM700 1495h-192q-4 33 -39.5 50t-76.5 14.5t-74 -22.5t-33 -52v-82q42 26 99 35.5t115 -1t107.5 -38t81 -80.5t31.5 -123q0 -63 -28 -113.5t-75 -80t-103 -45t-116 -15.5
q-128 0 -222.5 68.5t-94.5 187.5v287q0 78 46.5 134t116 80.5t152.5 24.5q64 0 117 -13t95 -39.5t66.5 -71.5t26.5 -105z" />
    <glyph glyph-name="sevensuperior" unicode="&#x2077;" horiz-adv-x="671" 
d="M334 948h-230l273 570h-320v188h580l8 -84z" />
    <glyph glyph-name="eightsuperior" unicode="&#x2078;" horiz-adv-x="804" 
d="M274 1161q-2 -30 30 -57t102 -27q67 0 97.5 26t28.5 58q0 33 -35.5 56.5t-88.5 23.5q-58 0 -96 -21.5t-38 -58.5zM66 1163q0 39 30 86.5t82 71.5q-38 20 -64 62.5t-26 80.5q0 116 86.5 179t224.5 63q136 0 227 -63t91 -177q0 -40 -22.5 -77t-69.5 -60q54 -25 83 -72.5
t29 -95.5q1 -90 -48 -149t-123 -82t-167 -21q-68 0 -126.5 13.5t-107 42.5t-75 79.5t-24.5 118.5zM406 1391q51 0 77.5 20.5t26.5 50.5t-29.5 53t-77.5 23q-51 0 -79.5 -22t-28.5 -52t29 -51.5t82 -21.5z" />
    <glyph glyph-name="ninesuperior" unicode="&#x2079;" horiz-adv-x="788" 
d="M279 1473q0 -39 32.5 -59.5t79.5 -20.5t80.5 20.5t32.5 59.5q0 36 -33 56.5t-78 20.5q-46 0 -80 -20.5t-34 -56.5zM78 1174h196q3 -27 28 -44t58.5 -19t66 3.5t55 24.5t22.5 45v82q-42 -26 -99 -35.5t-115 1t-107.5 38t-81 80.5t-31.5 123q0 84 49 143t119.5 84.5
t152.5 25.5q128 0 223 -68.5t95 -187.5v-286q0 -78 -47 -135t-117 -83t-152 -26q-90 0 -157.5 22.5t-111 76t-46.5 135.5z" />
    <glyph glyph-name="zeroinferior" unicode="&#x2080;" horiz-adv-x="839" 
d="M274 262v-115q0 -54 30 -91t72.5 -45.5t84.5 0.5t72 45.5t30 90.5v115q0 56 -30 94t-72 47.5t-84.5 1t-72.5 -47t-30 -95.5zM74 154v110q0 81 29.5 146t78.5 105t111 62t127 22t127 -22t111 -62t78.5 -105t29.5 -146v-110q0 -82 -29.5 -148.5t-78.5 -107.5t-111 -63.5
t-127 -22.5t-127 22.5t-111 63.5t-78.5 107.5t-29.5 148.5z" />
    <glyph glyph-name="oneinferior" unicode="&#x2081;" horiz-adv-x="583" 
d="M72 -170v170h127v360l-107 -22v172l311 82v-592h132v-170h-463z" />
    <glyph glyph-name="twoinferior" unicode="&#x2082;" horiz-adv-x="772" 
d="M279 369h-201q1 75 45.5 130.5t112 82t145.5 26.5q141 0 229 -64.5t88 -187.5q0 -71 -32 -120t-79.5 -71.5t-103.5 -39.5t-103.5 -26.5t-79.5 -31t-32 -53.5h424v-184h-618v197q0 60 23 103.5t59.5 67.5t80.5 39.5t88.5 25.5t81 20t59.5 28t23 45q0 44 -49 62t-101 3
t-60 -52z" />
    <glyph glyph-name="threeinferior" unicode="&#x2083;" horiz-adv-x="786" 
d="M389 147h-119v154h111q59 0 87 19.5t28 52.5q0 32 -31.5 50.5t-83.5 20.5q-46 2 -81.5 -14t-41.5 -47h-182q0 59 28 105t73.5 72.5t98.5 40t109 13.5q77 0 146.5 -25t119 -82t49.5 -136q0 -105 -98 -148q52 -17 83.5 -63.5t31.5 -102.5t-21 -99.5t-53.5 -69t-77.5 -42
t-88 -22.5t-90 -6q-57 0 -112.5 14t-104 41.5t-78.5 75t-31 108.5h215q8 -57 109 -57q47 0 82 20t35 56q0 33 -30 52t-83 19z" />
    <glyph glyph-name="fourinferior" unicode="&#x2084;" horiz-adv-x="821" 
d="M389 586h266v-459h93v-174h-93v-125h-204v125h-396l-8 176zM451 127v260l-195 -260h195z" />
    <glyph glyph-name="fiveinferior" unicode="&#x2085;" horiz-adv-x="776" 
d="M666 596v-176h-377v-90h110q316 0 316 -252q0 -71 -27.5 -125t-73 -83.5t-97 -43.5t-107.5 -14q-93 0 -163 24.5t-115 83t-46 146.5h207q5 -41 39 -61.5t72.5 -17t70 28t31.5 62.5q0 40 -31 61t-76 21h-303v436h570z" />
    <glyph glyph-name="sixinferior" unicode="&#x2086;" horiz-adv-x="790" 
d="M514 82q0 39 -33 59.5t-80 20.5t-80 -20.5t-32 -59.5q0 -36 33 -57t77 -21q46 0 80.5 21t34.5 57zM705 381h-193q-4 33 -39.5 50t-76.5 14.5t-74 -22.5t-33 -52v-82q42 26 99 35.5t115 -1t107.5 -38t81 -80.5t31.5 -123q0 -63 -28 -113.5t-75 -80t-103 -45t-116 -15.5
q-128 0 -222.5 68.5t-94.5 187.5v287q0 78 46.5 134t116 80.5t152.5 24.5q87 0 152.5 -22.5t108 -75t45.5 -131.5z" />
    <glyph glyph-name="seveninferior" unicode="&#x2087;" horiz-adv-x="669" 
d="M332 -170h-230l273 569h-320v189h580l8 -84z" />
    <glyph glyph-name="eightinferior" unicode="&#x2088;" horiz-adv-x="806" 
d="M276 63q-2 -30 30 -56.5t102 -26.5q67 0 98 25.5t29 57.5q0 33 -36 56.5t-89 23.5q-58 0 -96 -21.5t-38 -58.5zM68 66q0 39 30 86t82 71q-38 20 -64 63t-26 81q0 116 86.5 178.5t224.5 62.5q136 0 227 -62.5t91 -176.5q0 -40 -22.5 -77.5t-69.5 -60.5q54 -25 83 -72.5
t29 -95.5q1 -68 -26.5 -118.5t-76 -79t-107.5 -42t-128 -11.5q-68 0 -126.5 13.5t-107 42.5t-75 79.5t-24.5 118.5zM408 293q51 0 77.5 21t26.5 51t-29 52.5t-77 22.5q-51 0 -80 -21.5t-29 -51.5t29.5 -52t81.5 -22z" />
    <glyph glyph-name="nineinferior" unicode="&#x2089;" horiz-adv-x="792" 
d="M279 348q0 -39 32.5 -59.5t79.5 -20.5t80.5 20.5t32.5 59.5q0 36 -33 57t-78 21q-46 0 -80 -21t-34 -57zM78 49h196q3 -27 28 -44t58.5 -19t66 3.5t55 24.5t22.5 45v82q-42 -26 -99 -35.5t-115 1t-107.5 38t-81 80.5t-31.5 123q0 84 49 143.5t119.5 85t152.5 25.5
q128 0 223 -68.5t95 -187.5v-287q0 -78 -47 -135t-117 -82.5t-152 -25.5q-90 0 -157.5 22t-111 75.5t-46.5 135.5z" />
    <glyph glyph-name="Euro" unicode="&#x20ac;" horiz-adv-x="1290" 
d="M92 432v223h121v52q0 40 2 63h-123v227h170q36 102 97 185.5t148 148t206 100t260 35.5q126 0 227 -34l-88 -269q-74 19 -139 19q-124 0 -219 -49t-154 -136h404l-50 -227h-434q-4 -46 -4 -70q0 -31 2 -45h400l-46 -223h-280q38 -53 93 -92t110 -57.5t99 -26.5t79 -8
q78 0 155 26l91 -276q-115 -31 -246 -31q-284 0 -468 121.5t-253 343.5h-160z" />
    <glyph glyph-name="afii61289" unicode="&#x2113;" horiz-adv-x="802" 
d="M408 496v-195q0 -90 76 -126t190 -9v-141q-78 -26 -147.5 -32t-129.5 10.5t-103.5 55.5t-68 109t-24.5 166l-101 -49l-28 94q72 30 127 61v682q0 187 69.5 264.5t249.5 77.5q55 0 97.5 -16t68.5 -45.5t42 -66t21 -83t4 -90.5t-8 -94q-19 -159 -110 -305t-225 -268z
M401 1122q0 -54 -1 -231t-1 -254q92 105 162 224t84 226q3 30 5 48.5t2.5 50t-3 52.5t-12 45.5t-22.5 39.5t-38 25t-55 10q-39 0 -67.5 -35.5t-41 -88t-12.5 -112.5z" />
    <glyph glyph-name="uni2117" unicode="&#x2117;" horiz-adv-x="1660" 
d="M829 1468q173 0 315.5 -59.5t234.5 -162t142 -237.5t50 -288t-50 -288t-142 -238t-234.5 -162.5t-315.5 -59.5q-139 0 -258 38.5t-206.5 108t-150 163t-93.5 205t-31 233.5q0 153 49.5 288t141.5 237.5t233.5 162t314.5 59.5zM313 721q2 -156 62 -279.5t177.5 -197.5
t276.5 -74q160 0 278 74t177 197.5t59 279.5q0 116 -34.5 216t-99 174.5t-162.5 117.5t-218 43q-158 0 -276 -74t-178 -198t-62 -279zM776 547h135q63 0 115.5 18t86.5 48.5t58 70t29.5 83t0.5 87t-28.5 83t-57.5 70t-86.5 48.5t-115.5 18h-348v-729h211v203zM776 881h137
q29 0 49.5 -16t26.5 -38.5t2.5 -45t-24 -38.5t-52.5 -16h-139v154z" />
    <glyph glyph-name="trademark" unicode="&#x2122;" horiz-adv-x="1691" 
d="M539 1243v-418h-217v418h-193v189h604v-189h-194zM1020 1432l156 -189l153 189h215v-609h-215v185l12 145q-20 -29 -45.5 -63.5t-56 -75t-45.5 -60.5h-39l-145 199l10 -145v-185h-213v609h213z" />
    <glyph glyph-name="Omega" unicode="&#x2126;" horiz-adv-x="1685" 
d="M844 1176q-106 0 -191.5 -39.5t-137.5 -104t-79.5 -141t-29.5 -156.5q-3 -142 70.5 -267t207.5 -183v-285h-518v272h162q-232 165 -232 478q0 152 58.5 285t159 227t238.5 148t292 54q155 0 293 -54t237.5 -148t158 -227t58.5 -285q0 -140 -55.5 -265t-173.5 -213h160
v-272h-518v285q134 58 207.5 183t70.5 267q-1 80 -28.5 156.5t-79.5 141t-138 104t-192 39.5z" />
    <glyph glyph-name="estimated" unicode="&#x212e;" horiz-adv-x="1277" 
d="M655 -14q-115 0 -214 39.5t-174 114t-118 191t-43 261.5q0 147 42.5 264t117.5 191t173.5 113.5t213.5 39.5q67 0 127.5 -10.5t118.5 -34t105.5 -59t86.5 -88.5t63.5 -120t34.5 -156t1 -193h-823v-349q117 -108 288 -108q126 0 222 44t167 146l76 -59q-88 -125 -201 -176
t-264 -51zM653 1104q-178 0 -286 -94v-375h579v381q-113 88 -293 88z" />
    <glyph glyph-name="onethird" unicode="&#x2153;" horiz-adv-x="1665" 
d="M90 670v164h127v366l-106 -22v172l311 82v-598h131v-164h-463zM1262 313h-117v154h108q65 0 88.5 11.5t24.5 56.5q0 34 -31.5 55.5t-74.5 21.5q-101 0 -127 -63h-183q0 59 28 104.5t74.5 72t99 39.5t108.5 13q57 0 111 -14t100.5 -42t75 -76t28.5 -109q0 -47 -26.5 -92.5
t-75.5 -55.5q57 -17 89.5 -60t32.5 -93q0 -66 -32 -117t-84.5 -79t-109.5 -42t-116 -14q-56 0 -110 14t-101 41.5t-76 75t-30 108.5h207q15 -61 117 -61q44 0 80 21.5t36 54.5q0 30 -30 52.5t-84 22.5zM1077 1450h232l-809 -1460h-226z" />
    <glyph glyph-name="twothirds" unicode="&#x2154;" horiz-adv-x="1824" 
d="M1237 1450h229l-807 -1460h-225zM295 1214h-201q1 75 45.5 131t112 82.5t145.5 26.5q142 0 230 -64.5t88 -187.5q0 -71 -32 -120t-79.5 -71.5t-103.5 -39.5t-103.5 -26.5t-79.5 -31t-32 -53.5h424v-184h-619v196q0 60 23 103.5t59.5 67.5t81 40t89 25.5t81 20t59.5 28.5
t23 45q0 44 -49.5 62t-101.5 2.5t-60 -52.5zM1421 313h-116v154h108q65 0 88.5 11.5t24.5 56.5q0 34 -32 55.5t-75 21.5q-101 0 -127 -63h-182q0 59 28 104.5t74 72t99 39.5t108 13q57 0 111 -14t101 -42t75.5 -76t28.5 -109q0 -47 -27 -92.5t-76 -55.5q58 -17 90.5 -60
t32.5 -93q0 -66 -32 -117t-84.5 -79t-109.5 -42t-116 -14q-56 0 -110 14t-101 41.5t-76 75t-30 108.5h207q15 -61 116 -61q44 0 80.5 21.5t36.5 54.5q0 30 -30.5 52.5t-84.5 22.5z" />
    <glyph glyph-name="oneeighth" unicode="&#x215b;" horiz-adv-x="1677" 
d="M92 670v180h127v350l-106 -22v172l311 82v-582h131v-180h-463zM1069 1450h227l-809 -1460h-221zM1147 229q-2 -30 29.5 -57t101.5 -27q67 0 98 26t29 58q0 33 -36 56.5t-89 23.5q-57 0 -95 -21.5t-38 -58.5zM938 231q0 39 30.5 86.5t82.5 71.5q-38 20 -64 62.5t-26 80.5
q0 116 86.5 179t224.5 63q136 0 226.5 -62.5t90.5 -176.5q0 -40 -22.5 -77.5t-69.5 -60.5q54 -25 83.5 -72.5t29.5 -95.5q1 -90 -48 -149t-123 -82t-167 -21q-68 0 -126.5 13.5t-107 42.5t-75.5 79.5t-25 118.5zM1278 459q51 0 77.5 20.5t26.5 50.5t-29 53t-77 23
q-51 0 -80 -22t-29 -52t29 -51.5t82 -21.5z" />
    <glyph glyph-name="threeeighths" unicode="&#x215c;" horiz-adv-x="1837" 
d="M1212 1450h230l-807 -1460h-223zM1303 238q-2 -31 29.5 -58.5t101.5 -27.5q67 0 98 27t27 59q0 31 -35 54t-88 23q-57 0 -95 -20.5t-38 -56.5zM1098 238q0 42 25.5 87.5t76.5 69.5q-37 19 -58.5 61.5t-21.5 82.5q0 116 87 178.5t223 62.5q138 0 228.5 -63t90.5 -178
q0 -95 -82 -136q52 -24 76 -72t24 -93q1 -55 -16.5 -98.5t-49 -72.5t-75 -48.5t-92.5 -27.5t-104 -7q-68 0 -126 13.5t-106.5 42.5t-75 79.5t-24.5 118.5zM1321 537q3 -70 113 -70q101 0 104 70q3 33 -28.5 54t-79.5 21t-79 -21.5t-30 -53.5zM399 985h-116v154h108
q66 0 89 11.5t24 55.5q0 34 -32 56t-75 22q-101 0 -127 -63h-182q0 59 28 104.5t74 72t99 39.5t108 13q57 0 111 -14.5t101 -42.5t75.5 -76t28.5 -109q0 -47 -27 -92t-76 -55q58 -17 90.5 -60.5t32.5 -93.5q0 -66 -32 -117t-84.5 -79t-109.5 -42t-116 -14q-56 0 -110 14
t-101 41.5t-76 75.5t-30 109h207q15 -61 116 -61q45 0 81 21t36 54q0 30 -30.5 53t-84.5 23z" />
    <glyph glyph-name="fiveeighths" unicode="&#x215d;" horiz-adv-x="1824" 
d="M1196 1450h229l-807 -1460h-223zM1290 238q-2 -31 29.5 -58.5t101.5 -27.5q67 0 98 27t27 59q0 31 -35 54t-88 23q-57 0 -95 -20.5t-38 -56.5zM1085 238q0 41 26 87t77 70q-37 19 -58.5 61.5t-21.5 82.5q0 116 86.5 178.5t222.5 62.5q138 0 229 -63t91 -178
q0 -95 -82 -136q52 -24 76 -72t24 -93q1 -68 -26 -119t-75.5 -80t-107.5 -42.5t-129 -12.5q-68 0 -126 13.5t-106.5 42.5t-75 79.5t-24.5 118.5zM1309 537q3 -70 112 -70q102 0 105 70q3 33 -29 54t-80 21q-47 0 -78 -21.5t-30 -53.5zM662 1430v-177h-377v-90h110
q316 0 316 -252q0 -71 -27.5 -125t-73 -83.5t-97 -43.5t-107.5 -14q-93 0 -163 24.5t-115 83t-46 146.5h207q5 -41 39 -61.5t72.5 -17t70 28t31.5 62.5q0 40 -31 61t-76 21h-303v437h570z" />
    <glyph glyph-name="seveneighths" unicode="&#x215e;" horiz-adv-x="1650" 
d="M997 1450h228l-807 -1460h-223zM1116 238q-2 -31 29.5 -58.5t101.5 -27.5q67 0 98 27t29 59q0 31 -36 54t-89 23q-57 0 -95 -20.5t-38 -56.5zM911 238q0 41 26 87t77 70q-37 19 -58.5 61.5t-21.5 82.5q0 116 86.5 178.5t224.5 62.5q136 0 227 -63t91 -178q0 -96 -82 -136
q52 -24 77 -72t25 -93q1 -55 -17.5 -98.5t-50 -72.5t-75 -48.5t-92.5 -27.5t-103 -7q-68 0 -126.5 13.5t-107 42.5t-75.5 79.5t-25 118.5zM1135 537q7 -70 112 -70q100 0 107 70q1 33 -30 54t-79 21t-79.5 -21.5t-30.5 -53.5zM334 674h-209l274 581h-319v177h577l9 -84z" />
    <glyph glyph-name="arrowleft" unicode="&#x2190;" horiz-adv-x="1290" 
d="M561 219l-500 498l502 495l154 -145l-225 -225h694v-256h-697l216 -234z" />
    <glyph glyph-name="arrowup" unicode="&#x2191;" horiz-adv-x="1118" 
d="M63 803l498 500l496 -502l-146 -154l-225 225v-694h-256v696l-233 -215z" />
    <glyph glyph-name="arrowright" unicode="&#x2192;" horiz-adv-x="1294" 
d="M733 1214l498 -495l-500 -496l-153 146l223 223h-695v258h699l-217 233z" />
    <glyph glyph-name="arrowdown" unicode="&#x2193;" horiz-adv-x="1114" 
d="M1053 643l-496 -500l-496 502l144 154l225 -224v695h258v-699l234 217z" />
    <glyph glyph-name="uni2196" unicode="&#x2196;" horiz-adv-x="1071" 
d="M121 403v705l702 -4l8 -209l-317 -2l492 -492l-185 -180l-491 492l-13 -318z" />
    <glyph glyph-name="uni2197" unicode="&#x2197;" horiz-adv-x="1071" 
d="M238 909l8 195h702q0 -116 -1 -351t-1 -352l-209 -8q0 53 -1 160t-1 160l-493 -492l-181 185l492 491z" />
    <glyph glyph-name="uni2198" unicode="&#x2198;" horiz-adv-x="1134" 
d="M252 313l-8 195l317 12l-491 492l180 184l491 -491q0 53 1 159.5t1 159.5l209 -8q0 -118 2 -352.5t2 -350.5h-704z" />
    <glyph glyph-name="uni2199" unicode="&#x2199;" horiz-adv-x="1138" 
d="M893 508l-8 -195h-703q0 116 1 350.5t1 352.5l211 8q-1 -53 0 -159.5t0 -159.5l494 491l180 -184l-491 -492z" />
    <glyph glyph-name="partialdiff" unicode="&#x2202;" horiz-adv-x="1185" 
d="M592 244q104 0 166.5 72.5t62.5 170.5q0 110 -61 177t-168 67q-103 0 -162 -72t-59 -170q0 -99 59 -172t162 -73zM735 940q-27 64 -118 124t-189 94.5t-172 41.5l49 238q233 -17 417.5 -142t287 -330.5t102.5 -453.5q-2 -237 -140.5 -382.5t-379.5 -145.5
q-126 0 -228 42.5t-165.5 113.5t-97 160t-33.5 187q0 102 37.5 195.5t103.5 160.5t149 106.5t182.5 38.5t194.5 -48z" />
    <glyph glyph-name="Delta" unicode="&#x2206;" horiz-adv-x="1685" 
d="M1630 63v-63h-1573v74l611 1360h348zM842 1118l-365 -842h727z" />
    <glyph glyph-name="product" unicode="&#x220f;" horiz-adv-x="1415" 
d="M1255 -393h-297v1548h-493v-1548h-305v1827h1095v-1827z" />
    <glyph glyph-name="summation" unicode="&#x2211;" horiz-adv-x="1236" 
d="M807 741l-324 -446h647v-295h-1046v188l387 557l-367 535v154h1014v-279h-581z" />
    <glyph glyph-name="minus" unicode="&#x2212;" horiz-adv-x="1073" 
d="M131 436v269h811v-269h-811z" />
    <glyph glyph-name="uni2215" unicode="&#x2215;" horiz-adv-x="991" 
d="M772 1450h248l-803 -1460h-248z" />
    <glyph glyph-name="uni2219" unicode="&#x2219;" horiz-adv-x="571" 
d="M109 647q0 49 19.5 87t50.5 57.5t69 29t76 0t69 -29t50.5 -57.5t19.5 -87q0 -48 -19.5 -85.5t-50.5 -57t-69 -28.5t-76 0t-69 28.5t-50.5 57t-19.5 85.5z" />
    <glyph glyph-name="radical" unicode="&#x221a;" horiz-adv-x="1255" 
d="M1243 1427l-469 -1427h-201l-335 629l-148 -60l-72 174l385 175l293 -609l385 1166z" />
    <glyph glyph-name="infinity" unicode="&#x221e;" horiz-adv-x="1523" 
d="M436 324q-109 3 -188 51.5t-116 120t-38 155.5q0 65 23.5 125t67 108.5t113 77.5t153.5 29q73 0 156 -51.5t151 -130.5q72 76 158 129t155 53q86 0 156 -29t113.5 -77.5t66.5 -108.5t23 -125q0 -85 -37.5 -157t-117 -119.5t-188.5 -50.5q-161 -8 -329 182
q-168 -190 -322 -182zM440 545q52 4 95.5 33t91.5 77q-4 4 -22 21t-23.5 22t-21.5 18.5t-23.5 18.5t-22 14.5t-25 13t-23.5 6.5t-26 3q-61 0 -97.5 -31t-39.5 -77q-3 -47 34 -82.5t103 -36.5zM1083 545q64 1 99 33t37 77q0 48 -36 82.5t-100 34.5q-81 0 -188 -119
q35 -39 91.5 -75.5t96.5 -32.5z" />
    <glyph glyph-name="integral" unicode="&#x222b;" horiz-adv-x="1036" 
d="M354 -4v1057q0 105 36 187t96 129t130.5 71t147.5 24q142 0 280 -86l-104 -221q-79 55 -154 55q-59 0 -98 -40.5t-39 -118.5v-1057q0 -85 -24.5 -155t-65.5 -116.5t-96 -78.5t-113 -46t-119 -14q-68 0 -121.5 16.5t-119.5 57.5l104 221q58 -35 78 -39q15 -4 37 -4
q60 0 102.5 40.5t42.5 117.5z" />
    <glyph glyph-name="approxequal" unicode="&#x2248;" horiz-adv-x="1196" 
d="M301 655l-176 99q45 106 130.5 167t188.5 48q64 -7 173 -55t159 -56q88 -14 113 82l182 -74q-13 -75 -44 -127t-72 -75t-90.5 -30t-100.5 9q-48 12 -151.5 50t-153.5 48q-54 10 -92.5 -7t-65.5 -79zM301 225l-176 99q45 106 130.5 167t188.5 48q64 -7 173 -55t159 -56
q88 -14 113 82l182 -74q-13 -75 -44 -127t-72 -75t-90.5 -30t-100.5 9q-48 12 -151.5 50t-153.5 48q-54 10 -92.5 -7t-65.5 -79z" />
    <glyph glyph-name="notequal" unicode="&#x2260;" horiz-adv-x="1206" 
d="M147 262v262h340l117 219h-457v265h609l106 188l119 -66l-72 -122h144v-265h-291l-119 -219h410v-262h-559l-109 -190l-117 67l70 123h-191z" />
    <glyph glyph-name="lessequal" unicode="&#x2264;" horiz-adv-x="933" 
d="M106 147v238h711v-238h-711zM125 897v10l489 451l174 -176l-296 -281l294 -272l-172 -176z" />
    <glyph glyph-name="greaterequal" unicode="&#x2265;" horiz-adv-x="935" 
d="M829 385v-238h-710v238h710zM811 907v-10l-489 -444l-175 176l295 272l-297 281l177 176z" />
    <glyph glyph-name="lozenge" unicode="&#x25ca;" horiz-adv-x="1230" 
d="M1169 719l-430 -703h-245l-435 703l435 706h245zM369 719l249 -434l240 434l-240 436z" />
    <glyph glyph-name="fi" unicode="&#xfb01;" horiz-adv-x="1329" 
d="M750 1190l86 227q-100 47 -197 47q-77 0 -147.5 -24t-130.5 -71t-96 -129t-36 -187v-60h-182v-256h182v-737h295v737h250v256h-250v60q0 78 39.5 118.5t98.5 40.5q40 0 88 -22zM1206 1014h-295v-1014h295v1014zM891 1280q0 53 25 91.5t62 56t81 17.5t81 -17.5t62 -56
t25 -91.5t-25 -91.5t-62 -56t-81 -17.5t-81 17.5t-62 56t-25 91.5z" />
    <glyph glyph-name="fl" unicode="&#xfb02;" horiz-adv-x="1335" 
d="M836 1419l-86 -227q-44 20 -88 20q-59 0 -98.5 -40.5t-39.5 -118.5v-60h236v-256h-236v-737h-295v737h-182v256h182v60q0 105 36 187t96 129t130.5 71t147.5 24q102 0 197 -45zM911 1434h295v-1434h-295v1434z" />
    <glyph glyph-name="CR" horiz-adv-x="659" 
 />
    <glyph glyph-name="_0004" horiz-adv-x="0" 
 />
    <glyph glyph-name="g.alt" horiz-adv-x="1312" 
d="M627 776q-114 0 -189.5 -72t-75.5 -198q0 -125 75.5 -194.5t189.5 -69.5q62 0 112.5 23t81.5 60.5t47.5 85.5t16.5 98t-16.5 98t-47.5 85.5t-81.5 60.5t-112.5 23zM102 -123h293q10 -68 78 -99.5t162 -31.5q49 0 93.5 12.5t84 38t63 73t23.5 110.5v141
q-53 -81 -136 -114.5t-173 -35.5q-151 -1 -269 63t-185.5 186.5t-67.5 285.5q0 246 150 389.5t380 140.5q94 0 175 -39.5t118 -101.5l10 115h287v-1037q0 -101 -29.5 -184t-81.5 -140t-123 -96t-152 -57t-171 -18q-144 0 -259 43t-189 134.5t-81 221.5z" />
    <glyph glyph-name="gcircumflex.alt" horiz-adv-x="1312" 
d="M627 776q62 0 112.5 -23t81.5 -60.5t47.5 -85.5t16.5 -98t-16.5 -98t-47.5 -85.5t-81.5 -60.5t-112.5 -23q-114 0 -189.5 69.5t-75.5 194.5q0 126 75.5 198t189.5 72zM395 -123h-293q7 -130 81 -221.5t189 -134.5t259 -43q90 0 171 18t152 57t123 96t81.5 140t29.5 184
v1037h-287l-10 -115q-37 62 -118 101.5t-175 39.5q-230 3 -380 -140.5t-150 -389.5q0 -163 67.5 -285.5t185.5 -186.5t269 -63q90 2 173 35.5t136 114.5v-141q0 -63 -23.5 -110.5t-63 -73t-84 -38t-93.5 -12.5q-94 0 -162 31.5t-78 99.5zM1042 1180v-13h-297l-90 88
l-104 -88h-287v13l318 286h153z" />
    <glyph glyph-name="gbreve.alt" horiz-adv-x="1312" 
d="M748 1460h237q0 -145 -94.5 -222t-235.5 -77q-67 0 -128 19t-109.5 54.5t-74 94.5t-19.5 131h239q0 -51 26 -73.5t66 -22.5q93 0 93 96zM627 776q-114 0 -189.5 -72t-75.5 -198q0 -125 75.5 -194.5t189.5 -69.5q62 0 112.5 23t81.5 60.5t47.5 85.5t16.5 98t-16.5 98
t-47.5 85.5t-81.5 60.5t-112.5 23zM102 -123h293q10 -68 78 -99.5t162 -31.5q49 0 93.5 12.5t84 38t63 73t23.5 110.5v141q-53 -81 -136 -114.5t-173 -35.5q-151 -1 -269 63t-185.5 186.5t-67.5 285.5q0 246 150 389.5t380 140.5q94 0 175 -39.5t118 -101.5l10 115h287
v-1037q0 -101 -29.5 -184t-81.5 -140t-123 -96t-152 -57t-171 -18q-144 0 -259 43t-189 134.5t-81 221.5z" />
    <glyph glyph-name="gdotaccent.alt" horiz-adv-x="1312" 
d="M477 1315q0 51 25 88.5t62 54t81 16.5t81 -16.5t62 -54t25 -88.5q0 -43 -18.5 -76t-48 -50.5t-65.5 -25.5t-72 0t-65.5 25.5t-48 50.5t-18.5 76zM627 776q62 0 112.5 -23t81.5 -60.5t47.5 -85.5t16.5 -98t-16.5 -98t-47.5 -85.5t-81.5 -60.5t-112.5 -23
q-114 0 -189.5 69.5t-75.5 194.5q0 126 75.5 198t189.5 72zM395 -123h-293q7 -130 81 -221.5t189 -134.5t259 -43q90 0 171 18t152 57t123 96t81.5 140t29.5 184v1037h-287l-10 -115q-37 62 -118 101.5t-175 39.5q-230 3 -380 -140.5t-150 -389.5q0 -163 67.5 -285.5
t185.5 -186.5t269 -63q90 2 173 35.5t136 114.5v-141q0 -63 -23.5 -110.5t-63 -73t-84 -38t-93.5 -12.5q-94 0 -162 31.5t-78 99.5z" />
    <glyph glyph-name="gcommaaccent.alt" horiz-adv-x="1312" 
d="M479 1327q0 37 10.5 69.5t38 92t45.5 108.5h158l-33 -157q111 -16 111 -121q0 -61 -34 -101.5t-82.5 -48.5t-97 3t-82.5 53t-34 102zM627 776q62 0 112.5 -23t81.5 -60.5t47.5 -85.5t16.5 -98t-16.5 -98t-47.5 -85.5t-81.5 -60.5t-112.5 -23q-114 0 -189.5 69.5
t-75.5 194.5q0 126 75.5 198t189.5 72zM395 -123h-293q7 -130 81 -221.5t189 -134.5t259 -43q90 0 171 18t152 57t123 96t81.5 140t29.5 184v1037h-287l-10 -115q-37 62 -118 101.5t-175 39.5q-230 3 -380 -140.5t-150 -389.5q0 -163 67.5 -285.5t185.5 -186.5t269 -63
q90 2 173 35.5t136 114.5v-141q0 -63 -23.5 -110.5t-63 -73t-84 -38t-93.5 -12.5q-94 0 -162 31.5t-78 99.5z" />
    <glyph glyph-name="commaaccent" horiz-adv-x="782" 
d="M451 -586h-156l31 213q-51 8 -81 39.5t-30 83.5q0 60 33.5 100t81.5 48.5t96 -2t82.5 -51t36.5 -97.5q-3 -60 -94 -334z" />
    <glyph glyph-name="commaaccent.alt" horiz-adv-x="831" 
d="M319 1587h156l-31 -213q51 -8 81 -39.5t30 -83.5q0 -60 -33.5 -100t-81.5 -48.5t-96 2t-82.5 51t-36.5 97.5q3 60 94 334z" />
    <glyph glyph-name="zero.tf" horiz-adv-x="1456" 
d="M408 821v-207q0 -182 87.5 -277t231.5 -95t233 95t89 277v207q0 177 -87 272t-229 95q-144 0 -234.5 -93t-90.5 -274zM90 614v209q0 131 33.5 240t92.5 185t140.5 129t176 77.5t200.5 24.5q132 0 245.5 -41.5t200 -121.5t136 -206.5t49.5 -286.5v-207
q0 -159 -50.5 -286.5t-137.5 -207t-199 -121.5t-240 -42q-129 0 -243.5 40t-205.5 117.5t-144.5 206t-53.5 291.5z" />
    <glyph glyph-name="one.tf" horiz-adv-x="1456" 
d="M227 0v268h369v760l-330 -108v284l643 230v-1166h373v-268h-1055z" />
    <glyph glyph-name="two.tf" horiz-adv-x="1456" 
d="M465 1008h-307q5 97 40 174t89.5 127t128.5 82.5t152.5 46.5t166.5 14q117 0 219 -27.5t183 -81.5t127.5 -142t46.5 -200q0 -104 -28.5 -183t-78 -130.5t-123.5 -84t-157.5 -45.5t-186.5 -13q-44 0 -78 -3t-77 -14.5t-71.5 -31t-48.5 -57t-20 -89.5v-55h858v-295h-1159
v352q0 93 24 168t68 125.5t99.5 86t125 55t136.5 28t143 8.5q34 0 67 4t69 16t62.5 30.5t44 50t17.5 71.5q0 88 -69.5 136.5t-192.5 48.5q-106 0 -185 -44.5t-85 -127.5z" />
    <glyph glyph-name="three.tf" horiz-adv-x="1456" 
d="M733 604h-219v260h199q32 0 56.5 1.5t58 5.5t58 14t47.5 25t35.5 39.5t12.5 56.5q0 26 -11.5 51.5t-38 51.5t-81 42t-129.5 16q-235 0 -262 -139h-318q8 93 45 168t93 123t130 80t151.5 45.5t162.5 13.5q94 0 183.5 -20t171 -61.5t138.5 -115t72 -171.5
q20 -120 -29.5 -216.5t-152.5 -140.5q124 -51 178 -156t35 -235q-60 -371 -608 -371q-86 0 -166.5 15.5t-155.5 51.5t-132 89t-94 132t-44 177h321q11 -94 86.5 -137t186.5 -43q32 0 64 3.5t73.5 14.5t72.5 29t52.5 51t21.5 76q0 174 -264 174z" />
    <glyph glyph-name="four.tf" horiz-adv-x="1456" 
d="M862 1432h318v-897h163v-277h-163v-260h-314v260h-764l-26 328zM403 535h463v509z" />
    <glyph glyph-name="five.tf" horiz-adv-x="1456" 
d="M1237 1432v-287h-754v-221h252q98 0 179.5 -12.5t158 -45t129.5 -84.5t84.5 -134.5t30.5 -190.5q0 -102 -35 -184.5t-91.5 -135.5t-132.5 -89t-154.5 -51t-160.5 -15q-129 0 -232 24.5t-183.5 77.5t-124.5 143.5t-45 214.5h315q0 -61 43 -103t100.5 -58.5t122.5 -16.5
q27 0 57.5 4t68 17t67 33t49.5 56t20 83q1 56 -26 96.5t-71 60t-85.5 27.5t-83.5 8h-549v783h1051z" />
    <glyph glyph-name="six.tf" horiz-adv-x="1456" 
d="M449 971v-160q66 72 143 101.5t192 29.5q93 0 176 -18.5t154.5 -57.5t124 -95.5t82 -135.5t29.5 -174q0 -126 -51 -222t-138 -152t-192 -84t-224 -28q-92 0 -178 17t-165 55t-137.5 94t-93 139t-34.5 185v506q0 98 33 180t90 138.5t133.5 96t162.5 58t179 18.5
q98 0 181.5 -14t158 -46.5t127 -82t85 -124t36.5 -169.5h-299q-18 84 -99.5 124t-191.5 40q-117 0 -200 -60.5t-84 -158.5zM745 258q124 0 205.5 55t81.5 148q0 99 -77 155t-207 56q-134 0 -216 -56t-79 -155q3 -95 83.5 -149t208.5 -54z" />
    <glyph glyph-name="seven.tf" horiz-adv-x="1456" 
d="M684 0h-358l534 1143h-643v291h1055l10 -158z" />
    <glyph glyph-name="eight.tf" horiz-adv-x="1456" 
d="M727 614q-130 0 -212 -48t-83 -130q-1 -31 12.5 -61t44 -60t92.5 -48.5t146 -18.5t145 18t92 48t44.5 60.5t11.5 61.5q-2 81 -79 129.5t-214 48.5zM96 453q1 46 23 100t75.5 109t127.5 81q-100 55 -145.5 147.5t-31.5 201.5q23 178 183 276t395 98q253 0 412 -99
t182 -288q12 -104 -37.5 -190t-144.5 -129q62 -23 108 -62.5t69.5 -84.5t34 -84.5t11.5 -75.5q2 -101 -31 -183.5t-92 -138.5t-140.5 -94t-174.5 -54.5t-197 -15.5q-101 1 -192 18t-172.5 54.5t-140 92.5t-91.5 137.5t-31 183.5zM467 1032q5 -76 73 -127t187 -51t186 51
t72 127q3 67 -64.5 120.5t-197.5 53.5q-75 0 -129.5 -19t-80.5 -48.5t-37 -56.5t-9 -50z" />
    <glyph glyph-name="nine.tf" horiz-adv-x="1456" 
d="M1010 467v160q-66 -72 -143.5 -101.5t-192.5 -29.5q-93 0 -176 18.5t-154.5 57.5t-123.5 95.5t-81.5 135.5t-29.5 174q0 101 33.5 183.5t91 138t135.5 93t164 54t180 16.5q92 0 178 -17t165 -55t137.5 -93.5t93 -138.5t34.5 -185v-506q0 -104 -35 -189t-93.5 -140.5
t-138.5 -93t-166.5 -53.5t-180.5 -16q-98 0 -182.5 14t-160 46.5t-129.5 82.5t-87 124.5t-37 169.5h299q9 -43 38 -74.5t71.5 -49.5t89.5 -26t100 -8q80 0 145 20t110 70t46 123zM713 1180q-124 0 -205.5 -55t-81.5 -148q0 -99 77.5 -155t207.5 -56q134 0 216 56t79 155
q-3 95 -83.5 149t-209.5 54z" />
    <glyph glyph-name="Euro.tf" horiz-adv-x="1456" 
d="M178 432v223h121v52q0 40 2 63h-123v227h170q36 102 97 185.5t148 148t206 100t260 35.5q126 0 227 -34l-88 -269q-74 19 -139 19q-124 0 -219 -49t-154 -136h404l-50 -227h-434q-4 -46 -4 -70q0 -31 2 -45h400l-46 -223h-280q38 -53 93 -92t110 -57.5t99 -26.5t79 -8
q78 0 155 26l91 -276q-115 -31 -246 -31q-284 0 -468 121.5t-253 343.5h-160z" />
    <glyph glyph-name="cent.tf" horiz-adv-x="1456" 
d="M1034 305l183 -209q-55 -58 -121.5 -90.5t-157.5 -52.5v-156h-270v160q-188 52 -299 183t-111 337q0 194 110 330.5t300 189.5v158h270v-156q149 -35 258 -141l-168 -182q-72 74 -211 74q-105 0 -185.5 -79t-80.5 -194q0 -117 80 -192.5t186 -75.5q58 0 118 24.5t99 71.5
z" />
    <glyph glyph-name="sterling.tf" horiz-adv-x="1456" 
d="M582 967q0 -67 24 -168h406v-256h-348q0 -30 -6 -66.5t-19 -78t-39.5 -72t-62.5 -37.5h772v-289h-1149v291q56 1 93.5 21t57.5 57.5t28 77.5t11 96h-190v256h141q-28 89 -31 166q-9 217 129.5 355t388.5 138q230 0 363 -117t129 -333h-276q-1 48 -18.5 83t-49 54t-68 28
t-80.5 9q-87 0 -146.5 -57t-59.5 -158z" />
    <glyph glyph-name="florin.tf" horiz-adv-x="1456" 
d="M1161 729h-295v-739q0 -96 -28.5 -173.5t-76.5 -125.5t-112 -75.5t-135 -30t-146.5 18.5t-144.5 64l101 207q109 -61 178 -30t69 145v739h-276v248h276v76q0 105 36 186.5t96 128t130.5 69.5t147.5 23q81 0 146 -21t135 -65l-101 -207q-66 41 -145 41q-69 0 -109.5 -39
t-40.5 -116v-76h295v-248z" />
    <glyph glyph-name="yen.tf" horiz-adv-x="1456" 
d="M254 209v219h307v119h-307v219h192l-436 651v17h361l180 -291l168 -297l176 295l190 293h367v-17l-457 -651h189v-219h-310v-119h310v-219h-310v-209h-313v209h-307z" />
    <glyph glyph-name="dollar.tf" horiz-adv-x="1456" 
d="M1317 1190l-252 -117q-31 65 -125 113.5t-209 48.5q-76 0 -139 -18t-106 -59t-44 -99q0 -44 24.5 -75t71.5 -48t94 -25.5t113 -13.5q72 -8 131.5 -18t127 -28.5t120 -42.5t102 -61t82.5 -83t52.5 -110t19.5 -140q0 -200 -126 -318t-367 -143v-195h-281v193
q-185 19 -335.5 118t-213.5 253l267 129q44 -96 162 -160t245 -64q61 0 106 4t89 16t71.5 32t44.5 54t17 81t-27 83t-75.5 58.5t-107 35.5t-128.5 19q-73 7 -128.5 15t-120.5 24t-112.5 36.5t-94 54.5t-75 77.5t-46 105t-17.5 136.5q1 98 41 176.5t109 129t154.5 79.5
t182.5 37v170h271v-170q311 -35 432 -291z" />
    <glyph glyph-name="zero.denom" horiz-adv-x="839" 
d="M274 424v-115q0 -54 30 -91t72.5 -45.5t84.5 0.5t72 45.5t30 90.5v115q0 56 -30 94t-72 47.5t-84.5 1t-72.5 -47t-30 -95.5zM74 315v111q0 81 29.5 146t78.5 105t111 62t127 22t127 -22t111 -62t78.5 -105t29.5 -146v-111q0 -82 -29.5 -148.5t-78.5 -107.5t-111 -63.5
t-127 -22.5t-127 22.5t-111 63.5t-78.5 107.5t-29.5 148.5z" />
    <glyph glyph-name="one.denom" horiz-adv-x="583" 
d="M72 0v170h127v360l-107 -22v172l311 82v-592h132v-170h-463z" />
    <glyph glyph-name="two.denom" horiz-adv-x="774" 
d="M279 539h-201q1 75 45.5 130.5t112 82t145.5 26.5q141 0 229 -64.5t88 -187.5q0 -71 -32 -120t-79.5 -71.5t-103.5 -39t-103.5 -25t-79.5 -26.5t-32 -47h424v-197h-618v197q0 60 23 103.5t59.5 67.5t80.5 39.5t88.5 25.5t81 20t59.5 28t23 45q0 44 -49 62t-101 3t-60 -52
z" />
    <glyph glyph-name="three.denom" horiz-adv-x="786" 
d="M389 305h-119v154h111q115 0 115 71q0 32 -31.5 51t-83.5 21q-46 2 -81.5 -14t-41.5 -47h-182q0 59 28 105t73.5 72.5t98.5 40t109 13.5q77 0 146.5 -25.5t119 -82.5t49.5 -136q0 -104 -98 -147q52 -17 83.5 -63.5t31.5 -102.5t-21 -99.5t-53.5 -69.5t-77.5 -42.5
t-88 -22.5t-90 -6q-57 0 -112.5 14t-104 41.5t-78.5 75.5t-31 109h215q8 -57 109 -57q47 0 82 19.5t35 55.5q0 33 -30 52.5t-83 19.5z" />
    <glyph glyph-name="four.denom" horiz-adv-x="821" 
d="M389 758h266v-459h93v-174h-93v-125h-204v125h-396l-8 176zM451 299v260l-195 -260h195z" />
    <glyph glyph-name="five.denom" horiz-adv-x="770" 
d="M659 758v-176h-376v-90h110q316 0 316 -252q0 -71 -27.5 -125t-73 -83.5t-97.5 -44t-108 -14.5q-93 0 -163 24.5t-114.5 83t-45.5 146.5h207q5 -41 39 -61.5t72.5 -16.5t70 28.5t31.5 62.5q0 40 -31 61t-76 21h-303v436h569z" />
    <glyph glyph-name="six.denom" horiz-adv-x="790" 
d="M514 242q0 39 -33 59.5t-80 20.5t-80 -20.5t-32 -59.5q0 -36 33 -57t77 -21q46 0 80.5 21t34.5 57zM705 541h-193q-4 33 -39.5 50t-76.5 14.5t-74 -23t-33 -52.5v-81q42 26 99 35.5t115 -1t107.5 -38t81 -80.5t31.5 -123q0 -63 -28 -113.5t-75 -80t-103 -45t-116 -15.5
q-128 0 -222.5 68.5t-94.5 187.5v286q0 78 46.5 134t116.5 81t152 25q87 0 152.5 -22.5t108 -75t45.5 -131.5z" />
    <glyph glyph-name="seven.denom" horiz-adv-x="673" 
d="M334 0h-230l273 569h-320v189h580l8 -84z" />
    <glyph glyph-name="eight.denom" horiz-adv-x="806" 
d="M276 233q-2 -30 30 -56.5t102 -26.5q67 0 98 25.5t29 57.5q0 33 -36 56.5t-89 23.5q-58 0 -96 -21.5t-38 -58.5zM68 236q0 39 30 86t82 71q-38 20 -64 63t-26 81q0 116 86.5 178.5t224.5 62.5q136 0 227 -62.5t91 -176.5q0 -40 -22.5 -77.5t-69.5 -60.5q54 -25 83 -72.5
t29 -95.5q1 -68 -26.5 -118.5t-76 -79t-107.5 -42t-128 -11.5q-68 0 -126.5 13.5t-107 42.5t-75 79.5t-24.5 118.5zM408 463q51 0 77.5 21t26.5 51t-29 52.5t-77 22.5q-51 0 -80 -21.5t-29 -51.5t29.5 -52t81.5 -22z" />
    <glyph glyph-name="nine.denom" horiz-adv-x="792" 
d="M279 514q0 -39 32.5 -59.5t79.5 -20.5t80.5 20.5t32.5 59.5q0 36 -33 57t-78 21q-46 0 -80 -21t-34 -57zM78 215h196q3 -27 28 -44t58.5 -19t66 3.5t55 24.5t22.5 45v82q-42 -26 -99 -35.5t-115 1t-107.5 38t-81 80.5t-31.5 123q0 84 49 143.5t119.5 85t152.5 25.5
q128 0 223 -68.5t95 -187.5v-287q0 -78 -47 -135t-117 -82.5t-152 -25.5q-90 0 -157.5 22t-111 75.5t-46.5 135.5z" />
    <glyph glyph-name="zero.num" horiz-adv-x="839" 
d="M274 1122v-114q0 -54 30 -91t72.5 -45.5t84.5 0.5t72 45.5t30 90.5v114q0 56 -30 94t-72 47.5t-84.5 1t-72.5 -47t-30 -95.5zM74 1014v110q0 81 29.5 146t78.5 105t111 62t127 22t127 -22t111 -62t78.5 -105t29.5 -146v-110q0 -82 -29.5 -148.5t-78.5 -107.5t-111 -63.5
t-127 -22.5t-127 22.5t-111 63.5t-78.5 107.5t-29.5 148.5z" />
    <glyph glyph-name="one.num" horiz-adv-x="583" 
d="M72 696v170h127v361l-107 -23v172l311 82v-592h132v-170h-463z" />
    <glyph glyph-name="two.num" horiz-adv-x="770" 
d="M276 1214h-200q1 75 45.5 131t112 82.5t145.5 26.5q141 0 229 -64.5t88 -187.5q0 -61 -23.5 -106t-61.5 -69.5t-84 -41t-92 -26t-84 -19.5t-61.5 -26.5t-23.5 -41.5h424v-196h-618v196q0 60 23 103.5t59.5 67.5t80.5 40t88.5 25.5t81 20t59.5 28.5t23 45q0 44 -49.5 62
t-101.5 2.5t-60 -52.5z" />
    <glyph glyph-name="three.num" horiz-adv-x="786" 
d="M389 991h-119v154h111q59 0 87 19.5t28 52.5q0 32 -31.5 50.5t-83.5 20.5q-46 2 -81.5 -14t-41.5 -47h-182q0 59 28 105t73.5 72.5t98.5 40t109 13.5q77 0 146.5 -25.5t119 -82.5t49.5 -136q0 -104 -98 -147q52 -17 83.5 -63.5t31.5 -102.5t-21 -99.5t-53.5 -69
t-77.5 -42t-88 -22.5t-90 -6q-57 0 -112.5 14t-104 41.5t-78.5 75t-31 108.5h215q8 -57 109 -57q47 0 82 20t35 56q0 33 -30 52t-83 19z" />
    <glyph glyph-name="four.num" horiz-adv-x="821" 
d="M389 1442h266v-459h93v-174h-93v-125h-204v125h-396l-8 176zM451 983v260l-195 -260h195z" />
    <glyph glyph-name="five.num" horiz-adv-x="776" 
d="M666 1436v-176h-377v-91h110q316 0 316 -251q0 -71 -27.5 -125t-73 -83.5t-97 -44t-107.5 -14.5q-93 0 -163 24.5t-115 83t-46 146.5h207q5 -41 39 -61.5t72.5 -16.5t70 28.5t31.5 62.5q0 40 -31 60.5t-76 20.5h-303v437h570z" />
    <glyph glyph-name="six.num" horiz-adv-x="790" 
d="M514 930q0 39 -33 59.5t-80 20.5t-80 -20.5t-32 -59.5q0 -36 33 -57t77 -21q46 0 80.5 21t34.5 57zM705 1229h-193q-4 33 -39.5 50t-76.5 14.5t-74 -22.5t-33 -52v-82q42 26 99 35.5t115 -1t107.5 -38t81 -80.5t31.5 -123q0 -63 -28 -113.5t-75 -80t-103 -45t-116 -15.5
q-128 0 -222.5 68.5t-94.5 187.5v287q0 78 46.5 134t116 80.5t152.5 24.5q87 0 152.5 -22.5t108 -75t45.5 -131.5z" />
    <glyph glyph-name="seven.num" horiz-adv-x="673" 
d="M334 680h-230l273 569h-320v189h580l8 -84z" />
    <glyph glyph-name="eight.num" horiz-adv-x="806" 
d="M276 918q-2 -30 30 -57t102 -27q67 0 98 26t29 58q0 33 -36 56t-89 23q-58 0 -96 -21t-38 -58zM68 920q0 39 30 86t82 71q-38 20 -64 63t-26 81q0 116 86.5 178.5t224.5 62.5q136 0 227 -62.5t91 -176.5q0 -40 -22.5 -77.5t-69.5 -60.5q54 -25 83 -72t29 -95
q1 -90 -48 -149t-123 -82t-167 -21q-68 0 -126.5 13.5t-107 42.5t-75 79.5t-24.5 118.5zM408 1147q51 0 77.5 21t26.5 51t-29 52.5t-77 22.5q-51 0 -80 -21.5t-29 -51.5t29.5 -52t81.5 -22z" />
    <glyph glyph-name="nine.num" horiz-adv-x="792" 
d="M279 1200q0 -39 32.5 -59.5t79.5 -20.5t80.5 20.5t32.5 59.5q0 36 -33 57t-78 21q-46 0 -80 -21t-34 -57zM78 901h196q3 -27 28 -44t58.5 -19t66 3.5t55 24.5t22.5 45v82q-42 -26 -99 -35.5t-115 1t-107.5 38t-81 80.5t-31.5 123q0 84 49 143.5t119.5 85t152.5 25.5
q128 0 223 -68.5t95 -187.5v-287q0 -78 -47 -135t-117 -82.5t-152 -25.5q-90 0 -157.5 22t-111 75.5t-46.5 135.5z" />
    <glyph glyph-name="parenleft.case" horiz-adv-x="763" 
d="M569 1679l148 -202q-162 -134 -248 -337t-84 -421q0 -239 81 -439.5t241 -330.5l-148 -199q-479 317 -479 969q0 308 131 554t358 406z" />
    <glyph glyph-name="parenright.case" horiz-adv-x="763" 
d="M47 1477l148 202q227 -160 358 -406t131 -554q0 -652 -479 -969l-148 199q160 130 241 330.5t81 439.5q2 218 -84 421t-248 337z" />
    <glyph glyph-name="hyphen.case" horiz-adv-x="1030" 
d="M131 561v260h768v-260h-768z" />
    <glyph glyph-name="bracketleft.case" horiz-adv-x="772" 
d="M686 -188h-524v1806h524v-248h-233v-1307h233v-251z" />
    <glyph glyph-name="bracketright.case" horiz-adv-x="774" 
d="M612 -193h-524v252h234v1307h-234v248h524v-1807z" />
    <glyph glyph-name="braceleft.case" horiz-adv-x="757" 
d="M668 25v-228q-226 -43 -342.5 47t-116.5 285v305q0 31 -4.5 53.5t-17 47t-42.5 38t-75 13.5v219q45 0 75 13t42.5 37t17 47t4.5 54v289q0 210 112.5 303.5t346.5 50.5v-231q-84 19 -127 -22t-43 -117v-273v-36v-36t-1 -31t-4 -31t-8 -26t-12 -26.5t-18 -21.5t-25.5 -21.5
t-33.5 -16.5t-42 -16q23 -7 42 -16t33.5 -16.5t25.5 -21.5t18 -21t12 -26t7.5 -26t4 -31t1.5 -31v-35.5v-35.5v-266q0 -99 31.5 -125.5t138.5 -17.5z" />
    <glyph glyph-name="bar.case" horiz-adv-x="604" 
d="M442 1536v-1718h-280v1718h280z" />
    <glyph glyph-name="braceright.case" horiz-adv-x="757" 
d="M90 -203v228q107 -9 138.5 17.5t31.5 125.5v266v36v35t1 30.5t3.5 31t7.5 26.5t12.5 26t18 21.5t25 21t33.5 16.5t42 16q-23 7 -42 16t-33.5 16.5t-25 21t-18 21.5t-12.5 26.5t-7.5 26.5t-3.5 31t-1 31v35.5v36.5v273q0 76 -43 117t-127 22v231q234 43 346.5 -50.5
t112.5 -303.5v-289q0 -31 4.5 -54t17 -47t42.5 -37t75 -13v-219q-45 0 -75 -13.5t-42.5 -38t-17 -47t-4.5 -53.5v-305q0 -195 -116.5 -285t-342.5 -47z" />
    <glyph glyph-name="guilsinglleft.case" horiz-adv-x="821" 
d="M102 692l285 453h313v4l-284 -457q188 -312 284 -456h-313z" />
    <glyph glyph-name="guilsinglright.case" horiz-adv-x="821" 
d="M436 1153l285 -455l-285 -456h-313l283 456l-283 457v-2h313z" />
    <glyph glyph-name="guillemotleft.case" horiz-adv-x="1224" 
d="M104 729l285 453h313v4l-284 -457q194 -322 284 -457h-313zM508 729l285 453h313v4l-285 -457l285 -457h-313z" />
    <glyph glyph-name="guillemotright.case" horiz-adv-x="1222" 
d="M836 1182l284 -455l-284 -455h-316l285 455l-285 459v-4h316zM432 1182l285 -455l-285 -455h-313l284 455l-284 459v-4h313z" />
    <glyph glyph-name="endash.case" horiz-adv-x="1247" 
d="M131 543v256h985v-256h-985z" />
    <glyph glyph-name="emdash.case" horiz-adv-x="1437" 
d="M131 545v256h1176v-256h-1176z" />
    <glyph glyph-name="bullet.case" horiz-adv-x="858" 
d="M432 375q-125 0 -206 76t-81 200q0 123 81.5 201t205.5 78q120 0 200.5 -78t80.5 -201q0 -124 -80 -200t-201 -76z" />
    <glyph glyph-name="periodcentered.case" horiz-adv-x="610" 
d="M127 674q0 56 26.5 96.5t66 59t85.5 18.5t85.5 -18.5t66 -59t26.5 -96.5t-26.5 -97.5t-66 -60t-85.5 -18.5t-85.5 18.5t-66 60t-26.5 97.5z" />
    <glyph glyph-name="a.alt" horiz-adv-x="1144" 
d="M498 1040q95 0 170 -10t145 -37t116 -71t73.5 -115.5t27.5 -167.5v-639h-250l-22 100q-107 -112 -314 -112q-78 0 -146 20t-123.5 60t-87.5 107t-32 155q0 107 60.5 185t152 114.5t199.5 36.5q60 0 140.5 -17.5t131.5 -48.5v39q0 149 -241 149q-81 0 -171 -21t-151 -46
l-43 227q196 92 365 92zM350 330q0 -105 166 -105q73 0 137 35.5t84 114.5q-36 30 -93.5 45.5t-108.5 13.5q-185 0 -185 -104z" />
    <glyph glyph-name="agrave.alt" horiz-adv-x="1144" 
d="M256 1444v14h346l131 -272v-15h-258zM498 1040q95 0 170 -10t145 -37t116 -71t73.5 -115.5t27.5 -167.5v-639h-250l-22 100q-107 -112 -314 -112q-78 0 -146 20t-123.5 60t-87.5 107t-32 155q0 107 60.5 185t152 114.5t199.5 36.5q60 0 140.5 -17.5t131.5 -48.5v39
q0 149 -241 149q-81 0 -171 -21t-151 -46l-43 227q196 92 365 92zM350 330q0 -105 166 -105q73 0 137 35.5t84 114.5q-36 30 -93.5 45.5t-108.5 13.5q-185 0 -185 -104z" />
    <glyph glyph-name="aacute.alt" horiz-adv-x="1144" 
d="M885 1458v-14l-219 -273h-260v15l133 272h346zM498 1040q-169 0 -365 -92l43 -227q61 25 151 46t171 21q241 0 241 -149v-39q-51 31 -131.5 48.5t-140.5 17.5q-108 0 -199.5 -36.5t-152 -114.5t-60.5 -185q0 -88 32 -155t87.5 -107t123.5 -60t146 -20q207 0 314 112
l22 -100h250v639q0 96 -27.5 167.5t-73.5 115.5t-116 71t-145 37t-170 10zM350 330q0 104 185 104q51 2 108.5 -13.5t93.5 -45.5q-20 -79 -84 -114.5t-137 -35.5q-166 0 -166 105z" />
    <glyph glyph-name="acircumflex.alt" horiz-adv-x="1144" 
d="M492 1466h155l309 -282v-13h-299l-90 93l-86 -93h-299v13zM498 1040q-169 0 -365 -92l43 -227q61 25 151 46t171 21q241 0 241 -149v-39q-51 31 -131.5 48.5t-140.5 17.5q-108 0 -199.5 -36.5t-152 -114.5t-60.5 -185q0 -88 32 -155t87.5 -107t123.5 -60t146 -20
q207 0 314 112l22 -100h250v639q0 96 -27.5 167.5t-73.5 115.5t-116 71t-145 37t-170 10zM350 330q0 104 185 104q51 2 108.5 -13.5t93.5 -45.5q-20 -79 -84 -114.5t-137 -35.5q-166 0 -166 105z" />
    <glyph glyph-name="atilde.alt" horiz-adv-x="1144" 
d="M371 1176l-181 102q49 103 130.5 158t187.5 30q23 -6 68.5 -28.5t66.5 -26.5q27 -12 55.5 -1.5t55.5 54.5l190 -94q-52 -120 -124 -165.5t-148 -22.5q-24 6 -93 38t-104 33q-29 -3 -52.5 -20t-51.5 -57zM498 1040q95 0 170 -10t145 -37t116 -71t73.5 -115.5t27.5 -167.5
v-639h-250l-22 100q-107 -112 -314 -112q-78 0 -146 20t-123.5 60t-87.5 107t-32 155q0 107 60.5 185t152 114.5t199.5 36.5q60 0 140.5 -17.5t131.5 -48.5v39q0 149 -241 149q-81 0 -171 -21t-151 -46l-43 227q196 92 365 92zM350 330q0 -105 166 -105q73 0 137 35.5
t84 114.5q-36 30 -93.5 45.5t-108.5 13.5q-185 0 -185 -104z" />
    <glyph glyph-name="adieresis.alt" horiz-adv-x="1144" 
d="M184 1319q0 51 24 89t60 55t78 17t78 -17t60 -55t24 -89t-24 -88.5t-60 -54t-78 -16.5t-78 16.5t-60 54t-24 88.5zM664 1319q0 51 24 89t60 55t77.5 17t77.5 -17t60 -55t24 -89t-24 -88.5t-60 -54t-77.5 -16.5t-77.5 16.5t-60 54t-24 88.5zM498 1040q-169 0 -365 -92
l43 -227q61 25 151 46t171 21q241 0 241 -149v-39q-51 31 -131.5 48.5t-140.5 17.5q-108 0 -199.5 -36.5t-152 -114.5t-60.5 -185q0 -88 32 -155t87.5 -107t123.5 -60t146 -20q207 0 314 112l22 -100h250v639q0 96 -27.5 167.5t-73.5 115.5t-116 71t-145 37t-170 10z
M350 330q0 104 185 104q51 2 108.5 -13.5t93.5 -45.5q-20 -79 -84 -114.5t-137 -35.5q-166 0 -166 105z" />
    <glyph glyph-name="amacron.alt" horiz-adv-x="1144" 
d="M217 1221v233h727v-233h-727zM498 1040q95 0 170 -10t145 -37t116 -71t73.5 -115.5t27.5 -167.5v-639h-250l-22 100q-107 -112 -314 -112q-78 0 -146 20t-123.5 60t-87.5 107t-32 155q0 107 60.5 185t152 114.5t199.5 36.5q60 0 140.5 -17.5t131.5 -48.5v39
q0 149 -241 149q-81 0 -171 -21t-151 -46l-43 227q196 92 365 92zM350 330q0 -105 166 -105q73 0 137 35.5t84 114.5q-36 30 -93.5 45.5t-108.5 13.5q-185 0 -185 -104z" />
    <glyph glyph-name="abreve.alt" horiz-adv-x="1144" 
d="M655 1456h238q7 -138 -88.5 -223.5t-233.5 -85.5q-66 0 -127.5 19.5t-111 56.5t-76 98t-18.5 135h239q0 -49 29.5 -71.5t58.5 -22.5q31 0 60.5 22t29.5 72zM498 1040q95 0 170 -10t145 -37t116 -71t73.5 -115.5t27.5 -167.5v-639h-250l-22 100q-107 -112 -314 -112
q-78 0 -146 20t-123.5 60t-87.5 107t-32 155q0 107 60.5 185t152 114.5t199.5 36.5q60 0 140.5 -17.5t131.5 -48.5v39q0 149 -241 149q-81 0 -171 -21t-151 -46l-43 227q196 92 365 92zM350 330q0 -105 166 -105q73 0 137 35.5t84 114.5q-36 30 -93.5 45.5t-108.5 13.5
q-185 0 -185 -104z" />
    <glyph glyph-name="aring.alt" horiz-adv-x="1144" 
d="M295 1378q0 115 81.5 178.5t192.5 63.5q107 0 188 -64.5t81 -177.5q0 -75 -41.5 -129.5t-101 -79t-126.5 -24.5q-69 0 -129.5 24.5t-102.5 79t-42 129.5zM563 1473q-52 0 -81.5 -28.5t-29 -63t30 -63t80.5 -28.5q53 0 82 28.5t27.5 63t-31 63t-78.5 28.5zM498 1040
q95 0 170 -10t145 -37t116 -71t73.5 -115.5t27.5 -167.5v-639h-250l-22 100q-107 -112 -314 -112q-78 0 -146 20t-123.5 60t-87.5 107t-32 155q0 107 60.5 185t152 114.5t199.5 36.5q60 0 140.5 -17.5t131.5 -48.5v39q0 149 -241 149q-81 0 -171 -21t-151 -46l-43 227
q196 92 365 92zM350 330q0 -105 166 -105q73 0 137 35.5t84 114.5q-36 30 -93.5 45.5t-108.5 13.5q-185 0 -185 -104z" />
    <glyph glyph-name="aringacute.alt" horiz-adv-x="1144" 
d="M326 1307q0 -101 77.5 -156t180.5 -55q99 0 174.5 55t75.5 156q0 100 -76 157.5t-176 57.5q-103 0 -179.5 -57.5t-76.5 -157.5zM578 1389q46 0 74 -25.5t29 -55.5t-26 -55.5t-77 -25.5q-38 0 -65 16.5t-33 40.5t0 48t32.5 40.5t65.5 16.5zM954 1782v-8l-235 -205h-256v10
l149 203h342zM498 1040q-169 0 -365 -92l43 -227q61 25 151 46t171 21q241 0 241 -149v-39q-51 31 -131.5 48.5t-140.5 17.5q-108 0 -199.5 -36.5t-152 -114.5t-60.5 -185q0 -88 32 -155t87.5 -107t123.5 -60t146 -20q207 0 314 112l22 -100h250v639q0 96 -27.5 167.5
t-73.5 115.5t-116 71t-145 37t-170 10zM350 330q0 104 185 104q51 2 108.5 -13.5t93.5 -45.5q-20 -79 -84 -114.5t-137 -35.5q-166 0 -166 105z" />
    <glyph glyph-name="aogonek.alt" horiz-adv-x="1144" 
d="M498 1040q95 0 170 -10t145 -37t116 -71t73.5 -115.5t27.5 -167.5v-745q-26 8 -67.5 2t-80.5 -17.5t-62 -39t-11 -62.5q11 -21 45.5 -31.5t71.5 -1.5q28 5 71 27l146 -115q-45 -69 -132.5 -100.5t-181.5 -20.5q-85 12 -152.5 57t-84.5 123q-4 15 -4.5 35.5t3 47t17.5 54
t35.5 54t58.5 50.5t86 40l-24 104q-107 -112 -320 -112q-78 0 -146 20t-123.5 60t-87.5 107t-32 155q0 107 60.5 185t152 114.5t199.5 36.5q60 0 140.5 -17.5t131.5 -48.5v39q0 149 -241 149q-81 0 -171 -21t-151 -46l-43 227q196 92 365 92zM350 330q0 -105 166 -105
q73 0 137 35.5t84 114.5q-36 30 -93.5 45.5t-108.5 13.5q-185 0 -185 -104z" />
    <glyph glyph-name="y.alt" horiz-adv-x="1257" 
d="M109 1012h294v-516q0 -105 53 -175.5t154 -70.5q100 0 165 75t65 181v506h293v-1041q0 -101 -28.5 -185t-76 -141.5t-111.5 -97t-133.5 -57.5t-142.5 -18q-208 0 -346.5 101t-165.5 304h285q14 -54 49 -85t75 -40.5t95 -9.5q84 0 151.5 61t67.5 166v152
q-29 -38 -61 -64.5t-60 -40.5t-67 -21.5t-69.5 -9t-80.5 -1.5q-179 0 -292 136t-113 374v518z" />
    <glyph glyph-name="yacute.alt" horiz-adv-x="1257" 
d="M956 1436v-13l-239 -295h-258v15l153 293h344zM403 1012h-294v-518q0 -238 113 -374t292 -136q50 0 80.5 1.5t69.5 9t67 21.5t60 40.5t61 64.5v-152q0 -105 -67.5 -166t-151.5 -61q-55 0 -95 9.5t-75 40.5t-49 85h-285q27 -203 165.5 -304t346.5 -101q73 0 142.5 18
t133.5 57.5t111.5 97t76 141.5t28.5 185v1041h-293v-506q0 -106 -65 -181t-165 -75q-101 0 -154 70.5t-53 175.5v516z" />
    <glyph glyph-name="ycircumflex.alt" horiz-adv-x="1257" 
d="M403 1012h-294v-518q0 -238 113 -374t292 -136q50 0 80.5 1.5t69.5 9t67 21.5t60 40.5t61 64.5v-152q0 -105 -67.5 -166t-151.5 -61q-55 0 -95 9.5t-75 40.5t-49 85h-285q27 -203 165.5 -304t346.5 -101q73 0 142.5 18t133.5 57.5t111.5 97t76 141.5t28.5 185v1041h-293
v-506q0 -106 -65 -181t-165 -75q-101 0 -154 70.5t-53 175.5v516zM541 1481h170l340 -299v-11h-328l-98 93l-101 -93h-325v11z" />
    <glyph glyph-name="ydieresis.alt" horiz-adv-x="1257" 
d="M197 1286q0 52 24 90t60 55t78.5 17t78.5 -17t60 -55t24 -90q0 -51 -24 -89t-60 -55t-78.5 -17t-78.5 17t-60 55t-24 89zM733 1286q0 52 24.5 90t60.5 55t79 17t79 -17t60.5 -55t24.5 -90q0 -51 -24.5 -89t-60.5 -55t-79 -17t-79 17t-60.5 55t-24.5 89zM403 1012h-294
v-518q0 -238 113 -374t292 -136q50 0 80.5 1.5t69.5 9t67 21.5t60 40.5t61 64.5v-152q0 -105 -67.5 -166t-151.5 -61q-55 0 -95 9.5t-75 40.5t-49 85h-285q27 -203 165.5 -304t346.5 -101q73 0 142.5 18t133.5 57.5t111.5 97t76 141.5t28.5 185v1041h-293v-506
q0 -106 -65 -181t-165 -75q-101 0 -154 70.5t-53 175.5v516z" />
    <glyph glyph-name="ygrave.alt" horiz-adv-x="1257" 
d="M281 1423v13h346l153 -293v-15h-260zM109 1012h294v-516q0 -105 53 -175.5t154 -70.5q100 0 165 75t65 181v506h293v-1041q0 -101 -28.5 -185t-76 -141.5t-111.5 -97t-133.5 -57.5t-142.5 -18q-208 0 -346.5 101t-165.5 304h285q14 -54 49 -85t75 -40.5t95 -9.5
q84 0 151.5 61t67.5 166v152q-29 -38 -61 -64.5t-60 -40.5t-67 -21.5t-69.5 -9t-80.5 -1.5q-179 0 -292 136t-113 374v518z" />
    </font>
</defs>
</svg>
