<?xml version="1.0" standalone="no"?>
<!DOCTYPE svg PUBLIC "-//W3C//DTD SVG 1.1//EN" "http://www.w3.org/Graphics/SVG/1.1/DTD/svg11.dtd" >
<svg xmlns="http://www.w3.org/2000/svg" xmlns:xlink="http://www.w3.org/1999/xlink" version="1.1">
<metadata>
Created by FontForge 20170731 at Mon Dec 20 09:30:50 2021
 By Aleksey,,,
Copyright (c) 2012 by Fontfabric LLC. All rights reserved.
</metadata>
<defs>
<font id="Nexa-Regular-Italic" horiz-adv-x="1247" >
  <font-face 
    font-family="Nexa Regular Italic"
    font-weight="400"
    font-style="italic"
    font-stretch="normal"
    units-per-em="2048"
    panose-1="2 0 5 0 0 0 0 0 0 0"
    ascent="1536"
    descent="-512"
    x-height="1008"
    cap-height="1434"
    bbox="-424 -602 2300 1972"
    underline-thickness="102"
    underline-position="-307"
    unicode-range="U+000D-FB02"
  />
<missing-glyph horiz-adv-x="1308" 
d="M328 1434h1102l-252 -1434h-1102zM545 913v-2q9 49 36.5 86.5t66 58.5t80 31.5t85.5 10.5q46 0 80.5 -5.5t69.5 -20t54 -45.5t19 -77q0 -50 -14.5 -86t-45 -60.5t-57 -37.5t-71.5 -29q-108 -39 -160.5 -101.5t-77.5 -203.5h123q17 98 44.5 136t103.5 65q59 26 93 43.5
t75.5 48t63.5 62.5t37 80.5t15 109.5q-1 63 -28.5 109.5t-75.5 72.5t-104.5 38.5t-122.5 12.5q-72 0 -137.5 -17t-123 -51t-98 -93t-53.5 -136h123zM563 254q-9 -57 38 -75q43 -15 84 11q33 22 38 60q6 47 -30.5 68t-79 3t-50.5 -67z" />
    <glyph glyph-name=".notdef" horiz-adv-x="1308" 
d="M328 1434h1102l-252 -1434h-1102zM545 913v-2q9 49 36.5 86.5t66 58.5t80 31.5t85.5 10.5q46 0 80.5 -5.5t69.5 -20t54 -45.5t19 -77q0 -50 -14.5 -86t-45 -60.5t-57 -37.5t-71.5 -29q-108 -39 -160.5 -101.5t-77.5 -203.5h123q17 98 44.5 136t103.5 65q59 26 93 43.5
t75.5 48t63.5 62.5t37 80.5t15 109.5q-1 63 -28.5 109.5t-75.5 72.5t-104.5 38.5t-122.5 12.5q-72 0 -137.5 -17t-123 -51t-98 -93t-53.5 -136h123zM563 254q-9 -57 38 -75q43 -15 84 11q33 22 38 60q6 47 -30.5 68t-79 3t-50.5 -67z" />
    <glyph glyph-name=".null" horiz-adv-x="0" 
 />
    <glyph glyph-name="nonmarkingreturn" horiz-adv-x="682" 
 />
    <glyph glyph-name="CR" unicode="&#xd;" horiz-adv-x="548" 
 />
    <glyph glyph-name="space" unicode=" " horiz-adv-x="532" 
 />
    <glyph glyph-name="exclam" unicode="!" horiz-adv-x="542" 
d="M506 1436l-195 -1108h-178l195 1108h178zM68 104q8 74 71 104t118.5 0t47.5 -104q-10 -75 -76 -105q-59 -26 -112 0q-59 30 -49 105z" />
    <glyph glyph-name="quotedbl" unicode="&#x22;" horiz-adv-x="774" 
d="M461 1436l-121 -535h-145l114 535h152zM782 1436l-118 -535h-148l115 535h151z" />
    <glyph glyph-name="numbersign" unicode="#" horiz-adv-x="1372" 
d="M836 1434l-138 -328h342l140 328h168l-140 -328h168l-26 -150h-205l-211 -485h180l-27 -154h-215l-133 -317h-168l134 317h-345l-133 -317h-166l134 317h-162l26 154h199l211 485h-172l27 150h206l138 328h168zM639 965l-217 -502h344l215 502h-342z" />
    <glyph glyph-name="dollar" unicode="$" horiz-adv-x="1370" 
d="M969 1649v4l-35 -189q144 -15 254.5 -82t152.5 -188l-147 -66q-44 94 -148 137.5t-229 45.5q-80 0 -154 -15.5t-137.5 -47t-102 -86.5t-38.5 -126q0 -44 20.5 -78t43 -52.5t80 -36t87 -23t108.5 -18.5q5 -1 9 -1.5t8 -1.5q102 -16 168 -31t147 -48.5t123.5 -77
t65.5 -117.5t6 -170q-14 -79 -55.5 -143.5t-98 -108t-128.5 -74t-145 -46t-150 -19.5l-37 -203h-166l35 199q-112 7 -208 40.5t-173 103t-105 165.5l158 74q24 -63 70 -108t106 -69.5t122.5 -35.5t131.5 -11q72 0 145 14t142 43t117.5 81t60.5 120q8 43 -1 78.5t-36.5 61
t-60.5 44.5t-84.5 33.5t-94.5 24t-104 19.5q-72 12 -123.5 23t-112.5 30t-102.5 44t-78 60t-54.5 83.5t-18 109.5q0 89 34.5 163.5t91.5 125t131 86t151 52.5t155 19l35 189h168z" />
    <glyph glyph-name="percent" unicode="%" horiz-adv-x="1527" 
d="M549 1452q166 0 236 -114q58 -96 25 -224q-33 -130 -140 -210q-100 -75 -232 -75q-165 0 -234 114q-59 96 -26 224q34 130 140 210q99 75 231 75zM1272 1427h188l-1177 -1437h-191zM535 1325q-108 0 -176 -87q-58 -74 -50 -156q7 -83 80 -110q28 -11 64 -11q108 0 176 87
q58 74 50 156q-7 83 -80 110q-28 11 -64 11zM1133 608h-3q166 0 236 -114q59 -96 26 -224q-34 -129 -140 -209q-100 -75 -232 -75q-166 0 -235 114q-58 96 -24 224q34 130 140 209q100 75 232 75zM1114 477q-109 0 -176 -87q-55 -73 -46 -154q10 -81 83 -107q27 -10 61 -10
q112 0 179 87q56 72 47 152q-9 82 -83 109q-29 10 -65 10z" />
    <glyph glyph-name="ampersand" unicode="&#x26;" horiz-adv-x="1423" 
d="M1077 1071q4 68 -16 114.5t-62.5 70t-93 33t-119.5 9.5q-103 0 -181 -24t-123 -64.5t-67 -89t-22 -102.5q0 -115 81 -163t231 -48h636l-26 -145h-127l-47 -267q-10 -63 -7.5 -116t33 -86.5t88.5 -32.5l-28 -162q-46 -3 -82 2.5t-67.5 22t-50.5 51t-23 84.5
q-55 -67 -138.5 -108.5t-157.5 -54.5t-153 -13q-227 0 -352 91t-125 269q0 73 26.5 139.5t72 116t101.5 85.5t119 56q-83 27 -131.5 99t-48.5 161q0 137 79 240t213.5 156t303.5 53q75 0 142 -12.5t126.5 -41t99.5 -71t56.5 -107.5t1.5 -145h-162zM1028 664h-362
q-95 0 -175 -26t-130.5 -68.5t-78.5 -94t-28 -104.5q0 -230 324 -230q55 0 115 13.5t122 41t108 80.5t58 123z" />
    <glyph glyph-name="quotesingle" unicode="'" horiz-adv-x="450" 
d="M455 1438l-107 -533h-153l106 533h154z" />
    <glyph glyph-name="parenleft" unicode="(" horiz-adv-x="692" 
d="M786 1413q-123 -71 -227 -185.5t-176 -250t-106.5 -290.5t-26.5 -304t73 -294t185 -257l-113 -121q-136 124 -214.5 288.5t-94 336t20.5 352t118 339t210 293t286 216.5z" />
    <glyph glyph-name="parenright" unicode=")" horiz-adv-x="698" 
d="M299 1544q135 -134 215 -298.5t100 -333t-12 -342.5t-111.5 -329.5t-208 -291.5t-292.5 -230l-74 125q140 89 249.5 214t176.5 264t94 291.5t11 296t-80.5 278.5t-173.5 237z" />
    <glyph glyph-name="asterisk" unicode="*" horiz-adv-x="768" 
d="M551 934l-88 162l-139 -162l-97 78l152 151l-166 43l59 127l164 -61l25 178h133l-43 -180l197 61l14 -125l-193 -43l101 -151z" />
    <glyph glyph-name="plus" unicode="+" horiz-adv-x="1017" 
d="M125 784h332l57 330h164l-57 -330h335l-28 -157h-336l-60 -338h-163l59 338h-332z" />
    <glyph glyph-name="comma" unicode="," horiz-adv-x="485" 
d="M102 -6l2 4q-26 6 -41.5 26t-15.5 50q0 70 55.5 103t111.5 10.5t56 -85.5q0 -15 -18 -54t-58.5 -116t-62.5 -122h-113z" />
    <glyph glyph-name="hyphen" unicode="-" horiz-adv-x="1017" 
d="M152 668h733l-27 -160h-733z" />
    <glyph glyph-name="period" unicode="." horiz-adv-x="487" 
d="M47 92q14 70 79 98q58 24 106 -2q51 -29 38 -98q-15 -70 -80 -98q-59 -24 -106 3q-50 29 -37 97z" />
    <glyph glyph-name="slash" unicode="/" horiz-adv-x="1032" 
d="M961 1561h176l-1035 -1729h-174z" />
    <glyph glyph-name="zero" unicode="0" horiz-adv-x="1409" 
d="M172 866q49 273 252 435q167 133 378 149q203 14 350 -85q164 -111 186 -320q9 -88 -9 -189l-51 -287q-49 -274 -251 -437q-166 -134 -377 -151q-202 -16 -350 83q-164 111 -187 322q-10 90 8 194zM297 573q-17 -94 -7.5 -165t35 -121t69.5 -81t95.5 -45t112.5 -14
q80 0 158.5 26t149 76t122.5 134.5t70 191.5l49 287q17 117 2.5 198t-63 130.5t-110.5 71.5t-140 22t-155 -26.5t-146.5 -76.5t-121 -133.5t-69.5 -187.5z" />
    <glyph glyph-name="one" unicode="1" horiz-adv-x="849" 
d="M18 150h267l207 1073l-267 -68l29 164l453 127l-244 -1296h260l-27 -150h-704z" />
    <glyph glyph-name="two" unicode="2" horiz-adv-x="1378" 
d="M391 1036h-178q21 96 69.5 170t110.5 119.5t141.5 74t156.5 39.5t163 11q75 0 143.5 -12t131 -39.5t108.5 -68.5t73 -103.5t27 -139.5q0 -109 -37 -194t-97.5 -138.5t-145 -88t-171.5 -48.5t-184 -14q-56 -1 -107.5 -7t-110 -24t-103 -45.5t-78.5 -74t-45 -107.5
l-31 -176h949l-31 -170h-1125l62 346q16 94 62.5 167t108.5 119t142.5 75.5t159.5 41t166 11.5q54 0 110 7.5t118 29t109.5 54t79 87.5t31.5 125q0 233 -344 233q-71 0 -138 -13.5t-130.5 -42t-108 -81.5t-57.5 -123z" />
    <glyph glyph-name="three" unicode="3" horiz-adv-x="1374" 
d="M213 1061l-4 2q16 87 62 156.5t108 113t140.5 72t155 40t156.5 11.5q215 0 347.5 -95t132.5 -257q0 -130 -91.5 -231.5t-226.5 -131.5q101 -27 166.5 -106t65.5 -182q0 -145 -90.5 -253t-238 -162t-327.5 -54q-82 0 -156.5 11.5t-146 41t-119.5 74t-70.5 117t-6.5 163.5
h178q-10 -62 9.5 -108t55 -71t89 -40.5t100 -20t100.5 -4.5q192 0 317 77.5t125 209.5q0 94 -84 161t-258 67h-231l25 149h219q163 0 277.5 67.5t135.5 170.5q19 99 -61 171t-262 72q-66 0 -126.5 -9.5t-124.5 -33t-108.5 -72t-56.5 -116.5h-176z" />
    <glyph glyph-name="four" unicode="4" horiz-adv-x="1353" 
d="M852 301h-827l10 197l911 936h287l-172 -967h174l-29 -166h-174l-53 -301h-180zM881 467l157 831l-821 -831h664z" />
    <glyph glyph-name="five" unicode="5" horiz-adv-x="1347" 
d="M756 899q227 0 350 -103.5t123 -279.5q0 -235 -180.5 -381.5t-464.5 -146.5q-84 0 -159 12.5t-145 43.5t-117 77.5t-68 121.5t-5 169h176q-11 -60 5 -106.5t49 -74t82.5 -45t99 -24t106.5 -6.5q193 0 317 91.5t124 244.5q0 241 -322 241h-553l123 701h1016l-29 -164h-842
l-65 -371h379z" />
    <glyph glyph-name="six" unicode="6" horiz-adv-x="1411" 
d="M401 1024l-51 -287q89 70 210.5 112t225.5 42q78 0 150.5 -13t138.5 -43t114 -74t74.5 -109.5t22.5 -145.5q-5 -106 -46.5 -195.5t-106.5 -150t-149.5 -102.5t-175.5 -61.5t-185 -19.5q-88 0 -166.5 17t-147.5 55.5t-115 94.5t-64.5 140t-0.5 187l96 555q18 106 81 190
t153 135.5t194 78t213 26.5q114 0 207.5 -23.5t162.5 -70t101 -122t19 -173.5h-170q10 79 -36 134t-125.5 79.5t-182.5 24.5q-102 0 -195 -32t-161.5 -97.5t-84.5 -151.5zM633 141q82 1 160 21t146.5 58.5t114.5 105t54 151.5q8 83 -39.5 143t-123.5 87.5t-169 27.5
q-123 0 -230.5 -47t-171 -121t-71.5 -155q-5 -47 12 -90.5t55 -81.5t105.5 -64.5t157.5 -34.5z" />
    <glyph glyph-name="seven" unicode="7" horiz-adv-x="1148" 
d="M1028 1278h-852l27 156h1048l-4 -115l-950 -1319h-203z" />
    <glyph glyph-name="eight" unicode="8" horiz-adv-x="1443" 
d="M74 334q0 149 98.5 262.5t245.5 153.5q-89 37 -143 106.5t-54 147.5q0 95 38 173t101 129.5t148 87t175.5 51t186.5 15.5q75 0 146 -12t137.5 -39t115.5 -67t79 -100t30 -134q0 -129 -86.5 -229t-224.5 -144q101 -31 163 -111t62 -182q0 -105 -41.5 -188.5t-108.5 -136
t-158.5 -87t-184 -48t-193.5 -13.5q-71 0 -140.5 10t-142 36.5t-126.5 66.5t-88.5 105t-34.5 147zM1196 1057q10 52 -7 96t-53 73.5t-85.5 50.5t-102.5 30.5t-106 9.5q-77 0 -153 -18t-141 -52.5t-105 -91t-40 -125.5q0 -56 32.5 -99.5t86 -68t113 -37t121.5 -12.5
q67 0 136 14t134.5 41.5t112 76.5t57.5 112zM737 672q-67 1 -132.5 -8t-130 -33t-112.5 -60.5t-77.5 -95t-28.5 -131.5q1 -74 52 -122.5t130.5 -68.5t186.5 -20q82 0 163.5 17t155.5 51t121 95t49 140q1 61 -34.5 108.5t-93.5 74t-121.5 40t-127.5 13.5z" />
    <glyph glyph-name="nine" unicode="9" horiz-adv-x="1421" 
d="M1069 455l49 268q-81 -94 -201.5 -135t-248.5 -41q-78 0 -149 13t-135.5 42.5t-112 73t-75.5 109.5t-28 147q0 107 39.5 196.5t105 150t152.5 102t179 60.5t187 19q87 0 166.5 -16.5t148 -53.5t115.5 -90t67 -131t3 -172l-96 -563q-16 -99 -61.5 -177.5t-108 -129
t-143.5 -84t-163 -47.5t-171 -14q-114 0 -209 23.5t-166 70t-104.5 122.5t-20.5 173h174q-10 -81 36.5 -136.5t125 -78.5t182.5 -23q61 0 118.5 10t115.5 33.5t104 59.5t79.5 92t45.5 127zM815 1298q-64 -1 -126.5 -12t-123.5 -37t-107.5 -63.5t-76.5 -95.5t-33 -129
q-4 -64 22.5 -114t75 -80t108.5 -45t128 -15q82 0 163 21t150.5 61.5t114.5 107.5t49 150q2 52 -16 95t-50.5 71.5t-78 48t-95.5 28t-104 8.5z" />
    <glyph glyph-name="colon" unicode=":" horiz-adv-x="509" 
d="M51 92q14 70 79 98q58 24 106 -2q51 -29 38 -98q-15 -70 -80 -98q-59 -24 -106 3q-50 29 -37 97zM158 678q14 70 79 98q58 24 106 -2q51 -29 38 -98q-15 -70 -80 -98q-59 -24 -106 3q-50 29 -37 97z" />
    <glyph glyph-name="semicolon" unicode=";" horiz-adv-x="507" 
d="M106 -4h3q-26 6 -42 26t-16 50q0 76 64 108q55 28 107 5q52 -24 52 -83q0 -15 -17.5 -52.5t-60.5 -118.5t-63 -121h-110zM156 678q14 70 79 98q58 24 106 -2q51 -29 38 -98q-15 -70 -80 -98q-59 -24 -106 3q-50 29 -37 97z" />
    <glyph glyph-name="less" unicode="&#x3c;" horiz-adv-x="763" 
d="M623 1096l92 -115l-424 -336l301 -332l-121 -114l-375 419l10 58z" />
    <glyph glyph-name="equal" unicode="=" horiz-adv-x="1128" 
d="M209 938h827l-28 -158h-828zM133 506h828l-29 -158h-828z" />
    <glyph glyph-name="greater" unicode="&#x3e;" horiz-adv-x="770" 
d="M690 676l-10 -58l-518 -421l-99 125l424 340l-299 323l125 111z" />
    <glyph glyph-name="question" unicode="?" horiz-adv-x="1232" 
d="M313 1028h-168q15 89 57 161.5t100 120t132.5 80t152 46.5t161.5 14q77 0 145.5 -11.5t131 -38t107 -66.5t71 -101t26.5 -137q0 -63 -12.5 -117t-30.5 -92.5t-49 -73t-57.5 -56t-68 -43.5t-68 -33t-69.5 -27.5t-61 -24.5q-113 -40 -154.5 -93t-66.5 -190h-178
q17 102 45.5 172.5t73.5 118t98 77.5t133 56q39 15 60 23t56.5 25t55.5 31.5t45.5 38.5t39 50t23 62t9.5 77q0 53 -19 93t-50 63.5t-77 38t-92.5 19.5t-103.5 5q-64 0 -126 -14.5t-119.5 -44.5t-98.5 -84t-54 -125zM362 111q8 74 71 104t118 0t47 -104q-10 -75 -76 -105
q-60 -26 -112 1q-58 30 -48 104z" />
    <glyph glyph-name="at" unicode="@" horiz-adv-x="1855" 
d="M1051 1241q-161 0 -308 -58t-257.5 -160t-176 -250.5t-65.5 -319.5q0 -255 147 -396t422 -141q152 0 320 84l47 -119q-184 -102 -396 -102q-323 0 -509.5 174t-186.5 481q0 270 133 487.5t358 337t496 119.5q330 0 515.5 -170t185.5 -481q0 -181 -58.5 -332.5
t-165.5 -240.5q-42 -35 -99 -53.5t-109 -15.5t-84.5 45t-24.5 120q-67 -91 -184 -144t-222 -53q-192 0 -314 122.5t-122 309.5q0 131 50 241.5t134.5 184.5t196 115t234.5 41q109 0 199.5 -50t121.5 -138l33 143l133 -12l-129 -736q-6 -33 11 -48t43.5 -8t47.5 30
q76 67 124 203.5t48 271.5q0 518 -589 518zM985 924q-186 0 -308 -117.5t-122 -308.5q0 -137 81 -215t220 -78q129 0 228.5 62.5t148.5 157.5t49 202q0 127 -75.5 212t-221.5 85z" />
    <glyph glyph-name="A" unicode="A" horiz-adv-x="1560" 
d="M831 1434h201l391 -1434h-180l-88 315h-825l-195 -315h-198zM1114 479l-205 787l-481 -787h686z" />
    <glyph glyph-name="B" unicode="B" horiz-adv-x="1454" 
d="M338 1434h627q184 0 300.5 -91t116.5 -256q0 -128 -70.5 -221t-203.5 -135q102 -31 155.5 -111.5t53.5 -175.5q0 -98 -34.5 -175.5t-91 -127t-136 -82t-163.5 -46t-179 -13.5h-627zM487 1276l-79 -459h456q152 0 243 62.5t97 189.5q4 100 -65 153.5t-203 53.5h-449z
M379 655l-88 -491h450q50 0 96 5.5t98 21t91 41t69 69t38 100.5q7 63 -17.5 113.5t-71 80t-102.5 45t-117 15.5h-446z" />
    <glyph glyph-name="C" unicode="C" horiz-adv-x="1447" 
d="M1307 190q-125 -105 -272 -159t-298 -54q-106 0 -197 20.5t-158.5 58t-121 89.5t-85.5 115.5t-51 136.5t-18 151.5t13 160.5q19 116 64.5 223.5t121.5 203t174.5 166.5t232 112.5t285.5 41.5q309 0 488 -215l-131 -102q-128 153 -383 153q-142 0 -262.5 -48.5t-203 -131
t-135.5 -185t-73 -216.5q-14 -73 -10.5 -143t18.5 -132.5t52 -115.5t89 -91.5t131.5 -60t178.5 -21.5q113 0 233.5 43.5t214.5 122.5z" />
    <glyph glyph-name="D" unicode="D" horiz-adv-x="1542" 
d="M338 1434h524q154 0 273 -48.5t190.5 -131.5t108 -186.5t36.5 -221.5q0 -120 -32.5 -238t-102.5 -228.5t-169 -194.5t-243.5 -134.5t-314.5 -50.5h-522zM639 174q127 0 234.5 39.5t181.5 104t127 149t79 173.5t29 179t-20.5 168.5t-75.5 143t-145 102t-218 37.5h-346
l-192 -1096h346z" />
    <glyph glyph-name="E" unicode="E" horiz-adv-x="1337" 
d="M86 0l252 1434h1008l-29 -160h-832l-77 -453h796l-28 -164h-797l-86 -491h864l-31 -166h-1040z" />
    <glyph glyph-name="F" unicode="F" horiz-adv-x="1271" 
d="M338 1434h995l-30 -166h-818l-88 -504h746l-29 -166h-745l-107 -600h-178z" />
    <glyph glyph-name="G" unicode="G" horiz-adv-x="1531" 
d="M1493 1247l-121 -114q-67 79 -174 123t-219 44q-152 0 -283.5 -59t-218.5 -156t-136.5 -221t-49.5 -254q0 -64 11 -121t33.5 -110.5t60.5 -96t89.5 -74.5t122.5 -49.5t156 -17.5q232 0 428 146l59 340h-446l29 157h608l-103 -581q-109 -108 -266.5 -169t-329.5 -61
q-160 0 -283.5 48.5t-198.5 133t-112.5 191.5t-37.5 232q0 180 64.5 341.5t178.5 281.5t281 190.5t360 70.5q146 0 277.5 -55t220.5 -160z" />
    <glyph glyph-name="H" unicode="H" horiz-adv-x="1558" 
d="M1083 0l115 647h-819l-115 -647h-178l252 1434h178l-108 -621h819l108 621h178l-251 -1434h-179z" />
    <glyph glyph-name="I" unicode="I" horiz-adv-x="561" 
d="M86 0l252 1434h178l-252 -1434h-178z" />
    <glyph glyph-name="J" unicode="J" horiz-adv-x="1406" 
d="M1227 573q-43 -274 -229.5 -436t-467.5 -162q-129 0 -231 41t-167.5 116t-90 186.5t-0.5 246.5h170q-36 -198 53 -314t287 -116q191 0 328 120.5t172 317.5l127 713h-502l24 148h678z" />
    <glyph glyph-name="K" unicode="K" horiz-adv-x="1282" 
d="M86 0l252 1434h176l-111 -633l746 633h223v-11l-809 -692l621 -719l-2 -12h-217l-584 674l-119 -674h-176z" />
    <glyph glyph-name="L" unicode="L" horiz-adv-x="1179" 
d="M516 1434l-223 -1268h780l-29 -166h-958l252 1434h178z" />
    <glyph glyph-name="M" unicode="M" horiz-adv-x="1812" 
d="M1548 1178l-649 -727h-37l-391 729l-209 -1180h-176l252 1434h201l379 -738l636 738h213l-251 -1434h-177z" />
    <glyph glyph-name="N" unicode="N" horiz-adv-x="1560" 
d="M338 1434h123l684 -1115l194 1115h177l-254 -1434h-121l-684 1102l-197 -1102h-176z" />
    <glyph glyph-name="O" unicode="O" horiz-adv-x="1660" 
d="M987 1458q100 0 187 -21.5t152.5 -60t117.5 -92.5t83.5 -119t50.5 -139t17.5 -152.5t-14.5 -160.5q-21 -114 -67.5 -221t-122.5 -202t-172.5 -166t-224.5 -112t-271 -41q-160 0 -281 50.5t-191.5 138t-105 195.5t-34.5 233q0 139 41.5 270t119.5 239t184 189.5t243 126.5
t288 45zM1401 713q17 73 14.5 144.5t-16 136.5t-50 120.5t-86.5 96.5t-125 64t-167 23q-123 0 -231.5 -38t-189 -103.5t-140 -152.5t-90.5 -187t-33 -205q-1 -76 12.5 -144t47.5 -130t85 -106.5t130 -70.5t179 -26q136 0 253.5 50t198.5 133.5t134 184.5t74 210z" />
    <glyph glyph-name="P" unicode="P" horiz-adv-x="1406" 
d="M344 463l-82 -463h-176l252 1434h647q232 0 346 -150q95 -124 77 -302q-17 -179 -136 -318q-144 -168 -370 -196q-41 -5 -83 -5h-475zM848 629q168 0 281 124q92 101 105 233q12 135 -67 215q-74 73 -204 73h-476l-114 -645h475z" />
    <glyph glyph-name="Q" unicode="Q" horiz-adv-x="1665" 
d="M1356 -45l-144 174q-187 -145 -489 -145q-105 0 -193.5 20t-155.5 56.5t-118.5 88t-83.5 115.5t-48.5 138.5t-16.5 155.5t16 169q21 115 68.5 222t124 200.5t173.5 163t224 109.5t270 40q125 0 228 -32.5t173.5 -89t119 -134t71 -166.5t22.5 -188q0 -163 -65 -319.5
t-186 -286.5l147 -172zM965 1300q-138 -1 -259 -54t-206 -140.5t-140 -198t-71 -229.5q-32 -245 85.5 -386.5t358.5 -141.5q151 0 280.5 59t214 155t133.5 216t52 245q2 96 -22.5 179.5t-76.5 150.5t-141.5 106t-207.5 39z" />
    <glyph glyph-name="R" unicode="R" horiz-adv-x="1458" 
d="M1067 0l-356 524h-357l-90 -524h-178l252 1434h651q94 0 170 -26t123 -71t77.5 -105t35 -127t-5.5 -138q-14 -84 -49.5 -156.5t-93 -133.5t-145 -99.5t-196.5 -47.5l379 -530h-217zM848 676q154 0 250 83t119 212q6 44 5.5 87.5t-18.5 84t-47 71.5t-78.5 49.5
t-113.5 18.5h-473l-109 -606h465z" />
    <glyph glyph-name="S" unicode="S" horiz-adv-x="1341" 
d="M1300 1251l-114 -110q-62 83 -167.5 127.5t-232.5 46.5q-57 1 -108 -5t-104 -22.5t-93.5 -43t-71.5 -70.5t-42 -101q-7 -39 2 -72t27 -56.5t51.5 -43.5t63 -32t74 -22.5t72 -16t68.5 -11.5q96 -15 164.5 -32.5t142.5 -52.5t116 -81.5t63.5 -122t7.5 -172.5
q-11 -85 -53 -152.5t-103 -110t-141.5 -71t-163.5 -40t-174 -11.5q-194 0 -346 84t-213 244l143 84q57 -125 169.5 -187t254.5 -65q123 -3 221 21.5t162 81t74 137.5q7 62 -4 106t-36 74t-76 51.5t-108 34.5t-149 27q-53 9 -98.5 19.5t-95 26t-89 36.5t-76.5 47.5t-61 61
t-39 75.5t-14.5 93t16.5 112q89 327 617 327q139 0 260.5 -56t203.5 -157z" />
    <glyph glyph-name="T" unicode="T" horiz-adv-x="1220" 
d="M641 1274h-489l28 160h1155l-28 -160h-490l-225 -1274h-176z" />
    <glyph glyph-name="U" unicode="U" horiz-adv-x="1517" 
d="M1489 1434l2 -2l-152 -861q-26 -145 -91 -260t-157.5 -188.5t-204 -111.5t-235.5 -38q-93 0 -174 23.5t-147.5 71.5t-109 119.5t-57.5 167.5t7 216l152 861h176l-152 -861q-37 -208 51.5 -321t268.5 -113q193 0 327 114.5t170 321.5l152 861h174z" />
    <glyph glyph-name="V" unicode="V" horiz-adv-x="1462" 
d="M182 1434h189l280 -1237l715 1237h195l-844 -1438h-193z" />
    <glyph glyph-name="W" unicode="W" horiz-adv-x="2215" 
d="M197 1434h194l123 -807l49 -406l203 397l424 816h115l131 -816l53 -411l199 411l415 816h197l-750 -1436h-188l-107 674l-59 442l-221 -444l-348 -672h-183z" />
    <glyph glyph-name="X" unicode="X" horiz-adv-x="1288" 
d="M1198 1434h195v-7l-629 -706l393 -717v-4h-186l-326 600l-530 -600h-203v4l657 737l-370 686v7h188l301 -578z" />
    <glyph glyph-name="Y" unicode="Y" horiz-adv-x="1388" 
d="M590 586l-408 841l2 7h197l319 -689l574 689h213l-2 -7l-711 -841l-106 -586h-185z" />
    <glyph glyph-name="Z" unicode="Z" 
d="M252 1434h1059l-13 -78l-798 -895l-269 -293h865l-37 -168h-1102l16 96l779 881l278 297h-809z" />
    <glyph glyph-name="bracketleft" unicode="[" horiz-adv-x="673" 
d="M326 1458h426l-27 -153h-254l-266 -1502h254l-27 -155h-426z" />
    <glyph glyph-name="backslash" unicode="\" horiz-adv-x="987" 
d="M637 -168l-422 1729h168l422 -1729h-168z" />
    <glyph glyph-name="bracketright" unicode="]" horiz-adv-x="675" 
d="M330 -350h-426l26 155h254l269 1510h-254l24 145h426z" />
    <glyph glyph-name="asciicircum" unicode="^" horiz-adv-x="1236" 
d="M127 735v10l580 691h127l340 -691l-5 -10h-168l-253 543l-445 -543h-176z" />
    <glyph glyph-name="underscore" unicode="_" 
d="M29 -33h962l-24 -143h-963z" />
    <glyph glyph-name="grave" unicode="`" horiz-adv-x="481" 
d="M442 1163l-153 264v7h194l109 -260l-2 -11h-148z" />
    <glyph glyph-name="a" unicode="a" horiz-adv-x="1308" 
d="M887 0l-6 -4l34 184q-67 -103 -183 -154t-232 -51q-193 0 -313.5 119t-120.5 320q0 138 51.5 255t137.5 194t198 120t235 43q118 0 210.5 -52t129.5 -147l37 185h162l-178 -1012h-162zM668 872q-115 -1 -213.5 -52t-161 -151.5t-62.5 -230.5q0 -145 74.5 -227t222.5 -82
q189 0 317 137q103 112 122 260q18 150 -61 247q-80 99 -238 99z" />
    <glyph glyph-name="b" unicode="b" horiz-adv-x="1306" 
d="M467 1434l-107 -607q68 98 184.5 150.5t231.5 52.5q194 0 312 -112.5t118 -313.5q0 -142 -50 -260.5t-134.5 -197t-196.5 -121.5t-237 -43q-242 0 -340 194l-41 -176h-160l252 1434h168zM745 872q-173 0 -302.5 -118.5t-135.5 -300.5q-5 -139 75.5 -229.5t211.5 -90.5
q84 0 162 31t139 86.5t99 139.5t42 183q4 142 -75.5 220.5t-215.5 78.5z" />
    <glyph glyph-name="c" unicode="c" horiz-adv-x="1058" 
d="M825 250l93 -113q-144 -155 -404 -155q-197 0 -321.5 115t-124.5 317q0 190 83.5 331t225.5 213t321 72q212 0 340 -151l-120 -105q-83 98 -244 98q-193 0 -310.5 -117t-123.5 -315q-5 -140 77 -221.5t228 -81.5q147 0 280 113z" />
    <glyph glyph-name="d" unicode="d" horiz-adv-x="1302" 
d="M1294 1434l2 2l-252 -1436h-157l31 186q-76 -100 -190 -152t-232 -52q-190 0 -310 115t-120 313q0 143 49.5 262t133.5 196t194.5 119.5t234.5 42.5q113 0 208 -52.5t136 -150.5l106 607h166zM664 874h2q-177 0 -297.5 -116t-130.5 -316q-7 -147 70 -224t229 -77
q112 0 210.5 54t159 153.5t60.5 220.5q0 137 -83 221t-220 84z" />
    <glyph glyph-name="e" unicode="e" horiz-adv-x="1198" 
d="M887 264l96 -106q-88 -86 -215.5 -131t-253.5 -45q-207 0 -329 118t-122 318q0 172 84.5 313.5t228.5 221t314 79.5q118 0 209 -36t149.5 -109t70.5 -184.5t-27 -262.5h-861q-15 -145 70.5 -225t243.5 -80q90 0 186.5 35t155.5 94zM956 582v-2q33 149 -45.5 226
t-242.5 77q-137 0 -251.5 -79.5t-160.5 -221.5h700z" />
    <glyph glyph-name="f" unicode="f" horiz-adv-x="790" 
d="M168 0v-2l151 854h-210l26 147h211l14 80q31 177 132.5 272t271.5 95q121 0 217 -74l-90 -121q-70 47 -150 47q-91 0 -143 -52.5t-72 -166.5l-14 -80h317l-26 -147h-318l-149 -852h-168z" />
    <glyph glyph-name="g" unicode="g" horiz-adv-x="1306" 
d="M1044 -20q-46 -258 -200.5 -382t-394.5 -124q-220 0 -339 101.5t-92 279.5h162q-10 -121 65.5 -176.5t215.5 -55.5q163 0 273 87.5t143 264.5l34 185q-73 -97 -182.5 -141t-228.5 -44q-194 0 -314 118.5t-120 320.5q0 138 51.5 255t137.5 194.5t198.5 121t234.5 43.5
q118 0 211.5 -52.5t130.5 -148.5l37 185h160zM666 870q-189 -2 -311 -121.5t-119 -310.5q2 -144 79.5 -226.5t221.5 -82.5q189 0 314 136q102 111 119 259q17 149 -63 246q-83 100 -241 100z" />
    <glyph glyph-name="h" unicode="h" horiz-adv-x="1232" 
d="M465 1434v-2l-103 -588q145 176 381 180q210 0 295.5 -122t46.5 -345l-98 -557h-166l99 555q30 160 -23.5 235.5t-208.5 75.5q-135 0 -244.5 -98.5t-134.5 -230.5l-94 -537h-168l252 1434h166z" />
    <glyph glyph-name="i" unicode="i" horiz-adv-x="473" 
d="M225 1016l-178 -1016h168l178 1016h-168zM260 1325q13 71 79 98q58 24 104 -3q51 -29 38 -97q-14 -71 -80 -98q-59 -24 -105 3q-49 29 -36 97z" />
    <glyph glyph-name="j" unicode="j" horiz-adv-x="473" 
d="M227 1014h-2l-200 -1135q-21 -116 -61 -170.5t-116 -54.5q-62 0 -133 35l-67 -138q86 -51 202 -55q131 -2 220.5 91t119.5 276q21 125 203 1151h-166zM250 1325q13 71 79 98q58 24 104 -3q51 -29 38 -97q-14 -71 -80 -98q-59 -24 -105 3q-49 29 -36 97z" />
    <glyph glyph-name="k" unicode="k" horiz-adv-x="1009" 
d="M465 1434l-150 -848l496 422h201l-2 -11l-551 -473l438 -512l-2 -12h-195l-403 477l-84 -477h-166l252 1434h166z" />
    <glyph glyph-name="l" unicode="l" horiz-adv-x="497" 
d="M479 1434l-252 -1434h-168l252 1434h168z" />
    <glyph glyph-name="m" unicode="m" horiz-adv-x="1884" 
d="M225 1010h158l-16 -148q58 84 146.5 124t182.5 40q113 0 196.5 -54.5t104.5 -164.5q73 112 177.5 166.5t218.5 54.5q201 0 292.5 -117.5t53.5 -332.5l-103 -578h-168l103 578q23 135 -28.5 213.5t-182.5 78.5q-123 0 -215.5 -85t-114.5 -212l-100 -573h-168l100 573
q25 138 -33.5 217.5t-185.5 79.5q-122 0 -214 -85t-114 -212l-100 -573h-168z" />
    <glyph glyph-name="n" unicode="n" horiz-adv-x="1245" 
d="M223 1010h154l-19 -158q71 89 171 132.5t208 43.5q197 0 298.5 -125.5t62.5 -343.5l-99 -559h-168l99 557q28 154 -37.5 237.5t-214.5 77.5q-136 -1 -240 -95.5t-129 -233.5l-96 -543h-166z" />
    <glyph glyph-name="o" unicode="o" horiz-adv-x="1230" 
d="M63 418q0 130 50.5 245t135.5 196t200 128t241 47q202 0 322.5 -121.5t120.5 -318.5q0 -173 -85.5 -314t-229 -219.5t-314.5 -78.5q-199 0 -320 121t-121 315zM520 139q176 0 301.5 123t143.5 303q12 141 -69 228.5t-220 87.5q-117 0 -218 -56t-162.5 -157.5
t-64.5 -225.5q-5 -135 74.5 -219t214.5 -84z" />
    <glyph glyph-name="p" unicode="p" horiz-adv-x="1306" 
d="M-39 -477l262 1485h160l-29 -187q158 205 428 205q192 -4 307 -122t115 -310q0 -183 -82 -325.5t-221.5 -218t-312.5 -75.5q-112 0 -209 52.5t-137 154.5l-117 -659h-164zM606 135q177 0 302.5 119.5t125.5 310.5q0 143 -75 220t-226 77q-178 0 -301 -123t-123 -297
q0 -133 81.5 -219.5t215.5 -87.5z" />
    <glyph glyph-name="q" unicode="q" horiz-adv-x="1304" 
d="M795 -477h4l116 651q-73 -99 -186 -146.5t-231 -47.5q-199 0 -315.5 117.5t-116.5 316.5q0 176 82.5 317.5t220.5 219t303 79.5q121 0 215.5 -56.5t136.5 -156.5l41 195h160l-264 -1489h-166zM528 141l2 2q112 0 211 55.5t160 153.5t64 213q5 133 -72.5 218t-214.5 85
q-118 0 -217 -51.5t-159.5 -150t-63.5 -226.5q-4 -138 75.5 -218.5t214.5 -80.5z" />
    <glyph glyph-name="r" unicode="r" horiz-adv-x="876" 
d="M381 1012l2 2l-16 -146q128 162 344 162q132 3 221 -76l-101 -143q-70 55 -165 55q-128 -2 -228 -82t-125 -221l-98 -563h-168l178 1012h156z" />
    <glyph glyph-name="s" unicode="s" horiz-adv-x="1015" 
d="M936 895l-100 -107q-110 99 -279 99q-117 0 -193.5 -42t-76.5 -124q0 -32 18 -56t52.5 -38.5t70.5 -23t86 -15.5q65 -9 111.5 -19t105 -33t93 -53.5t54 -83t9.5 -120.5q-15 -98 -84.5 -167.5t-165 -100.5t-207.5 -31q-136 0 -251 49.5t-181 142.5l108 109
q125 -152 334 -152q43 0 86.5 7.5t87 24t74 48.5t37.5 76q7 38 -8.5 67t-51.5 47t-80 29t-106 18q-57 8 -104 18.5t-96 31t-81.5 47.5t-53.5 68.5t-21 93.5q0 85 40 149.5t106.5 101t142 54.5t157.5 20q114 0 203.5 -29.5t163.5 -105.5z" />
    <glyph glyph-name="t" unicode="t" horiz-adv-x="804" 
d="M553 1307l-53 -297h313l-25 -144h-315l-94 -534q-18 -102 7.5 -148.5t117.5 -46.5q68 0 147 37l35 -137q-111 -48 -215 -51q-160 -3 -224 86.5t-34 259.5l94 534h-203l25 144h203l49 278z" />
    <glyph glyph-name="u" unicode="u" 
d="M831 0h3l26 158q-156 -173 -391 -176q-197 0 -296.5 124.5t-61.5 342.5l98 559h170l-98 -557q-27 -151 30 -232.5t205 -81.5q138 1 249 96t136 232l96 543h168l-178 -1008h-156z" />
    <glyph glyph-name="v" unicode="v" horiz-adv-x="1150" 
d="M123 1008h178l188 -834l490 834h182l-604 -1010h-184z" />
    <glyph glyph-name="w" unicode="w" horiz-adv-x="1716" 
d="M129 1008h178l123 -830l426 830h137l129 -832l412 832h184l-532 -1010h-187l-114 752l-387 -752h-189z" />
    <glyph glyph-name="x" unicode="x" horiz-adv-x="1011" 
d="M-74 4l467 531l-264 466v7h172l215 -377l324 377h188v-7l-440 -487l289 -510v-4h-179l-225 403l-354 -403h-193v4z" />
    <glyph glyph-name="y" unicode="y" horiz-adv-x="1245" 
d="M979 -43q-22 -124 -74 -218t-127 -150.5t-163.5 -84.5t-190.5 -28q-208 0 -312 98t-85 281h159q-13 -117 53.5 -173.5t200.5 -56.5q321 0 379 334l35 201q-146 -173 -385 -176q-197 0 -295.5 125.5t-60.5 343.5l98 555h168l-98 -553q-57 -316 227 -316q138 2 253 98
t140 232l94 539h168z" />
    <glyph glyph-name="z" unicode="z" horiz-adv-x="966" 
d="M170 1008h784l-12 -78l-711 -783l574 3l-29 -150h-819l12 66l717 798h-543z" />
    <glyph glyph-name="braceleft" unicode="{" horiz-adv-x="673" 
d="M467 -150l-23 -129q-143 -23 -221 4t-98.5 102.5t0.5 197.5l51 294q7 42 7 74.5t-9.5 65.5t-38.5 51t-76 18l23 129q155 0 190 209l50 283q33 190 135 270t291 43l-23 -133q-112 23 -163 -18.5t-73 -167.5l-49 -277q-6 -35 -9 -50.5t-11 -47t-15.5 -47.5t-22 -39.5
t-32 -37.5t-43 -28t-57.5 -22q29 -8 50 -22t33.5 -28.5t18.5 -38.5t8.5 -40t-0.5 -47t-5.5 -46.5t-8.5 -49.5l-51 -289q-18 -82 -9 -125.5t48 -55.5t133 -2z" />
    <glyph glyph-name="bar" unicode="|" horiz-adv-x="522" 
d="M500 1487l-299 -1698h-166l299 1698h166z" />
    <glyph glyph-name="braceright" unicode="}" horiz-adv-x="671" 
d="M-59 -158v-4q121 -19 168 18t69 162l49 289q6 33 9 50t11 47.5t16.5 47.5t23 41t32.5 38.5t43.5 28.5t57.5 22q-33 10 -56 25t-34.5 36.5t-17 42t-4 50.5t4.5 52t9 57q1 7 2 11l47 274q22 127 -13.5 168.5t-156.5 18.5l22 127q202 36 276.5 -41.5t41.5 -265.5l-49 -281
q-7 -42 -7 -74t9 -65.5t38 -51.5t76 -18l-22 -127q-156 0 -191 -209l-53 -295q-33 -189 -130.5 -263.5t-293.5 -41.5z" />
    <glyph glyph-name="asciitilde" unicode="~" horiz-adv-x="1296" 
d="M1049 756l120 -39q-61 -148 -174 -207t-247 -4l-252 106q-75 26 -106 25q-81 -1 -134 -121l-113 39q60 141 174 195t238 0l248 -107q50 -18 91 -18t80 31.5t75 99.5z" />
    <glyph glyph-name="exclamdown" unicode="&#xa1;" horiz-adv-x="503" 
d="M-16 -418l194 1108h178l-194 -1108h-178zM422 913q-8 -74 -71 -104t-119 0t-48 104q10 75 77 105q60 26 113 -1q57 -30 48 -104z" />
    <glyph glyph-name="cent" unicode="&#xa2;" horiz-adv-x="1122" 
d="M446 -25q-168 17 -266 131t-98 291q0 154 73 284t197 212.5t277 105.5l24 134h158l-25 -134q166 -24 273 -149l-119 -102q-43 51 -112.5 79.5t-141.5 28.5q-113 0 -211.5 -53t-160.5 -154.5t-62 -230.5q0 -146 74.5 -224.5t226.5 -78.5q70 0 149.5 30t141.5 82l86 -116
q-152 -125 -326 -146l-26 -145h-158z" />
    <glyph glyph-name="sterling" unicode="&#xa3;" horiz-adv-x="1329" 
d="M43 166l4 -2q142 95 198.5 195.5t63.5 228.5h-188l26 151h156q-10 118 -10 174q0 130 46 233.5t126.5 169t187.5 100t232 34.5q101 0 179.5 -21.5t136.5 -66.5t81.5 -123.5t7.5 -185.5h-151q9 74 -10 123.5t-62.5 74t-93 34t-117.5 9.5q-182 0 -287.5 -100.5
t-105.5 -292.5q0 -72 4 -158h491l-26 -151h-459q-8 -282 -227 -434h897l-29 -158h-1100z" />
    <glyph glyph-name="currency" unicode="&#xa4;" horiz-adv-x="1239" 
d="M578 375q148 0 240.5 100.5t92.5 229.5q0 101 -60.5 170t-172.5 69q-97 0 -176 -49.5t-119.5 -124.5t-40.5 -156q0 -100 61.5 -169.5t174.5 -69.5zM336 299l-143 -121l-101 123l141 119q-52 108 -28 237.5t114 235.5l-102 121l145 125l101 -123q109 61 242 61
q128 0 217 -61l143 123l100 -125l-139 -119q51 -107 27 -239t-113 -236l100 -119l-145 -123l-100 121q-109 -59 -240 -59q-128 0 -219 59z" />
    <glyph glyph-name="yen" unicode="&#xa5;" horiz-adv-x="1435" 
d="M272 430h320l20 117h-319l24 137h250l-356 743v7h192l322 -713l588 713h200v-7l-628 -743h252l-25 -137h-326l-20 -117h326l-25 -135h-326l-51 -295h-174l51 295h-319z" />
    <glyph glyph-name="brokenbar" unicode="&#xa6;" horiz-adv-x="532" 
d="M195 700l133 750h176l-133 -750h-176zM346 565l-131 -747h-176l131 747h176z" />
    <glyph glyph-name="section" unicode="&#xa7;" horiz-adv-x="1177" 
d="M1020 1219h-4q-57 54 -125.5 74t-165.5 20q-75 1 -142 -15t-114 -51t-55 -82q-6 -39 14.5 -67t64 -44t84 -24.5t93.5 -13.5q71 -6 126.5 -14.5t119 -30t102 -52t57 -82.5t2.5 -120q-20 -82 -82.5 -138t-150.5 -77q88 -27 129.5 -89t21.5 -145q-17 -84 -75 -147
t-137 -95.5t-156.5 -47.5t-153.5 -15q-147 0 -265 50.5t-173 148.5l133 112q99 -155 336 -155q51 0 100.5 8.5t96 25.5t79.5 48.5t43 72.5q8 37 -9.5 64t-59.5 43t-88.5 24.5t-112.5 14.5q-79 5 -147.5 21t-128 45t-93.5 78t-34 112q0 81 64.5 155.5t166.5 106.5
q-83 24 -119.5 84t-21.5 141q13 65 51.5 117t90.5 85.5t117.5 56t129.5 31.5t129 9q121 0 224.5 -35t162.5 -112zM903 717v-2q15 79 -87 125q-101 47 -241 34q-152 -14 -218 -89q-28 -32 -35 -72q-15 -79 89 -122q103 -43 246 -27q151 18 215 91q25 29 31 62z" />
    <glyph glyph-name="dieresis" unicode="&#xa8;" horiz-adv-x="983" 
d="M367 1337q14 70 79 98q58 24 106 -2q51 -29 38 -98q-15 -70 -80 -98q-59 -24 -106 3q-50 29 -37 97zM850 1337q14 70 79 98q58 24 106 -2q51 -29 38 -98q-15 -70 -80 -98q-59 -24 -106 3q-50 29 -37 97z" />
    <glyph glyph-name="copyright" unicode="&#xa9;" horiz-adv-x="1710" 
d="M1012 1466q150 -1 270 -50t195.5 -134t115 -196.5t39.5 -241.5q0 -136 -40 -265.5t-117.5 -239t-183 -192t-246 -129.5t-297.5 -47q-152 0 -273 49t-198 134.5t-117.5 198.5t-40.5 243q0 171 64.5 328.5t179 278t283.5 192t366 71.5zM276 610q0 -106 30 -195.5t89 -159.5
t155.5 -109.5t221.5 -39.5q156 0 289.5 58.5t223 157.5t140 229.5t50.5 273.5q0 110 -26.5 198.5t-82.5 158t-152.5 107.5t-226.5 38q-156 0 -290.5 -58t-225.5 -156t-143 -228.5t-52 -274.5zM1245 995l-6 9q-91 120 -264 120q-129 0 -240 -59t-178.5 -167t-67.5 -239
q0 -150 96 -241.5t251 -91.5q167 0 309 120l-80 99q-97 -82 -203 -82q-99 0 -161 60.5t-62 156.5q0 128 93.5 213.5t221.5 85.5q109 0 172 -78z" />
    <glyph glyph-name="ordfeminine" unicode="&#xaa;" horiz-adv-x="1030" 
d="M754 772l16 113q-47 -61 -118.5 -92t-143.5 -33q-134 0 -209.5 72.5t-75.5 207.5q0 94 34 172t91 129t131 79t156 28q72 0 131 -32.5t86 -90.5l20 111h134l-119 -664h-133zM625 1315q-99 -2 -175 -72.5t-79 -177.5q-3 -78 44.5 -126t123.5 -48q121 0 197 96q63 81 59 174
q-4 96 -80 135q-38 19 -90 19zM178 645h703l-25 -133h-702z" />
    <glyph glyph-name="guillemotleft" unicode="&#xab;" horiz-adv-x="946" 
d="M455 1059h180l-361 -451l201 -452h-180l-203 452zM387 608l363 451h180l-361 -451l201 -452h-180z" />
    <glyph glyph-name="logicalnot" unicode="&#xac;" horiz-adv-x="1064" 
d="M856 336h-154l48 270h-600l26 154h754z" />
    <glyph glyph-name="uni00AD" unicode="&#xad;" horiz-adv-x="991" 
d="M217 668h733l-28 -160h-734z" />
    <glyph glyph-name="registered" unicode="&#xae;" horiz-adv-x="1699" 
d="M997 1462q151 0 271 -48t196 -133t116 -196.5t40 -242.5q0 -137 -39.5 -266.5t-117 -239.5t-184 -192.5t-247.5 -129.5t-299 -47q-121 0 -222 32t-172.5 88.5t-121.5 134.5t-74 171t-24 197q0 169 62.5 326.5t173.5 278.5t278.5 194t363.5 73zM973 1327
q-140 0 -262 -46.5t-210 -128t-146 -192.5t-76 -239q-8 -65 -10 -129t12 -124.5t37 -114.5t64 -98.5t93.5 -77t125 -50.5t159.5 -18q156 0 288.5 58t222 156.5t141 228t54.5 273.5q4 244 -123 373t-370 129zM991 627v-2q83 8 144.5 61t81 123t11 138.5t-67.5 115.5t-154 47
h-353l-135 -768h141l48 266h147l154 -266h153l2 12zM770 977h211q90 0 112 -63q20 -55 -20 -113q-56 -68 -139 -72h-207z" />
    <glyph glyph-name="macron" unicode="&#xaf;" horiz-adv-x="862" 
d="M326 1438h659l-27 -146h-659z" />
    <glyph glyph-name="degree" unicode="&#xb0;" horiz-adv-x="684" 
d="M475 1368q-77 0 -119 -64q-36 -55 -18 -109q21 -58 96 -58q78 0 117 65q34 56 14 110q-21 56 -90 56zM498 1483q126 0 174 -93q42 -81 7 -182q-36 -104 -129 -153q-59 -31 -130 -31q-136 0 -186 95q-41 79 -3 180t132 151q61 33 135 33z" />
    <glyph glyph-name="plusminus" unicode="&#xb1;" horiz-adv-x="1079" 
d="M182 840h316l57 321h164l-57 -321h315l-27 -156h-315l-57 -324h-164l57 324h-315zM82 225h780l-26 -155h-781z" />
    <glyph glyph-name="twosuperior" unicode="&#xb2;" horiz-adv-x="743" 
d="M356 1374h-131q11 60 44 105t79 70t96 36.5t105 11.5q112 0 183 -44.5t71 -143.5q0 -48 -12 -87.5t-30 -66t-47.5 -47t-55 -31.5t-63 -19.5t-60.5 -12t-58 -6.5q-164 -14 -182 -117l-8 -45h432l-23 -131h-569l31 178q10 56 39.5 99t73 69t91 40t101.5 19q49 4 81 10.5
t63.5 21t47 41t15.5 65.5q0 92 -142 92q-150 0 -172 -107z" />
    <glyph glyph-name="threesuperior" unicode="&#xb3;" horiz-adv-x="745" 
d="M152 1063h135q-3 -34 9.5 -56t37 -31t45.5 -12t49 -3q32 0 60.5 5t57.5 17t46.5 37.5t17.5 60.5q0 37 -34 66t-105 29h-115l21 110h106q73 0 123.5 26t50.5 85q0 88 -137 88q-150 0 -178 -107h-121q10 57 41.5 100.5t76.5 68.5t95 37.5t103 12.5q106 0 178.5 -47.5
t72.5 -136.5q0 -66 -38.5 -117.5t-100.5 -70.5q48 -14 74.5 -53t26.5 -85q0 -55 -21.5 -99t-55.5 -72t-80.5 -46.5t-93.5 -26t-96 -7.5q-56 0 -103 12.5t-85 38t-55.5 71t-7.5 105.5z" />
    <glyph glyph-name="acute" unicode="&#xb4;" horiz-adv-x="473" 
d="M246 1163l2 11l178 260h207v-7l-234 -264h-153z" />
    <glyph glyph-name="_181" unicode="&#xb5;" horiz-adv-x="1255" 
d="M1075 0h-147l8 125q-58 -83 -158.5 -127t-195.5 -41q-102 0 -182.5 39.5t-100.5 126.5l-102 -578h-156l258 1467h166l-105 -596q-13 -72 3.5 -132.5t54.5 -99t89 -59.5t109 -21q126 0 234 87.5t137 250.5l100 570h166z" />
    <glyph glyph-name="paragraph" unicode="&#xb6;" horiz-adv-x="1665" 
d="M844 1272l-303 -1714h-168l145 821q-80 3 -147.5 26t-114 60t-80.5 86t-49 106t-19.5 120t9.5 126q19 101 69.5 194.5t127.5 169t187 120.5t236 45h994l-27 -160h-205l-303 -1712h-164l303 1712h-491z" />
    <glyph glyph-name="periodcentered" unicode="&#xb7;" horiz-adv-x="507" 
d="M133 553q14 70 79 98q58 24 106 -2q51 -29 38 -98q-15 -70 -80 -98q-59 -24 -106 3q-50 29 -37 97z" />
    <glyph glyph-name="cedilla" unicode="&#xb8;" horiz-adv-x="686" 
d="M158 -139l78 184h124l-47 -113q64 1 106 -19t58 -52.5t15.5 -70.5t-15.5 -77q-34 -82 -109.5 -125t-162.5 -41q-73 2 -130 32.5t-81 88.5l88 68q41 -72 139 -72q42 0 81.5 20.5t53.5 57.5q24 61 -27.5 92t-142.5 0z" />
    <glyph glyph-name="onesuperior" unicode="&#xb9;" horiz-adv-x="520" 
d="M139 963h129l82 471l-114 -29l20 119l256 59l-109 -620h132l-21 -117h-395z" />
    <glyph glyph-name="ordmasculine" unicode="&#xba;" horiz-adv-x="1024" 
d="M541 754q-132 0 -214.5 76t-82.5 210q0 124 58.5 218t152 141t204.5 47q132 0 213.5 -75.5t81.5 -207.5q0 -123 -59 -218t-152 -143t-202 -48zM557 889q105 0 179 71t77 179q3 79 -44 129.5t-124 50.5q-102 0 -177.5 -73t-78.5 -181q-3 -81 41.5 -128.5t126.5 -47.5z
M188 631h666l-23 -133h-665z" />
    <glyph glyph-name="guillemotright" unicode="&#xbb;" horiz-adv-x="937" 
d="M199 160h-179l359 450l-199 451h178l203 -451zM846 610l-363 -450h-178l359 450l-199 451h178z" />
    <glyph glyph-name="onequarter" unicode="&#xbc;" horiz-adv-x="1529" 
d="M178 -4l1026 1448h154l-1030 -1448h-150zM133 811h129l86 475l-117 -26l23 118l256 60l-113 -627h131l-18 -111h-395zM1395 739l-84 -469h88l-21 -120h-88l-26 -150h-131l26 150h-393l10 110l441 479h178zM1180 270l61 340l-309 -340h248z" />
    <glyph glyph-name="onehalf" unicode="&#xbd;" horiz-adv-x="1622" 
d="M131 817h127l84 471l-115 -26l21 118l252 60l-111 -623h131l-20 -117h-389zM950 524h2q11 60 44 105.5t79 71t96.5 37.5t104.5 12q112 0 183 -45t71 -144q0 -48 -12.5 -87.5t-30.5 -66t-48 -47.5t-56 -32.5t-63 -20t-60.5 -12t-57.5 -6.5q-165 -15 -182 -113l-10 -53h432
l-23 -123h-563l31 176q19 104 99 156.5t190 62.5q219 19 219 154q0 47 -33 64.5t-102 17.5q-157 0 -177 -107h-133zM166 -4l1026 1448h154l-1031 -1448h-149z" />
    <glyph glyph-name="threequarters" unicode="&#xbe;" horiz-adv-x="1599" 
d="M340 1047l-2 2l18 108h105q168 0 168 105q0 37 -26.5 64.5t-92.5 27.5t-119 -24.5t-67 -82.5h-119q19 107 109 160t202 53q103 0 173.5 -46.5t70.5 -135.5q0 -64 -38 -115.5t-97 -66.5q47 -13 72.5 -50t25.5 -81q0 -68 -30.5 -118.5t-81.5 -77.5t-107.5 -39.5
t-118.5 -12.5q-53 0 -99 12t-82.5 36.5t-53.5 69t-7 103.5h127q-7 -56 33.5 -80t112.5 -24q74 0 124 33.5t50 86.5q0 36 -33.5 64.5t-103.5 28.5h-113zM272 -4l1031 1450h153l-1028 -1450h-156zM1464 741l-82 -469h86l-22 -120h-86l-25 -148h-131l25 148h-393l12 110
l438 479h178zM1251 272l60 340l-314 -340h254z" />
    <glyph glyph-name="questiondown" unicode="&#xbf;" horiz-adv-x="1218" 
d="M879 -6h168q-15 -89 -57 -161.5t-100 -120t-132.5 -80t-152 -46.5t-161.5 -14q-77 0 -145.5 11.5t-131 38t-107 66.5t-71 101t-26.5 137q0 63 12.5 117t30.5 92.5t49 73t57.5 56t68 43.5t68 33t69.5 27.5t61 24.5q113 40 154.5 93t66.5 190h178q-17 -102 -45.5 -172.5
t-73.5 -118t-98 -77.5t-133 -56q-39 -15 -60 -23t-56.5 -25t-55.5 -31.5t-45.5 -38.5t-39 -50t-23 -62t-9.5 -77q0 -53 19 -93t50 -63.5t77 -38t92.5 -19.5t103.5 -5q64 0 126 14.5t119.5 44.5t98.5 84t54 125zM829 911q-9 -74 -71 -104t-117 0t-47 104q10 75 77 105
q59 26 110 -1q57 -30 48 -104z" />
    <glyph glyph-name="Agrave" unicode="&#xc0;" horiz-adv-x="1560" 
d="M831 1434h201l391 -1434h-180l-88 315h-825l-195 -315h-198zM1114 479l-205 787l-481 -787h686zM858 1552l-153 265v6h194l109 -260l-2 -11h-148z" />
    <glyph glyph-name="Aacute" unicode="&#xc1;" horiz-adv-x="1560" 
d="M831 1434h201l391 -1434h-180l-88 315h-825l-195 -315h-198zM1114 479l-205 787l-481 -787h686zM854 1542l2 10l178 260h207v-6l-233 -264h-154z" />
    <glyph glyph-name="Acircumflex" unicode="&#xc2;" horiz-adv-x="1560" 
d="M831 1434h201l391 -1434h-180l-88 315h-825l-195 -315h-198zM1114 479l-205 787l-481 -787h686zM944 1821h109l245 -275l-2 -14h-168l-147 162l-203 -162h-180l2 14z" />
    <glyph glyph-name="Atilde" unicode="&#xc3;" horiz-adv-x="1560" 
d="M831 1434h201l391 -1434h-180l-88 315h-825l-195 -315h-198zM1114 479l-205 787l-481 -787h686zM750 1550l-103 56q40 93 116 134t157 11q20 -7 48.5 -23t48 -25t43 -13t45 11t42.5 50l102 -47q-41 -101 -115 -138.5t-145 -6.5q-13 3 -54.5 27t-49.5 26q-30 15 -69.5 0.5
t-65.5 -62.5z" />
    <glyph glyph-name="Adieresis" unicode="&#xc4;" horiz-adv-x="1560" 
d="M831 1434h201l391 -1434h-180l-88 315h-825l-195 -315h-198zM1114 479l-205 787l-481 -787h686zM616 1640q14 71 80 98q60 24 107 -3q49 -30 37 -97q-15 -71 -82 -98q-59 -24 -105 3q-50 29 -37 97zM1100 1640q14 70 79 98q58 24 106 -2q51 -29 38 -98q-15 -70 -80 -98
q-59 -24 -106 3q-50 29 -37 97z" />
    <glyph glyph-name="Aring" unicode="&#xc5;" horiz-adv-x="1560" 
d="M825 1421q-102 44 -102 164q0 80 43.5 140.5t107 89t134.5 28.5q85 0 145.5 -49t60.5 -137q0 -86 -50 -148t-130 -88l389 -1421h-178l-92 328h-821l-203 -328h-192zM985 1737h4q-80 0 -121 -65q-35 -54 -16 -106q21 -57 94 -57q83 0 124 65q34 53 14 105q-22 58 -99 58z
M1118 485l-203 801l-483 -801h686z" />
    <glyph glyph-name="AE" unicode="&#xc6;" horiz-adv-x="1896" 
d="M1010 1434h903l-27 -160h-680l-84 -471h647l-26 -162h-647l-86 -477h698l-29 -164h-868l72 410h-486l-319 -410h-209zM911 571l93 523l28 143l-506 -666h385z" />
    <glyph glyph-name="Ccedilla" unicode="&#xc7;" horiz-adv-x="1449" 
d="M586 -176l65 158q-107 9 -195.5 42t-150 83.5t-106.5 117.5t-65 144.5t-25.5 164t12.5 175.5q19 116 64.5 223.5t121.5 203t174.5 166.5t232 112.5t285.5 41.5q309 0 488 -215l-131 -102q-128 153 -383 153q-142 0 -262.5 -48.5t-203 -131t-135.5 -185t-73 -216.5
q-14 -73 -10.5 -143t18.5 -132.5t52 -115.5t89 -91.5t131.5 -60t178.5 -21.5q113 0 233.5 43.5t214.5 122.5l103 -123q-233 -197 -533 -210l-35 -84q51 1 88.5 -12.5t57.5 -35.5t28 -51t5 -59.5t-15 -61.5q-34 -82 -109.5 -124.5t-162.5 -40.5q-73 2 -130 32t-81 88l88 68
q41 -72 139 -72q42 0 81.5 20.5t53.5 57.5q24 61 -27.5 92t-142.5 0z" />
    <glyph glyph-name="Egrave" unicode="&#xc8;" horiz-adv-x="1337" 
d="M86 0l252 1434h1008l-29 -160h-832l-77 -453h796l-28 -164h-797l-86 -491h864l-31 -166h-1040zM846 1546l-154 264v7h195l108 -261l-2 -10h-147z" />
    <glyph glyph-name="Eacute" unicode="&#xc9;" horiz-adv-x="1337" 
d="M86 0l252 1434h1008l-29 -160h-832l-77 -453h796l-28 -164h-797l-86 -491h864l-31 -166h-1040zM766 1540l2 10l178 260h207v-6l-233 -264h-154z" />
    <glyph glyph-name="Ecircumflex" unicode="&#xca;" horiz-adv-x="1337" 
d="M86 0l252 1434h1008l-29 -160h-832l-77 -453h796l-28 -164h-797l-86 -491h864l-31 -166h-1040zM874 1835h109l246 -274l-2 -15h-168l-148 162l-202 -162h-181l2 15z" />
    <glyph glyph-name="Edieresis" unicode="&#xcb;" horiz-adv-x="1337" 
d="M86 0l252 1434h1008l-29 -160h-832l-77 -453h796l-28 -164h-797l-86 -491h864l-31 -166h-1040zM557 1667q14 70 79 98q58 24 106 -2q51 -29 38 -98q-15 -70 -80 -98q-59 -24 -106 3q-50 29 -37 97zM1040 1667q14 71 80 98q60 24 107 -3q49 -30 37 -97q-15 -71 -82 -98
q-59 -24 -105 3q-50 29 -37 97z" />
    <glyph glyph-name="Igrave" unicode="&#xcc;" horiz-adv-x="561" 
d="M86 0l252 1434h178l-252 -1434h-178zM367 1544l-146 266v7h185l102 -263l-2 -10h-139z" />
    <glyph glyph-name="Iacute" unicode="&#xcd;" horiz-adv-x="561" 
d="M86 0l252 1434h178l-252 -1434h-178zM356 1542l2 10l179 260h206v-6l-233 -264h-154z" />
    <glyph glyph-name="Icircumflex" unicode="&#xce;" horiz-adv-x="561" 
d="M86 0l252 1434h178l-252 -1434h-178zM449 1833h108l246 -274l-2 -15h-168l-148 162l-202 -162h-181l2 15z" />
    <glyph glyph-name="Idieresis" unicode="&#xcf;" horiz-adv-x="561" 
d="M135 1640q14 70 79 98q58 24 106 -2q51 -29 38 -98q-15 -70 -80 -98q-59 -24 -106 3q-50 29 -37 97zM557 1640q14 70 79 98q58 24 106 -2q51 -29 38 -98q-15 -70 -80 -98q-59 -24 -106 3q-50 29 -37 97zM86 0l252 1434h178l-252 -1434h-178z" />
    <glyph glyph-name="Eth" unicode="&#xd0;" horiz-adv-x="1550" 
d="M84 780h152l114 654h504q156 0 277.5 -47.5t196 -130t113 -187t38.5 -225.5q0 -102 -25.5 -203.5t-74 -195.5t-124.5 -175t-170.5 -141.5t-219 -94.5t-263.5 -34h-504l111 627h-152zM633 170q138 0 255 46t197 125t131 179.5t70 214.5q14 73 10 141t-20.5 127.5
t-54.5 108.5t-91 84t-131 54.5t-174 19.5h-325l-86 -490h307l-27 -153h-307l-80 -457h326z" />
    <glyph glyph-name="Ntilde" unicode="&#xd1;" horiz-adv-x="1560" 
d="M338 1434h123l684 -1115l194 1115h177l-254 -1434h-121l-684 1102l-197 -1102h-176zM723 1534l-102 55q40 93 115.5 134.5t156.5 11.5q20 -7 48.5 -23t48 -25t43 -13t45 11t42.5 50l103 -47q-41 -101 -115 -139t-145 -7q-13 3 -55 27t-50 26q-23 7 -46 6.5t-47 -18
t-42 -49.5z" />
    <glyph glyph-name="Ograve" unicode="&#xd2;" horiz-adv-x="1660" 
d="M987 1458q100 0 187 -21.5t152.5 -60t117.5 -92.5t83.5 -119t50.5 -139t17.5 -152.5t-14.5 -160.5q-21 -114 -67.5 -221t-122.5 -202t-172.5 -166t-224.5 -112t-271 -41q-160 0 -281 50.5t-191.5 138t-105 195.5t-34.5 233q0 139 41.5 270t119.5 239t184 189.5t243 126.5
t288 45zM1401 713q17 73 14.5 144.5t-16 136.5t-50 120.5t-86.5 96.5t-125 64t-167 23q-123 0 -231.5 -38t-189 -103.5t-140 -152.5t-90.5 -187t-33 -205q-1 -76 12.5 -144t47.5 -130t85 -106.5t130 -70.5t179 -26q136 0 253.5 50t198.5 133.5t134 184.5t74 210zM930 1567
l-154 264v6h195l108 -260l-2 -10h-147z" />
    <glyph glyph-name="Oacute" unicode="&#xd3;" horiz-adv-x="1660" 
d="M987 1458q100 0 187 -21.5t152.5 -60t117.5 -92.5t83.5 -119t50.5 -139t17.5 -152.5t-14.5 -160.5q-21 -114 -67.5 -221t-122.5 -202t-172.5 -166t-224.5 -112t-271 -41q-160 0 -281 50.5t-191.5 138t-105 195.5t-34.5 233q0 139 41.5 270t119.5 239t184 189.5t243 126.5
t288 45zM1401 713q17 73 14.5 144.5t-16 136.5t-50 120.5t-86.5 96.5t-125 64t-167 23q-123 0 -231.5 -38t-189 -103.5t-140 -152.5t-90.5 -187t-33 -205q-1 -76 12.5 -144t47.5 -130t85 -106.5t130 -70.5t179 -26q136 0 253.5 50t198.5 133.5t134 184.5t74 210zM897 1565
l2 10l178 260h207v-6l-233 -264h-154z" />
    <glyph glyph-name="Ocircumflex" unicode="&#xd4;" horiz-adv-x="1660" 
d="M987 1458q100 0 187 -21.5t152.5 -60t117.5 -92.5t83.5 -119t50.5 -139t17.5 -152.5t-14.5 -160.5q-21 -114 -67.5 -221t-122.5 -202t-172.5 -166t-224.5 -112t-271 -41q-160 0 -281 50.5t-191.5 138t-105 195.5t-34.5 233q0 139 41.5 270t119.5 239t184 189.5t243 126.5
t288 45zM1401 713q17 73 14.5 144.5t-16 136.5t-50 120.5t-86.5 96.5t-125 64t-167 23q-123 0 -231.5 -38t-189 -103.5t-140 -152.5t-90.5 -187t-33 -205q-1 -76 12.5 -144t47.5 -130t85 -106.5t130 -70.5t179 -26q136 0 253.5 50t198.5 133.5t134 184.5t74 210zM993 1860
h109l246 -275l-2 -14h-168l-148 162l-203 -162h-180l2 14z" />
    <glyph glyph-name="Otilde" unicode="&#xd5;" horiz-adv-x="1660" 
d="M987 1458q100 0 187 -21.5t152.5 -60t117.5 -92.5t83.5 -119t50.5 -139t17.5 -152.5t-14.5 -160.5q-21 -114 -67.5 -221t-122.5 -202t-172.5 -166t-224.5 -112t-271 -41q-160 0 -281 50.5t-191.5 138t-105 195.5t-34.5 233q0 139 41.5 270t119.5 239t184 189.5t243 126.5
t288 45zM1401 713q17 73 14.5 144.5t-16 136.5t-50 120.5t-86.5 96.5t-125 64t-167 23q-123 0 -231.5 -38t-189 -103.5t-140 -152.5t-90.5 -187t-33 -205q-1 -76 12.5 -144t47.5 -130t85 -106.5t130 -70.5t179 -26q136 0 253.5 50t198.5 133.5t134 184.5t74 210zM803 1581
l-103 55q40 93 116 134.5t157 11.5q20 -7 48.5 -23t48 -25t43 -13t45 11t42.5 50l103 -47q-41 -101 -115.5 -139t-145.5 -7q-13 3 -54.5 27t-49.5 26q-23 7 -46 6.5t-47 -18t-42 -49.5z" />
    <glyph glyph-name="Odieresis" unicode="&#xd6;" horiz-adv-x="1660" 
d="M987 1458q100 0 187 -21.5t152.5 -60t117.5 -92.5t83.5 -119t50.5 -139t17.5 -152.5t-14.5 -160.5q-21 -114 -67.5 -221t-122.5 -202t-172.5 -166t-224.5 -112t-271 -41q-160 0 -281 50.5t-191.5 138t-105 195.5t-34.5 233q0 139 41.5 270t119.5 239t184 189.5t243 126.5
t288 45zM1401 713q17 73 14.5 144.5t-16 136.5t-50 120.5t-86.5 96.5t-125 64t-167 23q-123 0 -231.5 -38t-189 -103.5t-140 -152.5t-90.5 -187t-33 -205q-1 -76 12.5 -144t47.5 -130t85 -106.5t130 -70.5t179 -26q136 0 253.5 50t198.5 133.5t134 184.5t74 210zM676 1675
q14 70 79 98q58 24 106 -2q51 -29 38 -98q-15 -70 -80 -98q-59 -24 -106 3q-50 29 -37 97zM1159 1675q14 70 79 98q58 24 106 -2q51 -29 38 -98q-15 -70 -80 -98q-59 -24 -106 3q-50 29 -37 97z" />
    <glyph glyph-name="multiply" unicode="&#xd7;" horiz-adv-x="946" 
d="M313 991l185 -227l268 227l94 -110l-272 -234l188 -229l-123 -103l-186 230l-272 -234l-97 113l275 233l-189 228z" />
    <glyph glyph-name="Oslash" unicode="&#xd8;" horiz-adv-x="1660" 
d="M311 100v2q-97 79 -147.5 209.5t-50.5 278.5q0 128 37 253t111 236.5t177 196.5t245 134.5t304 49.5q175 0 305 -65l127 168h180l-188 -244q118 -103 160.5 -263.5t9.5 -342.5q-21 -114 -67.5 -221t-122 -202t-171.5 -166t-224 -112t-271 -41q-167 0 -295 56l-137 -183
h-176zM1186 1255q-82 39 -225 39q-137 0 -254.5 -49t-198 -131.5t-132 -185t-69.5 -215.5q-24 -137 4 -262t111 -201zM541 170q69 -27 217 -27q125 0 233.5 39.5t185 105.5t131 153t81 181.5t26.5 190.5q0 108 -27 205t-85 156z" />
    <glyph glyph-name="Ugrave" unicode="&#xd9;" horiz-adv-x="1517" 
d="M1489 1434l2 -2l-152 -861q-26 -145 -91 -260t-157.5 -188.5t-204 -111.5t-235.5 -38q-93 0 -174 23.5t-147.5 71.5t-109 119.5t-57.5 167.5t7 216l152 861h176l-152 -861q-37 -208 51.5 -321t268.5 -113q193 0 327 114.5t170 321.5l152 861h174zM874 1542l-153 264v6
h194l109 -260l-2 -10h-148z" />
    <glyph glyph-name="Uacute" unicode="&#xda;" horiz-adv-x="1517" 
d="M1489 1434l2 -2l-152 -861q-26 -145 -91 -260t-157.5 -188.5t-204 -111.5t-235.5 -38q-93 0 -174 23.5t-147.5 71.5t-109 119.5t-57.5 167.5t7 216l152 861h176l-152 -861q-37 -208 51.5 -321t268.5 -113q193 0 327 114.5t170 321.5l152 861h174zM801 1536l2 10l178 260
h207v-6l-234 -264h-153z" />
    <glyph glyph-name="Ucircumflex" unicode="&#xdb;" horiz-adv-x="1517" 
d="M1489 1434l2 -2l-152 -861q-26 -145 -91 -260t-157.5 -188.5t-204 -111.5t-235.5 -38q-93 0 -174 23.5t-147.5 71.5t-109 119.5t-57.5 167.5t7 216l152 861h176l-152 -861q-37 -208 51.5 -321t268.5 -113q193 0 327 114.5t170 321.5l152 861h174zM920 1845h108l246 -274
l-2 -15h-168l-148 162l-202 -162h-181l2 15z" />
    <glyph glyph-name="Udieresis" unicode="&#xdc;" horiz-adv-x="1517" 
d="M1489 1434l2 -2l-152 -861q-26 -145 -91 -260t-157.5 -188.5t-204 -111.5t-235.5 -38q-93 0 -174 23.5t-147.5 71.5t-109 119.5t-57.5 167.5t7 216l152 861h176l-152 -861q-37 -208 51.5 -321t268.5 -113q193 0 327 114.5t170 321.5l152 861h174zM600 1655q14 70 79 98
q58 24 106 -2q51 -29 38 -98q-15 -70 -80 -98q-59 -24 -106 3q-50 29 -37 97zM1083 1655q14 71 80 98q60 24 107 -3q49 -30 37 -97q-15 -71 -82 -98q-59 -24 -105 3q-50 29 -37 97z" />
    <glyph glyph-name="Yacute" unicode="&#xdd;" horiz-adv-x="1388" 
d="M590 586l-408 841l2 7h197l319 -689l574 689h213l-2 -7l-711 -841l-106 -586h-185zM713 1536l2 10l178 260h207v-6l-234 -264h-153z" />
    <glyph glyph-name="Thorn" unicode="&#xde;" horiz-adv-x="1400" 
d="M86 0h2l252 1432h176l-43 -242h473q221 0 333 -146q93 -122 78 -296q-16 -176 -133 -312q-144 -167 -375 -190l-71 -4h-471l-43 -242h-178zM809 406q168 0 277 123q88 100 97 229q8 131 -72 207q-70 67 -191 67h-471l-111 -626h471z" />
    <glyph glyph-name="germandbls" unicode="&#xdf;" horiz-adv-x="1257" 
d="M233 1057v2q22 129 105.5 222t191.5 135t228 42q112 0 199.5 -33t142.5 -106.5t55 -179.5q0 -127 -77 -220.5t-201 -121.5q130 -30 196 -119t66 -193q0 -131 -44 -232t-120 -161.5t-175 -90.5t-212 -24.5t-228 41.5l27 154q109 -45 216 -44.5t186.5 39.5t128.5 114
t49 172q0 70 -29 122t-79 80.5t-108 42t-126 13.5h-140l29 155h131q50 0 100.5 11t100.5 34t86 67t47 103q6 46 3 80t-22.5 58.5t-42 40t-55.5 24.5t-63.5 12.5t-65.5 3.5q-137 0 -218 -64.5t-107 -178.5l-185 -1057h-176z" />
    <glyph glyph-name="agrave" unicode="&#xe0;" horiz-adv-x="1308" 
d="M887 0l-6 -4l34 184q-67 -103 -183 -154t-232 -51q-193 0 -313.5 119t-120.5 320q0 138 51.5 255t137.5 194t198 120t235 43q118 0 210.5 -52t129.5 -147l37 185h162l-178 -1012h-162zM668 872q-115 -1 -213.5 -52t-161 -151.5t-62.5 -230.5q0 -145 74.5 -227t222.5 -82
q189 0 317 137q103 112 122 260q18 150 -61 247q-80 99 -238 99zM682 1163l-152 264v7h191l106 -260l-2 -11h-143z" />
    <glyph glyph-name="aacute" unicode="&#xe1;" horiz-adv-x="1308" 
d="M887 0l-6 -4l34 184q-67 -103 -183 -154t-232 -51q-193 0 -313.5 119t-120.5 320q0 138 51.5 255t137.5 194t198 120t235 43q118 0 210.5 -52t129.5 -147l37 185h162l-178 -1012h-162zM668 872q-115 -1 -213.5 -52t-161 -151.5t-62.5 -230.5q0 -145 74.5 -227t222.5 -82
q189 0 317 137q103 112 122 260q18 150 -61 247q-80 99 -238 99zM606 1163l2 11l178 260h207v-7l-233 -264h-154z" />
    <glyph glyph-name="acircumflex" unicode="&#xe2;" horiz-adv-x="1308" 
d="M887 0l-6 -4l34 184q-67 -103 -183 -154t-232 -51q-193 0 -313.5 119t-120.5 320q0 138 51.5 255t137.5 194t198 120t235 43q118 0 210.5 -52t129.5 -147l37 185h162l-178 -1012h-162zM668 872q-115 -1 -213.5 -52t-161 -151.5t-62.5 -230.5q0 -145 74.5 -227t222.5 -82
q189 0 317 137q103 112 122 260q18 150 -61 247q-80 99 -238 99zM772 1448h109l245 -274l-2 -15h-168l-147 162l-203 -162h-180l2 15z" />
    <glyph glyph-name="atilde" unicode="&#xe3;" horiz-adv-x="1308" 
d="M887 0l-6 -4l34 184q-67 -103 -183 -154t-232 -51q-193 0 -313.5 119t-120.5 320q0 138 51.5 255t137.5 194t198 120t235 43q118 0 210.5 -52t129.5 -147l37 185h162l-178 -1012h-162zM668 872q-115 -1 -213.5 -52t-161 -151.5t-62.5 -230.5q0 -145 74.5 -227t222.5 -82
q189 0 317 137q103 112 122 260q18 150 -61 247q-80 99 -238 99zM549 1214l-103 56q40 93 116 134t157 11q20 -7 48.5 -23t48 -25t43 -13t45 11t42.5 50l103 -47q-41 -101 -115.5 -138.5t-145.5 -6.5q-13 3 -54.5 27t-49.5 26q-30 15 -69.5 0.5t-65.5 -62.5z" />
    <glyph glyph-name="adieresis" unicode="&#xe4;" horiz-adv-x="1308" 
d="M440 1337q14 70 79 97q57 24 103 -3q50 -29 37 -96q-15 -70 -80 -97q-58 -24 -104 3q-48 29 -35 96zM887 1337q14 70 79 97q57 24 103 -3q50 -29 37 -96q-15 -70 -80 -97q-58 -24 -104 3q-48 29 -35 96zM887 0l-6 -4l34 184q-67 -103 -183 -154t-232 -51
q-193 0 -313.5 119t-120.5 320q0 138 51.5 255t137.5 194t198 120t235 43q118 0 210.5 -52t129.5 -147l37 185h162l-178 -1012h-162zM668 872q-115 -1 -213.5 -52t-161 -151.5t-62.5 -230.5q0 -145 74.5 -227t222.5 -82q189 0 317 137q103 112 122 260q18 150 -61 247
q-80 99 -238 99z" />
    <glyph glyph-name="aring" unicode="&#xe5;" horiz-adv-x="1308" 
d="M887 0l-6 -4l34 184q-67 -103 -183 -154t-232 -51q-193 0 -313.5 119t-120.5 320q0 138 51.5 255t137.5 194t198 120t235 43q118 0 210.5 -52t129.5 -147l37 185h162l-178 -1012h-162zM668 872q-115 -1 -213.5 -52t-161 -151.5t-62.5 -230.5q0 -145 74.5 -227t222.5 -82
q189 0 317 137q103 112 122 260q18 150 -61 247q-80 99 -238 99zM532 1331q18 96 95 149.5t170 53.5q81 0 138.5 -45.5t57.5 -126.5q0 -109 -81.5 -173.5t-190.5 -64.5q-37 0 -74 13t-66.5 37.5t-44 65.5t-4.5 91zM778 1434q-76 0 -115 -60q-33 -51 -14 -98q21 -51 90 -51
q80 0 120 60q33 51 12 98q-22 51 -93 51z" />
    <glyph glyph-name="ae" unicode="&#xe6;" horiz-adv-x="2076" 
d="M891 0l33 178q-74 -99 -192 -152t-232 -53q-193 0 -313.5 119t-120.5 320q0 138 51.5 255t137.5 194.5t197.5 121t233.5 43.5q118 0 212.5 -53t131.5 -148l35 185h131l-31 -174q82 97 190 146.5t228 47.5q107 -1 196 -39t148.5 -112.5t72 -185t-33.5 -255.5h-858
q-10 -138 76.5 -220.5t234.5 -82.5q91 0 188 34t156 93l92 -102q-88 -87 -214.5 -132.5t-251.5 -45.5q-124 0 -207.5 49t-122.5 139l-35 -170h-133zM1135 575h706q20 145 -57.5 225.5t-227.5 80.5q-137 0 -256 -82.5t-165 -223.5zM668 870q-168 -2 -296.5 -116.5
t-138.5 -290.5q0 -69 18.5 -128.5t54 -107t95 -75t136.5 -27.5q187 0 312 137q102 111 119 260q18 151 -61 248q-82 100 -239 100z" />
    <glyph glyph-name="ccedilla" unicode="&#xe7;" horiz-adv-x="1058" 
d="M825 250l93 -113q-136 -148 -379 -155l-27 -72q59 1 99 -17.5t55.5 -49t15.5 -65.5t-14 -71q-30 -75 -102.5 -113t-155.5 -36q-68 2 -121.5 30.5t-75.5 81.5l82 64q39 -68 131 -68q39 0 75.5 19.5t49.5 54.5q22 56 -24.5 82t-133.5 -2l-26 24l57 146q-161 24 -258.5 135
t-97.5 289q0 190 83.5 331t225.5 213t321 72q212 0 340 -151l-120 -105q-83 98 -244 98q-193 0 -310.5 -117t-123.5 -315q-5 -140 77 -221.5t228 -81.5q147 0 280 113z" />
    <glyph glyph-name="egrave" unicode="&#xe8;" horiz-adv-x="1198" 
d="M887 264l96 -106q-88 -86 -215.5 -131t-253.5 -45q-207 0 -329 118t-122 318q0 172 84.5 313.5t228.5 221t314 79.5q118 0 209 -36t149.5 -109t70.5 -184.5t-27 -262.5h-861q-15 -145 70.5 -225t243.5 -80q90 0 186.5 35t155.5 94zM956 582v-2q33 149 -45.5 226
t-242.5 77q-137 0 -251.5 -79.5t-160.5 -221.5h700zM657 1163l-153 264v7h194l109 -260l-2 -11h-148z" />
    <glyph glyph-name="eacute" unicode="&#xe9;" horiz-adv-x="1198" 
d="M887 264l96 -106q-88 -86 -215.5 -131t-253.5 -45q-207 0 -329 118t-122 318q0 172 84.5 313.5t228.5 221t314 79.5q118 0 209 -36t149.5 -109t70.5 -184.5t-27 -262.5h-861q-15 -145 70.5 -225t243.5 -80q90 0 186.5 35t155.5 94zM956 582v-2q33 149 -45.5 226
t-242.5 77q-137 0 -251.5 -79.5t-160.5 -221.5h700zM602 1163l2 11l178 260h207v-7l-233 -264h-154z" />
    <glyph glyph-name="ecircumflex" unicode="&#xea;" horiz-adv-x="1198" 
d="M887 264l96 -106q-88 -86 -215.5 -131t-253.5 -45q-207 0 -329 118t-122 318q0 172 84.5 313.5t228.5 221t314 79.5q118 0 209 -36t149.5 -109t70.5 -184.5t-27 -262.5h-861q-15 -145 70.5 -225t243.5 -80q90 0 186.5 35t155.5 94zM956 582v-2q33 149 -45.5 226
t-242.5 77q-137 0 -251.5 -79.5t-160.5 -221.5h700zM698 1448h109l246 -274l-2 -15h-168l-148 162l-203 -162h-180l2 15z" />
    <glyph glyph-name="edieresis" unicode="&#xeb;" horiz-adv-x="1198" 
d="M887 264l96 -106q-88 -86 -215.5 -131t-253.5 -45q-207 0 -329 118t-122 318q0 172 84.5 313.5t228.5 221t314 79.5q118 0 209 -36t149.5 -109t70.5 -184.5t-27 -262.5h-861q-15 -145 70.5 -225t243.5 -80q90 0 186.5 35t155.5 94zM956 582v-2q33 149 -45.5 226
t-242.5 77q-137 0 -251.5 -79.5t-160.5 -221.5h700zM395 1333q14 70 79 98q58 24 106 -2q51 -29 38 -98q-15 -70 -80 -98q-59 -24 -106 3q-50 29 -37 97zM879 1333q14 70 79 98q58 24 106 -2q51 -29 38 -98q-15 -70 -80 -98q-59 -24 -106 3q-50 29 -37 97z" />
    <glyph glyph-name="igrave" unicode="&#xec;" horiz-adv-x="481" 
d="M272 1163l-110 264v7h194l66 -260l-2 -11h-148zM397 997l-176 -997h-174l176 997h174z" />
    <glyph glyph-name="iacute" unicode="&#xed;" horiz-adv-x="481" 
d="M236 1163l2 11l151 260h195v-7l-195 -264h-153zM397 997l-176 -997h-174l176 997h174z" />
    <glyph glyph-name="icircumflex" unicode="&#xee;" horiz-adv-x="481" 
d="M328 1444h94l203 -279l-2 -14h-150l-113 160l-163 -160h-158l2 14zM397 997l-176 -997h-174l176 997h174z" />
    <glyph glyph-name="idieresis" unicode="&#xef;" horiz-adv-x="481" 
d="M80 1329q14 68 78 94q57 24 102 -4q46 -28 35 -92q-15 -68 -79 -94q-57 -23 -102 3q-46 29 -34 93zM446 1329q14 69 79 94q57 24 102 -4q45 -29 35 -92q-15 -69 -80 -94q-58 -24 -103 4q-45 29 -33 92zM397 997l-176 -997h-174l176 997h174z" />
    <glyph glyph-name="eth" unicode="&#xf0;" horiz-adv-x="1232" 
d="M516 131q93 0 176 36.5t139 95t89.5 132t35.5 148.5q5 126 -69.5 214.5t-218.5 88.5q-97 0 -181 -37t-139.5 -96.5t-87.5 -133t-35 -149.5q-2 -60 14 -112t49 -95t91.5 -67.5t136.5 -24.5zM627 989q46 3 94 -3.5t97.5 -24.5t94.5 -53t74 -83q-16 104 -86 204.5
t-143 148.5l-94 -101l-80 60l90 100q-70 46 -178 72l51 123q118 -29 231 -91l109 115l80 -63l-103 -109q273 -227 273 -604q0 -317 -177.5 -508.5t-457.5 -191.5q-110 0 -196 35.5t-138.5 96t-79.5 136t-27 160.5q0 102 38.5 200.5t108.5 180.5t179.5 136.5t239.5 63.5z" />
    <glyph glyph-name="ntilde" unicode="&#xf1;" horiz-adv-x="1245" 
d="M223 1010h154l-19 -158q71 89 171 132.5t208 43.5q197 0 298.5 -125.5t62.5 -343.5l-99 -559h-168l99 557q28 154 -37.5 237.5t-214.5 77.5q-136 -1 -240 -95.5t-129 -233.5l-96 -543h-166zM549 1235l-103 55q40 93 116 134.5t157 11.5q20 -7 48.5 -23t48 -25t43 -13
t45 11t42.5 50l103 -47q-41 -101 -115.5 -139t-145.5 -7q-13 3 -54.5 27t-49.5 26q-23 7 -46 6.5t-47 -18t-42 -49.5z" />
    <glyph glyph-name="ograve" unicode="&#xf2;" horiz-adv-x="1230" 
d="M63 418q0 130 50.5 245t135.5 196t200 128t241 47q202 0 322.5 -121.5t120.5 -318.5q0 -173 -85.5 -314t-229 -219.5t-314.5 -78.5q-199 0 -320 121t-121 315zM520 139q176 0 301.5 123t143.5 303q12 141 -69 228.5t-220 87.5q-117 0 -218 -56t-162.5 -157.5
t-64.5 -225.5q-5 -135 74.5 -219t214.5 -84zM649 1163l-153 264v7h194l109 -260l-2 -11h-148z" />
    <glyph glyph-name="oacute" unicode="&#xf3;" horiz-adv-x="1230" 
d="M63 418q0 130 50.5 245t135.5 196t200 128t241 47q202 0 322.5 -121.5t120.5 -318.5q0 -173 -85.5 -314t-229 -219.5t-314.5 -78.5q-199 0 -320 121t-121 315zM520 139q176 0 301.5 123t143.5 303q12 141 -69 228.5t-220 87.5q-117 0 -218 -56t-162.5 -157.5
t-64.5 -225.5q-5 -135 74.5 -219t214.5 -84zM608 1163l2 11l178 260h207v-7l-233 -264h-154z" />
    <glyph glyph-name="ocircumflex" unicode="&#xf4;" horiz-adv-x="1230" 
d="M63 418q0 130 50.5 245t135.5 196t200 128t241 47q202 0 322.5 -121.5t120.5 -318.5q0 -173 -85.5 -314t-229 -219.5t-314.5 -78.5q-199 0 -320 121t-121 315zM520 139q176 0 301.5 123t143.5 303q12 141 -69 228.5t-220 87.5q-117 0 -218 -56t-162.5 -157.5
t-64.5 -225.5q-5 -135 74.5 -219t214.5 -84zM727 1448h109l245 -274l-2 -15h-168l-147 162l-203 -162h-180l2 15z" />
    <glyph glyph-name="otilde" unicode="&#xf5;" horiz-adv-x="1230" 
d="M63 418q0 130 50.5 245t135.5 196t200 128t241 47q202 0 322.5 -121.5t120.5 -318.5q0 -173 -85.5 -314t-229 -219.5t-314.5 -78.5q-199 0 -320 121t-121 315zM520 139q176 0 301.5 123t143.5 303q12 141 -69 228.5t-220 87.5q-117 0 -218 -56t-162.5 -157.5
t-64.5 -225.5q-5 -135 74.5 -219t214.5 -84zM545 1223l-103 55q40 93 116 134t157 11q20 -7 48.5 -23t48 -25t43 -13t45 11t42.5 50l102 -47q-41 -101 -115 -138.5t-145 -6.5q-13 3 -54.5 27t-49.5 26q-23 7 -46 6.5t-47 -18t-42 -49.5z" />
    <glyph glyph-name="odieresis" unicode="&#xf6;" horiz-adv-x="1230" 
d="M63 418q0 130 50.5 245t135.5 196t200 128t241 47q202 0 322.5 -121.5t120.5 -318.5q0 -173 -85.5 -314t-229 -219.5t-314.5 -78.5q-199 0 -320 121t-121 315zM520 139q176 0 301.5 123t143.5 303q12 141 -69 228.5t-220 87.5q-117 0 -218 -56t-162.5 -157.5
t-64.5 -225.5q-5 -135 74.5 -219t214.5 -84zM432 1337q14 70 79 98q58 24 106 -2q51 -29 38 -98q-15 -70 -80 -98q-59 -24 -106 3q-50 29 -37 97zM915 1337q14 71 80 98q60 24 107 -3q49 -30 37 -97q-15 -71 -82 -98q-59 -24 -105 3q-50 29 -37 97z" />
    <glyph glyph-name="divide" unicode="&#xf7;" horiz-adv-x="1148" 
d="M133 584h868l29 155h-868zM412 299q14 70 79 98q58 24 106 -2q51 -29 38 -98q-15 -70 -80 -98q-59 -24 -106 3q-50 29 -37 97zM553 995q14 70 79 98q58 24 106 -2q51 -29 38 -98q-15 -70 -80 -98q-59 -24 -106 3q-50 29 -37 97z" />
    <glyph glyph-name="oslash" unicode="&#xf8;" horiz-adv-x="1218" 
d="M199 92q-64 55 -100 139t-36 185q0 129 49.5 243.5t133 195.5t198 128t240.5 47q105 0 197 -47l104 133h164l-158 -203q61 -56 95 -140t34 -183q0 -171 -83 -311t-225 -218.5t-312 -78.5q-95 0 -193 43l-110 -146h-162zM782 850l4 2q-62 27 -127 27q-114 0 -213 -59.5
t-157 -161.5t-58 -220q0 -139 72 -211zM414 156q49 -21 114 -21q177 0 301.5 125t124.5 305q0 126 -65 207z" />
    <glyph glyph-name="ugrave" unicode="&#xf9;" 
d="M831 0h3l26 158q-156 -173 -391 -176q-197 0 -296.5 124.5t-61.5 342.5l98 559h170l-98 -557q-27 -151 30 -232.5t205 -81.5q138 1 249 96t136 232l96 543h168l-178 -1008h-156zM664 1163l-154 264v7h195l108 -260l-2 -11h-147z" />
    <glyph glyph-name="uacute" unicode="&#xfa;" 
d="M831 0h3l26 158q-156 -173 -391 -176q-197 0 -296.5 124.5t-61.5 342.5l98 559h170l-98 -557q-27 -151 30 -232.5t205 -81.5q138 1 249 96t136 232l96 543h168l-178 -1008h-156zM596 1163l2 11l178 260h207v-7l-233 -264h-154z" />
    <glyph glyph-name="ucircumflex" unicode="&#xfb;" 
d="M831 0h3l26 158q-156 -173 -391 -176q-197 0 -296.5 124.5t-61.5 342.5l98 559h170l-98 -557q-27 -151 30 -232.5t205 -81.5q138 1 249 96t136 232l96 543h168l-178 -1008h-156zM733 1448h109l245 -274l-2 -15h-167l-148 162l-203 -162h-180l2 15z" />
    <glyph glyph-name="udieresis" unicode="&#xfc;" 
d="M831 0h3l26 158q-156 -173 -391 -176q-197 0 -296.5 124.5t-61.5 342.5l98 559h170l-98 -557q-27 -151 30 -232.5t205 -81.5q138 1 249 96t136 232l96 543h168l-178 -1008h-156zM385 1337q14 70 79 98q58 24 106 -2q51 -29 38 -98q-15 -70 -80 -98q-59 -24 -106 3
q-50 29 -37 97zM868 1337q14 71 80 98q60 24 107 -3q49 -30 37 -97q-15 -71 -82 -98q-59 -24 -105 3q-50 29 -37 97z" />
    <glyph glyph-name="yacute" unicode="&#xfd;" horiz-adv-x="1245" 
d="M979 -43q-22 -124 -74 -218t-127 -150.5t-163.5 -84.5t-190.5 -28q-208 0 -312 98t-85 281h159q-13 -117 53.5 -173.5t200.5 -56.5q321 0 379 334l35 201q-146 -173 -385 -176q-197 0 -295.5 125.5t-60.5 343.5l98 555h168l-98 -553q-57 -316 227 -316q138 2 253 98
t140 232l94 539h168zM580 1163l2 11l178 260h207v-7l-234 -264h-153z" />
    <glyph glyph-name="thorn" unicode="&#xfe;" horiz-adv-x="1310" 
d="M-23 -422l-2 -2l322 1858h170l-111 -619q71 98 189.5 155.5t240.5 57.5q191 -5 306.5 -116.5t115.5 -309.5q0 -146 -49.5 -265.5t-134 -197.5t-195 -120t-235.5 -42q-114 0 -207 50t-135 153l-109 -602h-166zM592 139q178 0 308.5 116t139.5 316q6 139 -74.5 216
t-213.5 77q-83 0 -163 -33t-141 -89t-100 -134.5t-43 -163.5q-5 -131 76 -218t211 -87z" />
    <glyph glyph-name="ydieresis" unicode="&#xff;" horiz-adv-x="1245" 
d="M979 -43q-22 -124 -74 -218t-127 -150.5t-163.5 -84.5t-190.5 -28q-208 0 -312 98t-85 281h159q-13 -117 53.5 -173.5t200.5 -56.5q321 0 379 334l35 201q-146 -173 -385 -176q-197 0 -295.5 125.5t-60.5 343.5l98 555h168l-98 -553q-57 -316 227 -316q138 2 253 98
t140 232l94 539h168zM395 1337q14 70 79 98q58 24 106 -2q51 -29 38 -98q-15 -70 -80 -98q-59 -24 -106 3q-50 29 -37 97zM879 1337q14 70 79 98q58 24 106 -2q51 -29 38 -98q-15 -70 -80 -98q-59 -24 -106 3q-50 29 -37 97z" />
    <glyph glyph-name="Amacron" unicode="&#x100;" horiz-adv-x="1560" 
d="M641 1716h684l-25 -145h-684zM831 1434h201l391 -1434h-180l-88 315h-825l-195 -315h-198zM1114 479l-205 787l-481 -787h686z" />
    <glyph glyph-name="amacron" unicode="&#x101;" horiz-adv-x="1308" 
d="M487 1407h684l-26 -145h-684zM887 0l-6 -4l34 184q-67 -103 -183 -154t-232 -51q-193 0 -313.5 119t-120.5 320q0 138 51.5 255t137.5 194t198 120t235 43q118 0 210.5 -52t129.5 -147l37 185h162l-178 -1012h-162zM668 872q-115 -1 -213.5 -52t-161 -151.5t-62.5 -230.5
q0 -145 74.5 -227t222.5 -82q189 0 317 137q103 112 122 260q18 150 -61 247q-80 99 -238 99z" />
    <glyph glyph-name="Abreve" unicode="&#x102;" horiz-adv-x="1560" 
d="M1284 1827h-6q-17 -129 -109 -202t-217 -73q-127 0 -194 73.5t-39 201.5h137q-10 -63 19.5 -104.5t103.5 -41.5q72 0 115 42t53 104h137zM831 1434h201l391 -1434h-180l-88 315h-825l-195 -315h-198zM1114 479l-205 787l-481 -787h686z" />
    <glyph glyph-name="abreve" unicode="&#x103;" horiz-adv-x="1308" 
d="M1083 1442h-4q-18 -129 -110.5 -202t-218.5 -73q-128 0 -195 73.5t-37 201.5h137q-12 -63 17 -104.5t104 -41.5q72 0 115 42t55 104h137zM887 0l-6 -4l34 184q-67 -103 -183 -154t-232 -51q-193 0 -313.5 119t-120.5 320q0 138 51.5 255t137.5 194t198 120t235 43
q118 0 210.5 -52t129.5 -147l37 185h162l-178 -1012h-162zM668 872q-115 -1 -213.5 -52t-161 -151.5t-62.5 -230.5q0 -145 74.5 -227t222.5 -82q189 0 317 137q103 112 122 260q18 150 -61 247q-80 99 -238 99z" />
    <glyph glyph-name="Aogonek" unicode="&#x104;" horiz-adv-x="1562" 
d="M1425 -2l-2 -4q-105 10 -174 0q-96 -16 -137 -80q-32 -51 -6 -91q27 -42 102 -38q91 4 162 78l82 -64q-42 -58 -111 -92.5t-143 -42.5q-142 -16 -206 67q-53 68 -28 160q27 98 125 154q55 32 125 43l-59 227h-831l-195 -315h-192l894 1434h201zM1116 469l-211 797
l-487 -797h698z" />
    <glyph glyph-name="aogonek" unicode="&#x105;" horiz-adv-x="1306" 
d="M1034 -78l-4 -4q-97 11 -173.5 -29t-72.5 -106q2 -31 29 -51.5t74 -20.5q39 0 84 20t80 58l82 -63q-46 -64 -119 -100t-148 -38q-99 -3 -160 42t-61 120q0 45 22 90.5t78.5 90.5t139.5 67l24 182q-74 -100 -186 -152.5t-223 -52.5q-193 0 -313.5 119t-120.5 320
q0 138 51.5 255t137.5 194.5t198.5 121t234.5 43.5q117 0 210 -52.5t130 -148.5l35 185h164zM670 870l-2 -2q-84 0 -163 -31.5t-139 -86.5t-96.5 -136.5t-36.5 -175.5q0 -140 85.5 -224.5t220.5 -84.5q189 0 314 136q102 111 120 259q17 149 -62 246q-83 100 -241 100z" />
    <glyph glyph-name="Cacute" unicode="&#x106;" horiz-adv-x="1447" 
d="M903 1583l193 254h202v-6l-245 -258h-152zM1307 190q-125 -105 -272 -159t-298 -54q-106 0 -197 20.5t-158.5 58t-121 89.5t-85.5 115.5t-51 136.5t-18 151.5t13 160.5q19 116 64.5 223.5t121.5 203t174.5 166.5t232 112.5t285.5 41.5q309 0 488 -215l-131 -102
q-128 153 -383 153q-142 0 -262.5 -48.5t-203 -131t-135.5 -185t-73 -216.5q-14 -73 -10.5 -143t18.5 -132.5t52 -115.5t89 -91.5t131.5 -60t178.5 -21.5q113 0 233.5 43.5t214.5 122.5z" />
    <glyph glyph-name="cacute" unicode="&#x107;" horiz-adv-x="1058" 
d="M606 1208l176 226h191v-4l-217 -232h-150v10zM825 250l93 -113q-144 -155 -404 -155q-197 0 -321.5 115t-124.5 317q0 190 83.5 331t225.5 213t321 72q212 0 340 -151l-120 -105q-83 98 -244 98q-193 0 -310.5 -117t-123.5 -315q-5 -140 77 -221.5t228 -81.5
q147 0 280 113z" />
    <glyph glyph-name="Ccircumflex" unicode="&#x108;" horiz-adv-x="1447" 
d="M995 1849h107l241 -270l-2 -12h-172l-145 157l-199 -157h-172l2 12zM1307 190q-125 -105 -272 -159t-298 -54q-106 0 -197 20.5t-158.5 58t-121 89.5t-85.5 115.5t-51 136.5t-18 151.5t13 160.5q19 116 64.5 223.5t121.5 203t174.5 166.5t232 112.5t285.5 41.5
q309 0 488 -215l-131 -102q-128 153 -383 153q-142 0 -262.5 -48.5t-203 -131t-135.5 -185t-73 -216.5q-14 -73 -10.5 -143t18.5 -132.5t52 -115.5t89 -91.5t131.5 -60t178.5 -21.5q113 0 233.5 43.5t214.5 122.5z" />
    <glyph glyph-name="ccircumflex" unicode="&#x109;" horiz-adv-x="1058" 
d="M686 1446h102l234 -262l-2 -13h-166l-133 150l-180 -150h-185l2 13zM825 250l93 -113q-144 -155 -404 -155q-197 0 -321.5 115t-124.5 317q0 190 83.5 331t225.5 213t321 72q212 0 340 -151l-120 -105q-83 98 -244 98q-193 0 -310.5 -117t-123.5 -315q-5 -140 77 -221.5
t228 -81.5q147 0 280 113z" />
    <glyph glyph-name="Cdotaccent" unicode="&#x10a;" horiz-adv-x="1447" 
d="M915 1692q14 68 81 95q61 24 111 -2q53 -28 40 -95q-16 -67 -84 -94q-62 -24 -111 3q-51 28 -37 93zM1307 190q-125 -105 -272 -159t-298 -54q-106 0 -197 20.5t-158.5 58t-121 89.5t-85.5 115.5t-51 136.5t-18 151.5t13 160.5q19 116 64.5 223.5t121.5 203t174.5 166.5
t232 112.5t285.5 41.5q309 0 488 -215l-131 -102q-128 153 -383 153q-142 0 -262.5 -48.5t-203 -131t-135.5 -185t-73 -216.5q-14 -73 -10.5 -143t18.5 -132.5t52 -115.5t89 -91.5t131.5 -60t178.5 -21.5q113 0 233.5 43.5t214.5 122.5z" />
    <glyph glyph-name="cdotaccent" unicode="&#x10b;" horiz-adv-x="1058" 
d="M825 250l93 -113q-144 -155 -404 -155q-197 0 -321.5 115t-124.5 317q0 190 83.5 331t225.5 213t321 72q212 0 340 -151l-120 -105q-83 98 -244 98q-193 0 -310.5 -117t-123.5 -315q-5 -140 77 -221.5t228 -81.5q147 0 280 113zM610 1307q14 71 80 98q60 24 107 -3
q49 -30 37 -97q-15 -71 -82 -98q-59 -24 -105 3q-50 29 -37 97z" />
    <glyph glyph-name="Ccaron" unicode="&#x10c;" horiz-adv-x="1447" 
d="M711 1847l2 15h170l141 -156l201 156h164l-3 -15l-319 -256h-117zM1307 190q-125 -105 -272 -159t-298 -54q-106 0 -197 20.5t-158.5 58t-121 89.5t-85.5 115.5t-51 136.5t-18 151.5t13 160.5q19 116 64.5 223.5t121.5 203t174.5 166.5t232 112.5t285.5 41.5
q309 0 488 -215l-131 -102q-128 153 -383 153q-142 0 -262.5 -48.5t-203 -131t-135.5 -185t-73 -216.5q-14 -73 -10.5 -143t18.5 -132.5t52 -115.5t89 -91.5t131.5 -60t178.5 -21.5q113 0 233.5 43.5t214.5 122.5z" />
    <glyph glyph-name="ccaron" unicode="&#x10d;" horiz-adv-x="1058" 
d="M428 1421l2 15h160l135 -154l195 154h157l-2 -15l-311 -252h-111zM825 250l93 -113q-144 -155 -404 -155q-197 0 -321.5 115t-124.5 317q0 190 83.5 331t225.5 213t321 72q212 0 340 -151l-120 -105q-83 98 -244 98q-193 0 -310.5 -117t-123.5 -315q-5 -140 77 -221.5
t228 -81.5q147 0 280 113z" />
    <glyph glyph-name="Dcaron" unicode="&#x10e;" horiz-adv-x="1542" 
d="M561 1823l2 14h168l139 -158l203 158h164l-2 -14l-334 -262h-102zM338 1434h524q154 0 273 -48.5t190.5 -131.5t108 -186.5t36.5 -221.5q0 -120 -32.5 -238t-102.5 -228.5t-169 -194.5t-243.5 -134.5t-314.5 -50.5h-522zM639 174q127 0 234.5 39.5t181.5 104t127 149
t79 173.5t29 179t-20.5 168.5t-75.5 143t-145 102t-218 37.5h-346l-192 -1096h346z" />
    <glyph glyph-name="dcaron" unicode="&#x10f;" horiz-adv-x="1302" 
d="M1473 1434h165l-186 -355h-129zM1294 1434l2 2l-252 -1436h-157l31 186q-76 -100 -190 -152t-232 -52q-190 0 -310 115t-120 313q0 143 49.5 262t133.5 196t194.5 119.5t234.5 42.5q113 0 208 -52.5t136 -150.5l106 607h166zM664 874h2q-177 0 -297.5 -116t-130.5 -316
q-7 -147 70 -224t229 -77q112 0 210.5 54t159 153.5t60.5 220.5q0 137 -83 221t-220 84z" />
    <glyph glyph-name="Dcroat" unicode="&#x110;" horiz-adv-x="1552" 
d="M106 797v2h132l112 635h522q155 0 275 -49t191 -133t107 -188.5t36 -223.5q0 -101 -24.5 -201.5t-72 -194.5t-121.5 -174.5t-166.5 -140.5t-215 -94.5t-260.5 -34.5h-523l113 643h-131zM651 178q124 0 231 37.5t182 100.5t129 145t79.5 172t25.5 180q0 73 -13.5 136.5
t-46.5 123t-84 102t-130.5 68t-181.5 25.5h-344l-82 -469h264l-27 -154h-264l-82 -467h344z" />
    <glyph glyph-name="dcroat" unicode="&#x111;" horiz-adv-x="1302" 
d="M1294 1434l2 2l-26 -146h170l-21 -121h-170l-205 -1169h-157l31 186q-76 -100 -190 -152t-232 -52q-190 0 -310 115t-120 313q0 143 49.5 262t133.5 196t194.5 119.5t234.5 42.5q113 0 208 -52.5t136 -150.5l59 342h-188l20 121h191l24 144h166zM967 569
q0 135 -82.5 219.5t-218.5 85.5q-177 0 -297.5 -116t-130.5 -316q-7 -147 70 -224t229 -77q112 0 210.5 54t159 153.5t60.5 220.5z" />
    <glyph glyph-name="Emacron" unicode="&#x112;" horiz-adv-x="1337" 
d="M588 1729h626l-26 -146h-627zM86 0l252 1434h1008l-29 -160h-832l-77 -453h796l-28 -164h-797l-86 -491h864l-31 -166h-1040z" />
    <glyph glyph-name="emacron" unicode="&#x113;" horiz-adv-x="1198" 
d="M471 1368h569l-24 -137h-570zM887 264l96 -106q-88 -86 -215.5 -131t-253.5 -45q-207 0 -329 118t-122 318q0 172 84.5 313.5t228.5 221t314 79.5q118 0 209 -36t149.5 -109t70.5 -184.5t-27 -262.5h-861q-15 -145 70.5 -225t243.5 -80q90 0 186.5 35t155.5 94zM956 582
v-2q33 149 -45.5 226t-242.5 77q-137 0 -251.5 -79.5t-160.5 -221.5h700z" />
    <glyph glyph-name="Ebreve" unicode="&#x114;" horiz-adv-x="1337" 
d="M1231 1847h-2q-17 -125 -110 -195.5t-220 -70.5q-129 0 -196 70.5t-39 195.5h139q-10 -61 19 -101t102 -40q72 0 115 40.5t53 100.5h139zM86 0l252 1434h1008l-29 -160h-832l-77 -453h796l-28 -164h-797l-86 -491h864l-31 -166h-1040z" />
    <glyph glyph-name="ebreve" unicode="&#x115;" horiz-adv-x="1198" 
d="M1047 1440q-17 -125 -109 -195.5t-219 -70.5q-129 0 -197 70.5t-41 195.5h137q-10 -61 19 -101.5t102 -40.5q72 0 115 41t53 103zM887 264l96 -106q-88 -86 -215.5 -131t-253.5 -45q-207 0 -329 118t-122 318q0 172 84.5 313.5t228.5 221t314 79.5q118 0 209 -36
t149.5 -109t70.5 -184.5t-27 -262.5h-861q-15 -145 70.5 -225t243.5 -80q90 0 186.5 35t155.5 94zM956 582v-2q33 149 -45.5 226t-242.5 77q-137 0 -251.5 -79.5t-160.5 -221.5h700z" />
    <glyph glyph-name="Edotaccent" unicode="&#x116;" horiz-adv-x="1337" 
d="M86 0l252 1434h1008l-29 -160h-832l-77 -453h796l-28 -164h-797l-86 -491h864l-31 -166h-1040zM784 1671q14 71 80 98q60 24 107 -3q49 -30 37 -97q-15 -71 -82 -98q-59 -24 -105 3q-50 29 -37 97z" />
    <glyph glyph-name="edotaccent" unicode="&#x117;" horiz-adv-x="1198" 
d="M645 1323q14 69 81 95q60 24 108 -3q50 -28 38 -94q-15 -67 -81 -93q-61 -25 -110 2q-49 29 -36 93zM887 264l96 -106q-88 -86 -215.5 -131t-253.5 -45q-207 0 -329 118t-122 318q0 172 84.5 313.5t228.5 221t314 79.5q118 0 209 -36t149.5 -109t70.5 -184.5t-27 -262.5
h-861q-15 -145 70.5 -225t243.5 -80q90 0 186.5 35t155.5 94zM956 582v-2q33 149 -45.5 226t-242.5 77q-137 0 -251.5 -79.5t-160.5 -221.5h700z" />
    <glyph glyph-name="Eogonek" unicode="&#x118;" horiz-adv-x="1337" 
d="M1126 0l7 2q-141 1 -222.5 -50t-74.5 -106q3 -27 27.5 -45t64.5 -18q43 0 91 19.5t85 58.5l86 -64q-48 -67 -129 -108.5t-160 -44.5q-96 -3 -156 38t-61 111q-1 35 10 70t45.5 73.5t89.5 63.5h-743l252 1434h1010l-29 -164h-834l-77 -449h798l-28 -164h-799l-88 -495h864
z" />
    <glyph glyph-name="eogonek" unicode="&#x119;" horiz-adv-x="1196" 
d="M991 -168l-4 4q-46 -64 -121.5 -102t-152.5 -41q-84 -3 -142 27.5t-71 86.5q-12 43 1.5 94t47.5 89q-24 -4 -45 -4q-204 5 -323.5 117t-119.5 305q0 172 84 316t227.5 227t313.5 83q159 0 266 -64.5t149 -196.5t-14 -333h-866q-10 -148 78.5 -225.5t241.5 -77.5
q91 0 188 34t156 93l94 -102q-104 -99 -246 -146q-51 -20 -76.5 -58t-13.5 -79q8 -26 33.5 -42.5t64.5 -16.5q40 0 86.5 19.5t83.5 56.5zM950 586v-2q21 150 -49 226.5t-239 76.5q-137 0 -251.5 -79.5t-160.5 -221.5h700z" />
    <glyph glyph-name="Ecaron" unicode="&#x11a;" horiz-adv-x="1337" 
d="M590 1800l2 15h172l143 -158l205 158h170l-2 -15l-342 -260h-104zM86 0l252 1434h1008l-29 -160h-832l-77 -453h796l-28 -164h-797l-86 -491h864l-31 -166h-1040z" />
    <glyph glyph-name="ecaron" unicode="&#x11b;" horiz-adv-x="1198" 
d="M416 1421l4 15h174l143 -156l207 156h170l-4 -15l-340 -260h-106zM887 264l96 -106q-88 -86 -215.5 -131t-253.5 -45q-207 0 -329 118t-122 318q0 172 84.5 313.5t228.5 221t314 79.5q118 0 209 -36t149.5 -109t70.5 -184.5t-27 -262.5h-861q-15 -145 70.5 -225
t243.5 -80q90 0 186.5 35t155.5 94zM956 582v-2q33 149 -45.5 226t-242.5 77q-137 0 -251.5 -79.5t-160.5 -221.5h700z" />
    <glyph glyph-name="Gcircumflex" unicode="&#x11c;" horiz-adv-x="1531" 
d="M995 1862h105l241 -271l-4 -12h-166l-141 158l-199 -158h-178l4 12zM1493 1247l-121 -114q-67 79 -174 123t-219 44q-152 0 -283.5 -59t-218.5 -156t-136.5 -221t-49.5 -254q0 -64 11 -121t33.5 -110.5t60.5 -96t89.5 -74.5t122.5 -49.5t156 -17.5q232 0 428 146l59 340
h-446l29 157h608l-103 -581q-109 -108 -266.5 -169t-329.5 -61q-160 0 -283.5 48.5t-198.5 133t-112.5 191.5t-37.5 232q0 180 64.5 341.5t178.5 281.5t281 190.5t360 70.5q146 0 277.5 -55t220.5 -160z" />
    <glyph glyph-name="gcircumflex" unicode="&#x11d;" horiz-adv-x="1306" 
d="M741 1462h107l242 -262l-3 -12h-172l-143 153l-197 -153h-174l2 12zM1044 -20q-46 -258 -200.5 -382t-394.5 -124q-220 0 -339 101.5t-92 279.5h162q-10 -121 65.5 -176.5t215.5 -55.5q163 0 273 87.5t143 264.5l34 185q-73 -97 -182.5 -141t-228.5 -44
q-194 0 -314 118.5t-120 320.5q0 138 51.5 255t137.5 194.5t198.5 121t234.5 43.5q118 0 211.5 -52.5t130.5 -148.5l37 185h160zM666 870q-189 -2 -311 -121.5t-119 -310.5q2 -144 79.5 -226.5t221.5 -82.5q189 0 314 136q102 111 119 259q17 149 -63 246q-83 100 -241 100z
" />
    <glyph glyph-name="Gbreve" unicode="&#x11e;" horiz-adv-x="1531" 
d="M1204 1860h135q-15 -124 -101.5 -191t-213.5 -67q-131 0 -206 69.5t-48 190.5h139q-10 -60 19.5 -100t103.5 -40t118 39.5t54 98.5zM1493 1247l-121 -114q-67 79 -174 123t-219 44q-152 0 -283.5 -59t-218.5 -156t-136.5 -221t-49.5 -254q0 -64 11 -121t33.5 -110.5
t60.5 -96t89.5 -74.5t122.5 -49.5t156 -17.5q232 0 428 146l59 340h-446l29 157h608l-103 -581q-109 -108 -266.5 -169t-329.5 -61q-160 0 -283.5 48.5t-198.5 133t-112.5 191.5t-37.5 232q0 180 64.5 341.5t178.5 281.5t281 190.5t360 70.5q146 0 277.5 -55t220.5 -160z
" />
    <glyph glyph-name="gbreve" unicode="&#x11f;" horiz-adv-x="1306" 
d="M1071 1454h-2q-18 -128 -110.5 -200t-217.5 -72q-128 0 -194.5 72t-38.5 200h137q-11 -62 17.5 -102.5t101.5 -40.5q72 0 115.5 40.5t54.5 102.5h137zM1044 -20q-46 -258 -200.5 -382t-394.5 -124q-220 0 -339 101.5t-92 279.5h162q-10 -121 65.5 -176.5t215.5 -55.5
q163 0 273 87.5t143 264.5l34 185q-73 -97 -182.5 -141t-228.5 -44q-194 0 -314 118.5t-120 320.5q0 138 51.5 255t137.5 194.5t198.5 121t234.5 43.5q118 0 211.5 -52.5t130.5 -148.5l37 185h160zM666 870q-189 -2 -311 -121.5t-119 -310.5q2 -144 79.5 -226.5t221.5 -82.5
q189 0 314 136q102 111 119 259q17 149 -63 246q-83 100 -241 100z" />
    <glyph glyph-name="Gdotaccent" unicode="&#x120;" horiz-adv-x="1531" 
d="M1493 1247l-121 -114q-67 79 -174 123t-219 44q-152 0 -283.5 -59t-218.5 -156t-136.5 -221t-49.5 -254q0 -64 11 -121t33.5 -110.5t60.5 -96t89.5 -74.5t122.5 -49.5t156 -17.5q232 0 428 146l59 340h-446l29 157h608l-103 -581q-109 -108 -266.5 -169t-329.5 -61
q-160 0 -283.5 48.5t-198.5 133t-112.5 191.5t-37.5 232q0 180 64.5 341.5t178.5 281.5t281 190.5t360 70.5q146 0 277.5 -55t220.5 -160zM911 1681q15 67 84 93q64 25 115 -2q54 -28 41 -93q-16 -67 -85 -93q-64 -25 -115 1q-54 28 -40 94z" />
    <glyph glyph-name="gdotaccent" unicode="&#x121;" horiz-adv-x="1306" 
d="M647 1321q15 67 84 93q64 25 115 -2q54 -28 41 -93q-16 -67 -85 -93q-64 -25 -115 1q-54 28 -40 94zM1044 -20q-46 -258 -200.5 -382t-394.5 -124q-220 0 -339 101.5t-92 279.5h162q-10 -121 65.5 -176.5t215.5 -55.5q163 0 273 87.5t143 264.5l34 185
q-73 -97 -182.5 -141t-228.5 -44q-194 0 -314 118.5t-120 320.5q0 138 51.5 255t137.5 194.5t198.5 121t234.5 43.5q118 0 211.5 -52.5t130.5 -148.5l37 185h160zM666 870q-189 -2 -311 -121.5t-119 -310.5q2 -144 79.5 -226.5t221.5 -82.5q189 0 314 136q102 111 119 259
q17 149 -63 246q-83 100 -241 100z" />
    <glyph glyph-name="Gcommaaccent" unicode="&#x122;" horiz-adv-x="1531" 
d="M586 -522l92 157q-29 4 -47.5 32.5t-18.5 62.5q0 74 67 104q57 26 112 3q57 -24 52 -82q0 -5 -1 -9q-6 -40 -36.5 -99.5t-47.5 -86t-56 -82.5h-116zM1493 1247l-121 -114q-67 79 -174 123t-219 44q-152 0 -283.5 -59t-218.5 -156t-136.5 -221t-49.5 -254q0 -64 11 -121
t33.5 -110.5t60.5 -96t89.5 -74.5t122.5 -49.5t156 -17.5q232 0 428 146l59 340h-446l29 157h608l-103 -581q-109 -108 -266.5 -169t-329.5 -61q-160 0 -283.5 48.5t-198.5 133t-112.5 191.5t-37.5 232q0 180 64.5 341.5t178.5 281.5t281 190.5t360 70.5q146 0 277.5 -55
t220.5 -160z" />
    <glyph glyph-name="gcommaaccent" unicode="&#x123;" horiz-adv-x="1306" 
d="M811 1380l-2 -2q29 -5 46 -24.5t17 -50.5q0 -70 -55 -103t-110.5 -11t-55.5 85q0 24 48 113.5t85 144.5h113zM1044 -20q-46 -258 -200.5 -382t-394.5 -124q-220 0 -339 101.5t-92 279.5h162q-10 -121 65.5 -176.5t215.5 -55.5q163 0 273 87.5t143 264.5l34 185
q-73 -97 -182.5 -141t-228.5 -44q-194 0 -314 118.5t-120 320.5q0 138 51.5 255t137.5 194.5t198.5 121t234.5 43.5q118 0 211.5 -52.5t130.5 -148.5l37 185h160zM666 870q-189 -2 -311 -121.5t-119 -310.5q2 -144 79.5 -226.5t221.5 -82.5q189 0 314 136q102 111 119 259
q17 149 -63 246q-83 100 -241 100z" />
    <glyph glyph-name="Hcircumflex" unicode="&#x124;" horiz-adv-x="1566" 
d="M958 1866h107l242 -273l-2 -14h-172l-144 160l-201 -160h-172l2 14zM338 1434h182l-112 -648h819l112 648h183l-252 -1434h-183l109 618h-819l-109 -618h-182z" />
    <glyph glyph-name="hcircumflex" unicode="&#x125;" horiz-adv-x="1220" 
d="M784 1847h103l239 -266l-2 -12h-170l-143 155l-195 -155h-167l2 12zM299 1434v-2h166l-103 -588q145 176 373 180q208 0 292 -125.5t46 -341.5l-98 -559h-166l98 557q26 150 -32 230.5t-195 80.5q-136 0 -241 -94.5t-130 -234.5l-94 -537h-168z" />
    <glyph glyph-name="Hbar" unicode="&#x126;" horiz-adv-x="1591" 
d="M1100 0l108 618h-819l-108 -618h-183l191 1077h-144l21 123h143l41 234h182l-40 -234h819l41 234h182l-41 -234h145l-20 -123h-145l-191 -1077h-182zM1239 786l51 291h-819l-51 -291h819z" />
    <glyph glyph-name="hbar" unicode="&#x127;" horiz-adv-x="1220" 
d="M145 1286v-2h129l25 148h166l-25 -148h244l-22 -123h-244l-56 -317q145 176 373 180q208 0 292 -125.5t46 -341.5l-98 -559h-166l98 557q26 150 -32 230.5t-195 80.5q-136 0 -241 -94.5t-130 -234.5l-94 -537h-168l205 1163h-129z" />
    <glyph glyph-name="Itilde" unicode="&#x128;" horiz-adv-x="565" 
d="M186 1647l-4 4q37 90 110.5 130.5t149.5 10.5q11 -3 52 -26t51 -25q26 -15 59 -2.5t55 55.5l99 -47q-39 -100 -111.5 -137t-142.5 -8q-13 3 -51.5 28t-44.5 27q-29 15 -65.5 0.5t-61.5 -60.5zM86 4l254 1434h180l-254 -1434h-180z" />
    <glyph glyph-name="itilde" unicode="&#x129;" horiz-adv-x="481" 
d="M125 1313l2 -2q34 85 97.5 123t127.5 10q11 -3 46.5 -25t41.5 -24q25 -13 55.5 -0.5t49.5 53.5l84 -45q-37 -94 -102.5 -129t-125.5 -6q-10 3 -44 27t-40 26q-69 26 -110 -55zM223 995h174l-176 -997h-174z" />
    <glyph glyph-name="Imacron" unicode="&#x12a;" horiz-adv-x="563" 
d="M215 1737h537l-27 -142h-537zM86 0l252 1434h180l-252 -1434h-180z" />
    <glyph glyph-name="imacron" unicode="&#x12b;" horiz-adv-x="481" 
d="M147 1425h478l-25 -141h-477zM223 997h174l-176 -997h-174z" />
    <glyph glyph-name="Ibreve" unicode="&#x12c;" horiz-adv-x="563" 
d="M772 1837h-2q-14 -123 -100.5 -187.5t-210.5 -64.5t-186.5 66.5t-34.5 187.5h133q-21 -129 112 -129q70 0 109 34.5t49 92.5h131zM86 0l252 1434h180l-252 -1434h-180z" />
    <glyph glyph-name="ibreve" unicode="&#x12d;" horiz-adv-x="481" 
d="M633 1434h2q-17 -120 -100 -189t-195 -69q-113 0 -171.5 68.5t-33.5 189.5h121q-10 -60 15 -99t91 -39q64 0 102 39t48 99h121zM223 997h174l-176 -997h-174z" />
    <glyph glyph-name="Iogonek" unicode="&#x12e;" horiz-adv-x="565" 
d="M418 -203v2q-44 -63 -116 -98.5t-148 -38.5q-98 -3 -159.5 41.5t-64.5 118.5q-2 66 40.5 131.5t127.5 95.5l244 1385h180l-252 -1434q-98 1 -153 -40t-47 -99q5 -30 32 -50t70 -20q95 0 164 72z" />
    <glyph glyph-name="iogonek" unicode="&#x12f;" horiz-adv-x="479" 
d="M231 1016v4l-170 -967q-56 -19 -95 -56t-54.5 -78t-13 -82.5t23.5 -72.5q24 -68 103 -92.5t170.5 5.5t146.5 104l-80 61q-40 -36 -85.5 -49t-81.5 -4t-56 37q-31 58 24.5 116.5t155.5 57.5l180 1016h-168zM264 1321q14 70 79 98q58 24 106 -2q51 -29 38 -98
q-15 -70 -80 -98q-59 -24 -106 3q-50 29 -37 97z" />
    <glyph glyph-name="Idotaccent" unicode="&#x130;" horiz-adv-x="563" 
d="M266 0l252 1434h-180l-252 -1434h180zM358 1657q14 71 80 98q60 24 107 -3q49 -30 37 -97q-15 -71 -82 -98q-59 -24 -105 3q-50 29 -37 97z" />
    <glyph glyph-name="dotlessi" unicode="&#x131;" horiz-adv-x="481" 
d="M397 997l-176 -997h-174l176 997h174z" />
    <glyph glyph-name="IJ" unicode="&#x132;" horiz-adv-x="1968" 
d="M86 0l252 1434h178l-252 -1434h-178zM1788 573q-43 -274 -229.5 -436t-466.5 -162q-129 0 -231 41t-168 116t-90.5 186.5t-0.5 246.5h170q-36 -198 53 -314t287 -116q191 0 328 120.5t172 317.5l127 713h-502l25 148h677z" />
    <glyph glyph-name="ij" unicode="&#x133;" horiz-adv-x="946" 
d="M225 1016l-178 -1016h168l178 1016h-168zM260 1325q13 71 79 98q58 24 104 -3q51 -29 38 -97q-14 -71 -80 -98q-59 -24 -105 3q-49 29 -36 97zM700 1014h-2l-200 -1135q-21 -116 -60.5 -170.5t-115.5 -54.5q-63 0 -134 35l-67 -138q86 -51 203 -55q131 -2 220.5 91
t119.5 276q52 306 202 1151h-166zM723 1325q13 71 79 98q58 24 104 -3q51 -29 38 -97q-14 -71 -80 -98q-59 -24 -105 3q-49 29 -36 97z" />
    <glyph glyph-name="Jcircumflex" unicode="&#x134;" horiz-adv-x="1406" 
d="M715 1565l338 272h106l244 -272l-2 -13h-172l-146 158l-198 -158h-172zM1227 573q-43 -274 -229.5 -436t-467.5 -162q-129 0 -231 41t-167.5 116t-90 186.5t-0.5 246.5h170q-36 -198 53 -314t287 -116q191 0 328 120.5t172 317.5l127 713h-502l24 148h678z" />
    <glyph glyph-name="jcircumflex" unicode="&#x135;" horiz-adv-x="471" 
d="M47 1174l295 274h90l197 -274l-2 -13h-158l-107 148l-153 -148h-164zM188 -133l2 2q-31 -183 -116.5 -278t-247.5 -95q-103 0 -191 58l80 135q62 -38 131 -35q45 1 76 15.5t50.5 45.5t30 65t20.5 87l202 1147h166z" />
    <glyph glyph-name="Kcommaaccent" unicode="&#x136;" horiz-adv-x="1282" 
d="M528 -328q-59 23 -59 74q0 76 65 109q54 28 105 5t51 -81q0 -24 -49.5 -115t-85.5 -141h-113zM86 0l252 1434h176l-111 -633l746 633h223v-11l-809 -692l621 -719l-2 -12h-217l-584 674l-119 -674h-176z" />
    <glyph glyph-name="kcommaaccent" unicode="&#x137;" horiz-adv-x="1009" 
d="M383 -322h2q-26 5 -42.5 25t-16.5 49q0 71 62 102q53 26 103 3q48 -21 48 -76q0 -23 -46.5 -108.5t-82.5 -137.5h-107zM465 1434l-150 -848l496 422h201l-2 -11l-551 -473l438 -512l-2 -12h-195l-403 477l-84 -477h-166l252 1434h166z" />
    <glyph glyph-name="kgreenlandic" unicode="&#x138;" horiz-adv-x="1009" 
d="M225 1010h166l-76 -424l496 422h201l-2 -11l-551 -473l438 -512l-2 -12h-195l-403 477l-84 -477h-166z" />
    <glyph glyph-name="Lacute" unicode="&#x139;" horiz-adv-x="1179" 
d="M408 1604l194 251h201l-2 -6l-244 -256h-151zM338 1434l-252 -1434h958l31 170h-776l221 1264h-182z" />
    <glyph glyph-name="lacute" unicode="&#x13a;" horiz-adv-x="497" 
d="M340 1587l182 240h193v-6l-232 -244h-145zM311 1434l-252 -1434h168l252 1434h-168z" />
    <glyph glyph-name="Lcommaaccent" unicode="&#x13b;" horiz-adv-x="1179" 
d="M520 1434l-221 -1264h776l-31 -170h-958l252 1434h182zM496 -344l6 2q-29 5 -46.5 25t-17.5 51q0 75 63 107q54 27 106 5q52 -23 52 -82q0 -24 -49 -114.5t-86 -143.5h-112z" />
    <glyph glyph-name="lcommaaccent" unicode="&#x13c;" horiz-adv-x="497" 
d="M479 1434l-254 -1434h-168l254 1434h168zM51 -334v-2q-28 5 -44.5 25t-16.5 49q0 74 64 106q54 27 105 4q50 -22 50 -79q0 -25 -48 -112t-85 -138h-109z" />
    <glyph glyph-name="Lcaron" unicode="&#x13d;" horiz-adv-x="1183" 
d="M520 1434l-221 -1264h776l-31 -170h-958l252 1434h182zM995 1425h174l-194 -362h-131z" />
    <glyph glyph-name="lcaron" unicode="&#x13e;" horiz-adv-x="487" 
d="M659 1436h166l-192 -363h-127zM479 1434l-252 -1434h-168l252 1434h168z" />
    <glyph glyph-name="Ldot" unicode="&#x13f;" horiz-adv-x="1183" 
d="M520 1434l-221 -1264h776l-31 -170h-958l252 1434h182zM674 686q14 70 79 98q58 24 106 -2q51 -29 38 -98q-15 -70 -80 -98q-59 -24 -106 3q-50 29 -37 97z" />
    <glyph glyph-name="ldot" unicode="&#x140;" horiz-adv-x="706" 
d="M479 1434l-252 -1434h-168l252 1434h168zM496 659q14 70 79 98q58 24 106 -2q51 -29 38 -98q-15 -70 -80 -98q-59 -24 -106 3q-50 29 -37 97z" />
    <glyph glyph-name="Lslash" unicode="&#x141;" horiz-adv-x="1198" 
d="M201 565l-164 -65l26 145l162 68l127 721h183l-111 -637l248 104l-27 -149l-248 -103l-84 -479h777l-31 -170h-959z" />
    <glyph glyph-name="lslash" unicode="&#x142;" horiz-adv-x="559" 
d="M506 1434l-113 -646l168 70l-26 -141l-166 -68l-115 -649h-168l100 573l-149 -59l24 137l150 62l127 721h168z" />
    <glyph glyph-name="Nacute" unicode="&#x143;" horiz-adv-x="1560" 
d="M819 1573l195 256h205v-4l-250 -262h-152zM338 1434h123l684 -1115l194 1115h177l-254 -1434h-121l-684 1102l-197 -1102h-176z" />
    <glyph glyph-name="nacute" unicode="&#x144;" horiz-adv-x="1245" 
d="M618 1188l187 246h194v-7l-237 -247h-144v8zM223 1010h154l-19 -158q71 89 171 132.5t208 43.5q197 0 298.5 -125.5t62.5 -343.5l-99 -559h-168l99 557q28 154 -37.5 237.5t-214.5 77.5q-136 -1 -240 -95.5t-129 -233.5l-96 -543h-166z" />
    <glyph glyph-name="Ncommaaccent" unicode="&#x145;" horiz-adv-x="1560" 
d="M584 -338l4 2q-29 5 -46.5 25t-17.5 51q0 74 64 107q55 28 107 5q53 -22 53 -81q0 -24 -50 -115.5t-88 -142.5h-112zM338 1434h123l684 -1115l194 1115h177l-254 -1434h-121l-684 1102l-197 -1102h-176z" />
    <glyph glyph-name="ncommaaccent" unicode="&#x146;" horiz-adv-x="1245" 
d="M440 -317h2q-57 14 -57 71q0 71 62 101q54 26 103 2q46 -21 46 -74q0 -23 -47 -109.5t-82 -132.5h-107zM223 1010h154l-19 -158q71 89 171 132.5t208 43.5q197 0 298.5 -125.5t62.5 -343.5l-99 -559h-168l99 557q28 154 -37.5 237.5t-214.5 77.5q-136 -1 -240 -95.5
t-129 -233.5l-96 -543h-166z" />
    <glyph glyph-name="Ncaron" unicode="&#x147;" horiz-adv-x="1560" 
d="M631 1815l2 14h172l141 -158l205 158h166l-2 -14l-338 -267h-105zM338 1434h123l684 -1115l194 1115h177l-254 -1434h-121l-684 1102l-197 -1102h-176z" />
    <glyph glyph-name="ncaron" unicode="&#x148;" horiz-adv-x="1245" 
d="M442 1436l2 12h166l140 -156l200 156h166l-2 -12l-334 -265h-104zM223 1010h154l-19 -158q71 89 171 132.5t208 43.5q197 0 298.5 -125.5t62.5 -343.5l-99 -559h-168l99 557q28 154 -37.5 237.5t-214.5 77.5q-136 -1 -240 -95.5t-129 -233.5l-96 -543h-166z" />
    <glyph glyph-name="napostrophe" unicode="&#x149;" horiz-adv-x="1245" 
d="M223 1010h154l-19 -158q71 89 171 132.5t208 43.5q197 0 298.5 -125.5t62.5 -343.5l-99 -559h-168l99 557q28 154 -37.5 237.5t-214.5 77.5q-136 -1 -240 -95.5t-129 -233.5l-96 -543h-166z" />
    <glyph glyph-name="Eng" unicode="&#x14a;" horiz-adv-x="1564" 
d="M1257 -51v2q-31 -181 -110 -266.5t-242 -85.5q-100 0 -186 57l80 135q62 -38 127 -35q45 1 74.5 12.5t47.5 39t27 57.5t19 84l18 102l-649 1047l-193 -1098h-184l252 1434h125l684 -1106l190 1106h181z" />
    <glyph glyph-name="eng" unicode="&#x14b;" horiz-adv-x="1243" 
d="M989 -49l2 4q-31 -183 -116.5 -278t-247.5 -95q-96 0 -181 58l78 135q62 -38 121 -35q45 1 76 15.5t50 46t29.5 65t20.5 86.5l107 606q27 151 -34 233t-218 82q-136 -1 -240 -95.5t-129 -233.5l-96 -543h-166l178 1012h154l-21 -162q161 176 377 176q197 0 299.5 -125.5
t63.5 -343.5z" />
    <glyph glyph-name="Omacron" unicode="&#x14c;" horiz-adv-x="1660" 
d="M696 1776h684l-24 -146h-684zM987 1458q100 0 187 -21.5t152.5 -60t117.5 -92.5t83.5 -119t50.5 -139t17.5 -152.5t-14.5 -160.5q-21 -114 -67.5 -221t-122.5 -202t-172.5 -166t-224.5 -112t-271 -41q-160 0 -281 50.5t-191.5 138t-105 195.5t-34.5 233q0 139 41.5 270
t119.5 239t184 189.5t243 126.5t288 45zM1401 713q17 73 14.5 144.5t-16 136.5t-50 120.5t-86.5 96.5t-125 64t-167 23q-123 0 -231.5 -38t-189 -103.5t-140 -152.5t-90.5 -187t-33 -205q-1 -76 12.5 -144t47.5 -130t85 -106.5t130 -70.5t179 -26q136 0 253.5 50
t198.5 133.5t134 184.5t74 210z" />
    <glyph glyph-name="omacron" unicode="&#x14d;" horiz-adv-x="1230" 
d="M469 1411h600l-25 -141h-600zM63 418q0 130 50.5 245t135.5 196t200 128t241 47q202 0 322.5 -121.5t120.5 -318.5q0 -173 -85.5 -314t-229 -219.5t-314.5 -78.5q-199 0 -320 121t-121 315zM520 139q176 0 301.5 123t143.5 303q12 141 -69 228.5t-220 87.5
q-117 0 -218 -56t-162.5 -157.5t-64.5 -225.5q-5 -135 74.5 -219t214.5 -84z" />
    <glyph glyph-name="Obreve" unicode="&#x14e;" horiz-adv-x="1660" 
d="M1335 1860v2q-14 -123 -107.5 -193t-221.5 -70q-129 0 -198 69.5t-42 191.5h139q-10 -59 20 -97.5t103 -38.5q72 0 115 38.5t53 97.5h139zM987 1458q100 0 187 -21.5t152.5 -60t117.5 -92.5t83.5 -119t50.5 -139t17.5 -152.5t-14.5 -160.5q-21 -114 -67.5 -221
t-122.5 -202t-172.5 -166t-224.5 -112t-271 -41q-160 0 -281 50.5t-191.5 138t-105 195.5t-34.5 233q0 139 41.5 270t119.5 239t184 189.5t243 126.5t288 45zM1401 713q17 73 14.5 144.5t-16 136.5t-50 120.5t-86.5 96.5t-125 64t-167 23q-123 0 -231.5 -38t-189 -103.5
t-140 -152.5t-90.5 -187t-33 -205q-1 -76 12.5 -144t47.5 -130t85 -106.5t130 -70.5t179 -26q136 0 253.5 50t198.5 133.5t134 184.5t74 210z" />
    <glyph glyph-name="obreve" unicode="&#x14f;" horiz-adv-x="1230" 
d="M1042 1438v-2q-17 -126 -109 -197.5t-218 -69.5q-128 0 -194 71.5t-38 197.5h135q-11 -60 18.5 -101t102.5 -41q71 0 113 40t53 102h137zM63 418q0 130 50.5 245t135.5 196t200 128t241 47q202 0 322.5 -121.5t120.5 -318.5q0 -173 -85.5 -314t-229 -219.5t-314.5 -78.5
q-199 0 -320 121t-121 315zM520 139q176 0 301.5 123t143.5 303q12 141 -69 228.5t-220 87.5q-117 0 -218 -56t-162.5 -157.5t-64.5 -225.5q-5 -135 74.5 -219t214.5 -84z" />
    <glyph glyph-name="Ohungarumlaut" unicode="&#x150;" horiz-adv-x="1660" 
d="M752 1604l200 245h187l-242 -245h-145zM1257 1849h189l-246 -247h-143zM987 1458q100 0 187 -21.5t152.5 -60t117.5 -92.5t83.5 -119t50.5 -139t17.5 -152.5t-14.5 -160.5q-21 -114 -67.5 -221t-122.5 -202t-172.5 -166t-224.5 -112t-271 -41q-160 0 -281 50.5
t-191.5 138t-105 195.5t-34.5 233q0 139 41.5 270t119.5 239t184 189.5t243 126.5t288 45zM1401 713q17 73 14.5 144.5t-16 136.5t-50 120.5t-86.5 96.5t-125 64t-167 23q-123 0 -231.5 -38t-189 -103.5t-140 -152.5t-90.5 -187t-33 -205q-1 -76 12.5 -144t47.5 -130
t85 -106.5t130 -70.5t179 -26q136 0 253.5 50t198.5 133.5t134 184.5t74 210z" />
    <glyph glyph-name="ohungarumlaut" unicode="&#x151;" horiz-adv-x="1230" 
d="M649 1423h193v-4l-232 -217h-153zM946 1421h193v-2l-236 -217h-149zM63 418q0 130 50.5 245t135.5 196t200 128t241 47q202 0 322.5 -121.5t120.5 -318.5q0 -173 -85.5 -314t-229 -219.5t-314.5 -78.5q-199 0 -320 121t-121 315zM520 139q176 0 301.5 123t143.5 303
q12 141 -69 228.5t-220 87.5q-117 0 -218 -56t-162.5 -157.5t-64.5 -225.5q-5 -135 74.5 -219t214.5 -84z" />
    <glyph glyph-name="OE" unicode="&#x152;" horiz-adv-x="2027" 
d="M911 0v-2q-103 -21 -188 -21q-153 0 -271.5 48t-191.5 132t-110 192.5t-37 236.5q0 137 36.5 264.5t109.5 237t175.5 190.5t244 127.5t304.5 46.5q71 0 184 -18h879l-27 -158h-716l-84 -471h679l-26 -162h-680l-88 -479h733l-29 -164h-897zM1141 1274v2q-77 27 -185 27
q-267 0 -438.5 -156.5t-214.5 -411.5q-11 -65 -11.5 -126.5t10 -121.5t32.5 -112t60 -96.5t88 -76t120 -50t154 -19.5q92 0 188 27z" />
    <glyph glyph-name="oe" unicode="&#x153;" horiz-adv-x="2037" 
d="M1823 162h-2q-89 -88 -213.5 -134t-249.5 -46q-149 0 -250 67.5t-135 188.5q-83 -123 -205 -188.5t-268 -65.5q-216 0 -326.5 117.5t-110.5 316.5q0 129 49.5 243.5t133 196t198 129t240.5 47.5q144 0 241 -68t132 -192q71 115 201.5 186.5t275.5 71.5q116 0 205 -35.5
t147.5 -108.5t70 -184t-27.5 -262q-676 0 -842 -2q-11 -140 72.5 -225.5t229.5 -85.5q88 0 184 37.5t156 97.5zM1796 582v-2q21 152 -45.5 227.5t-239.5 75.5q-136 0 -245.5 -79t-155.5 -222h686zM240 502q-27 -164 48 -264.5t240 -100.5q178 0 300 123t122 303
q0 138 -79 224.5t-214 86.5q-158 0 -276 -102.5t-141 -269.5z" />
    <glyph glyph-name="Racute" unicode="&#x154;" horiz-adv-x="1458" 
d="M752 1581l194 254h203v-6l-246 -258h-151v10zM1067 0l-356 524h-357l-90 -524h-178l252 1434h651q94 0 170 -26t123 -71t77.5 -105t35 -127t-5.5 -138q-14 -84 -49.5 -156.5t-93 -133.5t-145 -99.5t-196.5 -47.5l379 -530h-217zM848 676q154 0 250 83t119 212
q6 44 5.5 87.5t-18.5 84t-47 71.5t-78.5 49.5t-113.5 18.5h-473l-109 -606h465z" />
    <glyph glyph-name="racute" unicode="&#x155;" horiz-adv-x="876" 
d="M504 1196l180 238h190v-7l-231 -239h-141zM381 1012l2 2l-16 -146q128 162 344 162q132 3 221 -76l-101 -143q-70 55 -165 55q-128 -2 -228 -82t-125 -221l-98 -563h-168l178 1012h156z" />
    <glyph glyph-name="Rcommaaccent" unicode="&#x156;" horiz-adv-x="1458" 
d="M549 -340l4 2q-29 5 -46.5 25t-17.5 51q0 75 64 107q55 28 107 5q51 -23 51 -81q0 -24 -49.5 -114.5t-86.5 -143.5h-112zM1067 0l-356 524h-357l-90 -524h-178l252 1434h651q94 0 170 -26t123 -71t77.5 -105t35 -127t-5.5 -138q-14 -84 -49.5 -156.5t-93 -133.5
t-145 -99.5t-196.5 -47.5l379 -530h-217zM848 676q154 0 250 83t119 212q6 44 5.5 87.5t-18.5 84t-47 71.5t-78.5 49.5t-113.5 18.5h-473l-109 -606h465z" />
    <glyph glyph-name="rcommaaccent" unicode="&#x157;" horiz-adv-x="876" 
d="M381 1012l2 2l-14 -152q121 168 342 168q132 3 221 -76l-101 -143q-70 55 -165 55q-126 -2 -226.5 -84.5t-124.5 -218.5l-98 -563h-170l178 1012h156zM47 -326q-26 5 -41.5 24t-15.5 48q0 71 61 102q53 26 102 3q46 -22 46 -76q0 -23 -46 -108.5t-81 -133.5h-105z" />
    <glyph glyph-name="Rcaron" unicode="&#x158;" horiz-adv-x="1458" 
d="M569 1847l2 13h174l146 -158l203 158h168l-2 -13l-340 -266h-107zM1067 0l-356 524h-357l-90 -524h-178l252 1434h651q94 0 170 -26t123 -71t77.5 -105t35 -127t-5.5 -138q-14 -84 -49.5 -156.5t-93 -133.5t-145 -99.5t-196.5 -47.5l379 -530h-217zM848 676q154 0 250 83
t119 212q6 44 5.5 87.5t-18.5 84t-47 71.5t-78.5 49.5t-113.5 18.5h-473l-109 -606h465z" />
    <glyph glyph-name="rcaron" unicode="&#x159;" horiz-adv-x="876" 
d="M655 1165h-100l-223 260l2 13h162l133 -154l192 154h158l-2 -13zM225 1012l2 2h156l-14 -152q121 168 342 168q132 3 221 -76l-101 -143q-70 55 -165 55q-126 -2 -227.5 -85t-125.5 -218l-98 -563h-168z" />
    <glyph glyph-name="Sacute" unicode="&#x15a;" horiz-adv-x="1341" 
d="M936 1855h197l-240 -253h-143v10zM1300 1251l-114 -110q-62 83 -167.5 127.5t-232.5 46.5q-57 1 -108 -5t-104 -22.5t-93.5 -43t-71.5 -70.5t-42 -101q-7 -39 2 -72t27 -56.5t51.5 -43.5t63 -32t74 -22.5t72 -16t68.5 -11.5q96 -15 164.5 -32.5t142.5 -52.5t116 -81.5
t63.5 -122t7.5 -172.5q-11 -85 -53 -152.5t-103 -110t-141.5 -71t-163.5 -40t-174 -11.5q-194 0 -346 84t-213 244l143 84q57 -125 169.5 -187t254.5 -65q123 -3 221 21.5t162 81t74 137.5q7 62 -4 106t-36 74t-76 51.5t-108 34.5t-149 27q-53 9 -98.5 19.5t-95 26t-89 36.5
t-76.5 47.5t-61 61t-39 75.5t-14.5 93t16.5 112q89 327 617 327q139 0 260.5 -56t203.5 -157z" />
    <glyph glyph-name="sacute" unicode="&#x15b;" horiz-adv-x="1015" 
d="M682 1432h192l-223 -236h-141l2 8zM936 895l-100 -107q-110 99 -279 99q-117 0 -193.5 -42t-76.5 -124q0 -32 18 -56t52.5 -38.5t70.5 -23t86 -15.5q65 -9 111.5 -19t105 -33t93 -53.5t54 -83t9.5 -120.5q-15 -98 -84.5 -167.5t-165 -100.5t-207.5 -31q-136 0 -251 49.5
t-181 142.5l108 109q125 -152 334 -152q43 0 86.5 7.5t87 24t74 48.5t37.5 76q7 38 -8.5 67t-51.5 47t-80 29t-106 18q-57 8 -104 18.5t-96 31t-81.5 47.5t-53.5 68.5t-21 93.5q0 85 40 149.5t106.5 101t142 54.5t157.5 20q114 0 203.5 -29.5t163.5 -105.5z" />
    <glyph glyph-name="Scircumflex" unicode="&#x15c;" horiz-adv-x="1341" 
d="M502 1610l346 276h106l248 -276l-2 -13h-174l-147 162l-205 -162h-174zM1300 1251l-114 -110q-62 83 -167.5 127.5t-232.5 46.5q-57 1 -108 -5t-104 -22.5t-93.5 -43t-71.5 -70.5t-42 -101q-7 -39 2 -72t27 -56.5t51.5 -43.5t63 -32t74 -22.5t72 -16t68.5 -11.5
q96 -15 164.5 -32.5t142.5 -52.5t116 -81.5t63.5 -122t7.5 -172.5q-11 -85 -53 -152.5t-103 -110t-141.5 -71t-163.5 -40t-174 -11.5q-194 0 -346 84t-213 244l143 84q57 -125 169.5 -187t254.5 -65q123 -3 221 21.5t162 81t74 137.5q7 62 -4 106t-36 74t-76 51.5t-108 34.5
t-149 27q-53 9 -98.5 19.5t-95 26t-89 36.5t-76.5 47.5t-61 61t-39 75.5t-14.5 93t16.5 112q89 327 617 327q139 0 260.5 -56t203.5 -157z" />
    <glyph glyph-name="scircumflex" unicode="&#x15d;" horiz-adv-x="1015" 
d="M610 1432h99l227 -254l-2 -13h-162l-135 148l-184 -148h-166l2 13zM936 895l-100 -107q-110 99 -279 99q-117 0 -193.5 -42t-76.5 -124q0 -32 18 -56t52.5 -38.5t70.5 -23t86 -15.5q65 -9 111.5 -19t105 -33t93 -53.5t54 -83t9.5 -120.5q-15 -98 -84.5 -167.5
t-165 -100.5t-207.5 -31q-136 0 -251 49.5t-181 142.5l108 109q125 -152 334 -152q43 0 86.5 7.5t87 24t74 48.5t37.5 76q7 38 -8.5 67t-51.5 47t-80 29t-106 18q-57 8 -104 18.5t-96 31t-81.5 47.5t-53.5 68.5t-21 93.5q0 85 40 149.5t106.5 101t142 54.5t157.5 20
q114 0 203.5 -29.5t163.5 -105.5z" />
    <glyph glyph-name="Scedilla" unicode="&#x15e;" horiz-adv-x="1341" 
d="M1300 1251l-114 -110q-62 83 -167.5 127.5t-232.5 46.5q-57 1 -108 -5t-104 -22.5t-93.5 -43t-71.5 -70.5t-42 -101q-7 -39 2 -72t27 -56.5t51.5 -43.5t63 -32t74 -22.5t72 -16t68.5 -11.5q96 -15 164.5 -32.5t142.5 -52.5t116 -81.5t63.5 -122t7.5 -172.5
q-10 -78 -47 -141.5t-91 -106t-125.5 -72t-146.5 -44.5t-158 -19l-53 -94l2 -2q51 1 89 -13.5t58 -37.5t28 -53.5t5 -62t-16 -62.5q-34 -79 -110 -115.5t-167 -34.5q-72 2 -130 32.5t-83 86.5l97 72q38 -72 139 -72q42 0 77.5 17t49.5 49q27 59 -25.5 92.5t-144.5 3.5
l-29 26l88 168q-177 13 -311 95.5t-190 230.5l143 84q57 -125 169.5 -187t254.5 -65q123 -3 221 21.5t162 81t74 137.5q7 62 -4 106t-36 74t-76 51.5t-108 34.5t-149 27q-53 9 -98.5 19.5t-95 26t-89 36.5t-76.5 47.5t-61 61t-39 75.5t-14.5 93t16.5 112q89 327 617 327
q139 0 260.5 -56t203.5 -157z" />
    <glyph glyph-name="scedilla" unicode="&#x15f;" horiz-adv-x="1017" 
d="M938 895l-100 -107q-110 99 -279 99q-117 0 -193.5 -42t-76.5 -124q0 -32 18 -56t52.5 -38.5t70.5 -23t86 -15.5q65 -9 111.5 -19t105 -33t93 -53.5t54 -83t9.5 -120.5q-14 -90 -74 -156t-143 -99.5t-185 -41.5l-34 -78v-2q52 2 89.5 -9.5t56.5 -30.5t26.5 -45.5t4.5 -53
t-14 -54.5q-32 -73 -105 -111t-155 -36q-70 2 -125 29t-79 79l90 64q37 -64 131 -64q39 0 73 15.5t48 44.5q16 34 -0.5 60.5t-57.5 33t-102 -11.5l-29 24l70 146q-120 9 -218 57.5t-157 132.5l109 109q125 -152 333 -152q43 0 86.5 7.5t87 24t74 48.5t37.5 76q7 38 -8.5 67
t-51.5 47t-80 29t-106 18q-57 8 -104 18.5t-96 31t-81.5 47.5t-53.5 68.5t-21 93.5q0 85 40 149.5t106.5 101t142 54.5t157.5 20q114 0 203.5 -29.5t163.5 -105.5z" />
    <glyph glyph-name="Scaron" unicode="&#x160;" horiz-adv-x="1341" 
d="M1300 1251l-114 -110q-62 83 -167.5 127.5t-232.5 46.5q-57 1 -108 -5t-104 -22.5t-93.5 -43t-71.5 -70.5t-42 -101q-7 -39 2 -72t27 -56.5t51.5 -43.5t63 -32t74 -22.5t72 -16t68.5 -11.5q96 -15 164.5 -32.5t142.5 -52.5t116 -81.5t63.5 -122t7.5 -172.5
q-11 -85 -53 -152.5t-103 -110t-141.5 -71t-163.5 -40t-174 -11.5q-194 0 -346 84t-213 244l143 84q57 -125 169.5 -187t254.5 -65q123 -3 221 21.5t162 81t74 137.5q7 62 -4 106t-36 74t-76 51.5t-108 34.5t-149 27q-53 9 -98.5 19.5t-95 26t-89 36.5t-76.5 47.5t-61 61
t-39 75.5t-14.5 93t16.5 112q89 327 617 327q139 0 260.5 -56t203.5 -157zM535 1845l4 15h166l149 -168l209 168h178l-4 -15l-346 -276h-107z" />
    <glyph glyph-name="scaron" unicode="&#x161;" horiz-adv-x="1015" 
d="M936 895l-100 -107q-110 99 -279 99q-117 0 -193.5 -42t-76.5 -124q0 -32 18 -56t52.5 -38.5t70.5 -23t86 -15.5q65 -9 111.5 -19t105 -33t93 -53.5t54 -83t9.5 -120.5q-15 -98 -84.5 -167.5t-165 -100.5t-207.5 -31q-136 0 -251 49.5t-181 142.5l108 109
q125 -152 334 -152q43 0 86.5 7.5t87 24t74 48.5t37.5 76q7 38 -8.5 67t-51.5 47t-80 29t-106 18q-57 8 -104 18.5t-96 31t-81.5 47.5t-53.5 68.5t-21 93.5q0 85 40 149.5t106.5 101t142 54.5t157.5 20q114 0 203.5 -29.5t163.5 -105.5zM305 1421l4 15h164l148 -166l206 166
h177l-5 -15l-342 -272h-104z" />
    <glyph glyph-name="Tcommaaccent" unicode="&#x162;" horiz-adv-x="1228" 
d="M420 2l223 1268h-491l28 162h1161l-28 -162h-492l-223 -1270h-55l-39 -88q65 1 108 -19.5t59 -53.5t16 -71.5t-17 -78.5q-28 -67 -96 -109.5t-143 -49.5t-145.5 24.5t-101.5 99.5l92 72q21 -47 78.5 -65t114 -0.5t74.5 60.5q24 61 -27 94.5t-141 2.5l-31 26z" />
    <glyph glyph-name="tcommaaccent" unicode="&#x163;" horiz-adv-x="802" 
d="M381 1288l172 19l-53 -297h313l-25 -144h-315l-86 -485q-11 -73 -11.5 -126.5t31.5 -84.5t99 -31q65 0 147 35l25 -139q-107 -46 -205 -49q-23 0 -33 2l-39 -90q122 4 163 -56t5 -143q-31 -72 -101 -111t-153 -41q-76 -3 -140 26t-89 85l92 68q40 -65 133 -68
q45 0 81.5 15.5t49.5 47.5q17 35 -0.5 61t-61 32.5t-108.5 -11.5l-24 27l82 180q-90 35 -114.5 131.5t5.5 239.5l86 485h-203l25 144h203z" />
    <glyph glyph-name="Tcaron" unicode="&#x164;" horiz-adv-x="1228" 
d="M489 1843l3 15h174l147 -164l211 164h170l-2 -15l-348 -274h-109zM641 1268h-489l28 164h1161l-28 -164h-490l-223 -1268h-182z" />
    <glyph glyph-name="tcaron" unicode="&#x165;" horiz-adv-x="880" 
d="M528 1307h-2l-53 -297h225l-24 -144h-225l-95 -534q-16 -95 11.5 -144t115.5 -49q80 0 150 33l24 -137q-107 -46 -206 -49q-160 -3 -224.5 86.5t-34.5 259.5l95 534h-181l25 144h180l49 278zM928 1303h159l-182 -340h-125z" />
    <glyph glyph-name="Tbar" unicode="&#x166;" 
d="M315 754h244l90 514h-489l28 164h1162l-29 -164h-490l-90 -514h250l-24 -138h-250l-109 -616h-182l109 616h-244z" />
    <glyph glyph-name="tbar" unicode="&#x167;" horiz-adv-x="804" 
d="M109 627h155l43 239h-203l25 144h203l49 278l170 19l-51 -297h313l-25 -144h-315l-43 -239h236l-23 -123h-233l-31 -172q-16 -95 11.5 -144t113.5 -49q68 0 147 37l25 -141q-110 -46 -205 -49q-160 -3 -224 86.5t-34 259.5l31 172h-158z" />
    <glyph glyph-name="Utilde" unicode="&#x168;" horiz-adv-x="1517" 
d="M668 1628l-4 4q40 90 115.5 130.5t156.5 11.5q13 -3 54.5 -26.5t51.5 -25.5q29 -15 63.5 -2t57.5 56l105 -45q-41 -100 -118 -137.5t-149 -8.5q-12 3 -53.5 27t-50.5 26q-81 30 -129 -59zM1489 1434l2 -2l-152 -861q-26 -145 -91 -260t-157.5 -188.5t-204 -111.5
t-235.5 -38q-93 0 -174 23.5t-147.5 71.5t-109 119.5t-57.5 167.5t7 216l152 861h176l-152 -861q-37 -208 51.5 -321t268.5 -113q193 0 327 114.5t170 321.5l152 861h174z" />
    <glyph glyph-name="utilde" unicode="&#x169;" 
d="M455 1294v2q39 89 114 128.5t154 9.5q13 -3 54.5 -26.5t51.5 -25.5q76 -26 121 54l105 -47q-41 -97 -118 -133t-149 -7q-10 4 -51.5 29t-52.5 27q-34 12 -68.5 -2t-60.5 -58zM831 0h3l26 158q-156 -173 -391 -176q-197 0 -296.5 124.5t-61.5 342.5l98 559h170l-98 -557
q-27 -151 30 -232.5t205 -81.5q138 1 249 96t136 232l96 543h168l-178 -1008h-156z" />
    <glyph glyph-name="Umacron" unicode="&#x16a;" horiz-adv-x="1517" 
d="M676 1743h622l-24 -144h-623zM1489 1434l2 -2l-152 -861q-26 -145 -91 -260t-157.5 -188.5t-204 -111.5t-235.5 -38q-93 0 -174 23.5t-147.5 71.5t-109 119.5t-57.5 167.5t7 216l152 861h176l-152 -861q-37 -208 51.5 -321t268.5 -113q193 0 327 114.5t170 321.5l152 861
h174z" />
    <glyph glyph-name="umacron" unicode="&#x16b;" 
d="M457 1434h624l-24 -136h-625zM831 0h3l26 158q-156 -173 -391 -176q-197 0 -296.5 124.5t-61.5 342.5l98 559h170l-98 -557q-27 -151 30 -232.5t205 -81.5q138 1 249 96t136 232l96 543h168l-178 -1008h-156z" />
    <glyph glyph-name="Ubreve" unicode="&#x16c;" horiz-adv-x="1517" 
d="M1130 1847h138q-17 -129 -109 -201.5t-219 -72.5t-194.5 73t-40.5 201h137q-10 -64 15.5 -104.5t98.5 -40.5t118.5 42t55.5 103zM1489 1434l2 -2l-152 -861q-26 -145 -91 -260t-157.5 -188.5t-204 -111.5t-235.5 -38q-93 0 -174 23.5t-147.5 71.5t-109 119.5t-57.5 167.5
t7 216l152 861h176l-152 -861q-37 -208 51.5 -321t268.5 -113q193 0 327 114.5t170 321.5l152 861h174z" />
    <glyph glyph-name="ubreve" unicode="&#x16d;" 
d="M1051 1427l-2 -2q-14 -123 -106 -192.5t-216 -69.5q-126 0 -192 70t-39 194h129q-10 -61 18 -100t100 -39t117 40t55 99h136zM831 0h3l26 158q-156 -173 -391 -176q-197 0 -296.5 124.5t-61.5 342.5l98 559h170l-98 -557q-27 -151 30 -232.5t205 -81.5q138 1 249 96
t136 232l96 543h168l-178 -1008h-156z" />
    <glyph glyph-name="Uring" unicode="&#x16e;" horiz-adv-x="1517" 
d="M713 1702v-2q16 93 95 145.5t175 52.5q85 0 144 -44t59 -125q0 -103 -82.5 -165.5t-190.5 -62.5q-101 0 -159 54t-41 147zM965 1802q-79 0 -117 -60q-33 -50 -11 -96q23 -47 91 -47q83 0 122 60q32 49 10 95q-24 48 -95 48zM1489 1434l2 -2l-152 -861q-26 -145 -91 -260
t-157.5 -188.5t-204 -111.5t-235.5 -38q-93 0 -174 23.5t-147.5 71.5t-109 119.5t-57.5 167.5t7 216l152 861h176l-152 -861q-37 -208 51.5 -321t268.5 -113q193 0 327 114.5t170 321.5l152 861h174z" />
    <glyph glyph-name="uring" unicode="&#x16f;" 
d="M522 1311h-2q18 93 94 145.5t168 52.5q82 0 140.5 -45t58.5 -125q0 -103 -80 -164t-188 -61q-97 0 -152.5 52.5t-38.5 144.5zM762 1413q-75 0 -112 -58q-31 -49 -10 -94q22 -47 89 -47q79 0 117 58q31 48 9 93q-25 47 -93 48zM831 0h3l26 158q-156 -173 -391 -176
q-197 0 -296.5 124.5t-61.5 342.5l98 559h170l-98 -557q-27 -151 30 -232.5t205 -81.5q138 1 249 96t136 232l96 543h168l-178 -1008h-156z" />
    <glyph glyph-name="Uhungarumlaut" unicode="&#x170;" horiz-adv-x="1517" 
d="M879 1831h182l-244 -248h-141zM1180 1829h184l-246 -246h-139zM1489 1434l2 -2l-152 -861q-26 -145 -91 -260t-157.5 -188.5t-204 -111.5t-235.5 -38q-93 0 -174 23.5t-147.5 71.5t-109 119.5t-57.5 167.5t7 216l152 861h176l-152 -861q-37 -208 51.5 -321t268.5 -113
q193 0 327 114.5t170 321.5l152 861h174z" />
    <glyph glyph-name="uhungarumlaut" unicode="&#x171;" 
d="M662 1436h176v-4l-230 -230h-135zM950 1436h176v-4l-231 -232h-135zM831 0h3l26 158q-156 -173 -391 -176q-197 0 -296.5 124.5t-61.5 342.5l98 559h170l-98 -557q-27 -151 30 -232.5t205 -81.5q138 1 249 96t136 232l96 543h168l-178 -1008h-156z" />
    <glyph glyph-name="Uogonek" unicode="&#x172;" horiz-adv-x="1521" 
d="M1491 1434h2l-152 -861q-38 -215 -160 -358t-294 -203q-59 -23 -88.5 -71.5t-14.5 -92.5q9 -27 38 -42.5t71 -14.5q43 2 92.5 24.5t85.5 61.5l88 -70q-48 -66 -124 -104t-158 -43q-80 -4 -137.5 21t-82.5 73q-27 52 -21 110.5t44 110.5q-124 -4 -227 32t-176 108.5
t-102 190t-3 265.5l152 861h180l-152 -861q-18 -107 -0.5 -187.5t64.5 -134.5t115.5 -81t152.5 -27q173 0 306.5 114.5t168.5 317.5l152 861h180z" />
    <glyph glyph-name="uogonek" unicode="&#x173;" horiz-adv-x="1245" 
d="M969 -100l2 -2q-104 9 -177.5 -34t-62.5 -106q5 -29 34 -47.5t75 -17.5q91 4 164 80l79 -66q-44 -62 -115 -97t-145 -38q-93 -3 -155.5 37t-71.5 108q-6 47 15 99.5t78 98.5t140 60l25 187q-158 -175 -385 -178q-197 0 -296.5 125.5t-61.5 343.5l98 559h170l-98 -557
q-57 -316 235 -316q139 1 249.5 97t135.5 233l96 543h168z" />
    <glyph glyph-name="Wcircumflex" unicode="&#x174;" horiz-adv-x="2215" 
d="M909 1585l355 273h110l256 -273l-2 -14h-182l-152 160l-204 -160h-183zM197 1434h194l123 -807l49 -406l203 397l424 816h115l131 -816l53 -411l199 411l415 816h197l-750 -1436h-188l-107 674l-59 442l-221 -444l-348 -672h-183z" />
    <glyph glyph-name="wcircumflex" unicode="&#x175;" horiz-adv-x="1716" 
d="M610 1186l340 262h107l243 -262l-2 -12h-165l-146 155l-199 -155h-180zM129 1008h178l123 -830l426 830h137l129 -832l412 832h184l-532 -1010h-187l-114 752l-387 -752h-189z" />
    <glyph glyph-name="Ycircumflex" unicode="&#x176;" horiz-adv-x="1388" 
d="M500 1591l342 264h106l248 -264l-2 -12h-176l-144 156l-200 -156h-176zM590 586l-408 841l2 7h197l319 -689l574 689h213l-2 -7l-711 -841l-106 -586h-185z" />
    <glyph glyph-name="ycircumflex" unicode="&#x177;" horiz-adv-x="1245" 
d="M387 1184l334 264h104l244 -264l-2 -13h-174l-141 154l-195 -154h-172zM979 -43q-22 -124 -74 -218t-127 -150.5t-163.5 -84.5t-190.5 -28q-208 0 -312 98t-85 281h159q-13 -117 53.5 -173.5t200.5 -56.5q321 0 379 334l35 201q-146 -173 -385 -176q-197 0 -295.5 125.5
t-60.5 343.5l98 555h168l-98 -553q-57 -316 227 -316q138 2 253 98t140 232l94 539h168z" />
    <glyph glyph-name="Ydieresis" unicode="&#x178;" horiz-adv-x="1388" 
d="M590 586l-408 841l2 7h197l319 -689l574 689h213l-2 -7l-711 -841l-106 -586h-185zM518 1636q14 70 79 98q58 24 106 -2q51 -29 38 -98q-15 -70 -80 -98q-59 -24 -106 3q-50 29 -37 97zM1001 1636q14 71 80 98q60 24 107 -3q49 -30 37 -97q-15 -71 -82 -98
q-59 -24 -105 3q-50 29 -37 97z" />
    <glyph glyph-name="Zacute" unicode="&#x179;" 
d="M700 1589l199 260h207l-2 -6l-252 -264h-154zM252 1434h1059l-13 -78l-798 -895l-269 -293h865l-37 -168h-1102l16 96l779 881l278 297h-809z" />
    <glyph glyph-name="zacute" unicode="&#x17a;" horiz-adv-x="966" 
d="M483 1186l2 10l187 238h198v-7l-239 -241h-148zM170 1008h784l-12 -78l-711 -783l574 3l-29 -150h-819l12 66l717 798h-543z" />
    <glyph glyph-name="Zdotaccent" unicode="&#x17b;" 
d="M700 1688q14 71 80 98q60 24 107 -3q49 -30 37 -97q-15 -71 -82 -98q-59 -24 -105 3q-50 29 -37 97zM252 1434h1059l-13 -78l-798 -895l-269 -293h865l-37 -168h-1102l16 96l779 881l278 297h-809z" />
    <glyph glyph-name="zdotaccent" unicode="&#x17c;" horiz-adv-x="966" 
d="M504 1329q14 70 79 98q58 24 106 -2q51 -29 38 -98q-15 -70 -80 -98q-59 -24 -106 3q-50 29 -37 97zM170 1008h784l-12 -78l-711 -783l574 3l-29 -150h-819l12 66l717 798h-543z" />
    <glyph glyph-name="Zcaron" unicode="&#x17d;" 
d="M252 1434h1059l-13 -78l-798 -895l-269 -293h865l-37 -168h-1102l16 96l779 881l278 297h-809zM512 1847l4 15h166l149 -168l209 168h179l-5 -15l-346 -276h-106z" />
    <glyph glyph-name="zcaron" unicode="&#x17e;" horiz-adv-x="966" 
d="M170 1008h784l-12 -78l-711 -783l574 3l-29 -150h-819l12 66l717 798h-543zM297 1413l4 14h160l145 -161l203 161h174l-4 -14l-336 -268h-104z" />
    <glyph glyph-name="longs" unicode="&#x17f;" horiz-adv-x="624" 
d="M156 0v-2l151 854h-198l26 147h199l14 80q31 173 137.5 270t266.5 97q121 0 217 -74l-92 -125q-76 51 -148 51q-84 0 -139.5 -54t-75.5 -165l-190 -1079h-168z" />
    <glyph glyph-name="florin" unicode="&#x192;" horiz-adv-x="925" 
d="M360 854v-2h-198l26 147h199l14 80q31 173 137.5 270t266.5 97q124 0 215 -70l-86 -112q-67 45 -148 45q-83 0 -141 -59t-78 -171l-14 -80h317l-26 -147h-316l-151 -856q-31 -175 -131 -272t-258 -97q-106 0 -199 72l90 123q32 -29 57.5 -39t67.5 -10q166 0 205 225z" />
    <glyph glyph-name="Aringacute" unicode="&#x1fa;" horiz-adv-x="1560" 
d="M1071 1806h-176l182 166h219v-6zM825 1421q-62 18 -90.5 62.5t-21.5 95.5q9 83 84 135.5t188 52.5t170 -54.5t45 -137.5q-8 -51 -50.5 -93.5t-115.5 -60.5l389 -1421h-178l-92 328h-821l-203 -328h-192zM963 1657h4q-74 0 -104 -48q-25 -39 1 -72q25 -32 82 -32
q74 0 102 48q23 40 -5 73q-26 31 -80 31zM1118 485l-203 801l-483 -801h686z" />
    <glyph glyph-name="aringacute" unicode="&#x1fb;" horiz-adv-x="1308" 
d="M903 1522h-160l156 178h213v-4zM557 1286q-18 -83 35 -136.5t145 -53.5q100 0 174 56.5t74 152.5q0 72 -53 112.5t-129 40.5q-90 0 -161 -44t-85 -128zM782 1360q67 0 84 -49q15 -43 -20 -82q-33 -39 -92 -39q-67 0 -83 49q-14 43 20 82t91 39zM887 0l-6 -4l34 184
q-67 -103 -183 -154t-232 -51q-193 0 -313.5 119t-120.5 320q0 138 51.5 255t137.5 194t198 120t235 43q118 0 210.5 -52t129.5 -147l37 185h162l-178 -1012h-162zM668 872q-115 -1 -213.5 -52t-161 -151.5t-62.5 -230.5q0 -145 74.5 -227t222.5 -82q189 0 317 137
q103 112 122 260q18 150 -61 247q-80 99 -238 99z" />
    <glyph glyph-name="AEacute" unicode="&#x1fc;" horiz-adv-x="1896" 
d="M1135 1606l200 262h205l-2 -6l-252 -267h-153zM78 0l319 410h486l-72 -410h868l31 174h-698l82 461h647l28 168h-647l82 467h680l29 164h-903l-1141 -1434h209zM1032 1237l-28 -143l-93 -523h-385z" />
    <glyph glyph-name="aeacute" unicode="&#x1fd;" horiz-adv-x="2076" 
d="M1079 1192l181 244h194v-4l-235 -250h-140v10zM891 0l33 178q-74 -99 -192 -152t-232 -53q-193 0 -313.5 119t-120.5 320q0 138 51.5 255t137.5 194.5t197.5 121t233.5 43.5q118 0 212.5 -53t131.5 -148l35 185h131l-31 -174q82 97 190 146.5t228 47.5q107 -1 196 -39
t148.5 -112.5t72 -185t-33.5 -255.5h-858q-10 -138 76.5 -220.5t234.5 -82.5q91 0 188 34t156 93l92 -102q-88 -87 -214.5 -132.5t-251.5 -45.5q-124 0 -207.5 49t-122.5 139l-35 -170h-133zM1135 575h706q20 145 -57.5 225.5t-227.5 80.5q-137 0 -256 -82.5t-165 -223.5z
M668 870q-168 -2 -296.5 -116.5t-138.5 -290.5q0 -69 18.5 -128.5t54 -107t95 -75t136.5 -27.5q187 0 312 137q102 111 119 260q18 151 -61 248q-82 100 -239 100z" />
    <glyph glyph-name="Oslashacute" unicode="&#x1fe;" horiz-adv-x="1660" 
d="M905 1616l201 262h205l-2 -6l-250 -264h-154v8zM311 100v2q-97 79 -147.5 209.5t-50.5 278.5q0 128 37 253t111 236.5t177 196.5t245 134.5t304 49.5q175 0 305 -65l127 168h180l-188 -244q118 -103 160.5 -263.5t9.5 -342.5q-21 -114 -67.5 -221t-122 -202t-171.5 -166
t-224 -112t-271 -41q-167 0 -295 56l-137 -183h-176zM1186 1255q-82 39 -225 39q-137 0 -254.5 -49t-198 -131.5t-132 -185t-69.5 -215.5q-24 -137 4 -262t111 -201zM541 170q69 -27 217 -27q125 0 233.5 39.5t185 105.5t131 153t81 181.5t26.5 190.5q0 108 -27 205t-85 156
z" />
    <glyph glyph-name="oslashacute" unicode="&#x1ff;" horiz-adv-x="1218" 
d="M612 1198l179 236h186l-2 -4l-225 -240h-140zM199 92q-64 55 -100 139t-36 185q0 129 49.5 243.5t133 195.5t198 128t240.5 47q105 0 197 -47l104 133h164l-158 -203q61 -56 95 -140t34 -183q0 -171 -83 -311t-225 -218.5t-312 -78.5q-95 0 -193 43l-110 -146h-162z
M782 850l4 2q-62 27 -127 27q-114 0 -213 -59.5t-157 -161.5t-58 -220q0 -139 72 -211zM414 156q49 -21 114 -21q177 0 301.5 125t124.5 305q0 126 -65 207z" />
    <glyph glyph-name="Scommaaccent" unicode="&#x218;" horiz-adv-x="1341" 
d="M508 -375l-2 2q-55 13 -55 72q0 75 64 108q54 27 105 4q50 -23 50 -81q0 -9 -7.5 -28.5t-22.5 -49.5t-30.5 -59.5t-38.5 -73.5t-39 -76h-110zM1300 1251l-114 -110q-62 83 -167.5 127.5t-232.5 46.5q-57 1 -108 -5t-104 -22.5t-93.5 -43t-71.5 -70.5t-42 -101
q-7 -39 2 -72t27 -56.5t51.5 -43.5t63 -32t74 -22.5t72 -16t68.5 -11.5q96 -15 164.5 -32.5t142.5 -52.5t116 -81.5t63.5 -122t7.5 -172.5q-11 -85 -53 -152.5t-103 -110t-141.5 -71t-163.5 -40t-174 -11.5q-194 0 -346 84t-213 244l143 84q57 -125 169.5 -187t254.5 -65
q123 -3 221 21.5t162 81t74 137.5q7 62 -4 106t-36 74t-76 51.5t-108 34.5t-149 27q-53 9 -98.5 19.5t-95 26t-89 36.5t-76.5 47.5t-61 61t-39 75.5t-14.5 93t16.5 112q89 327 617 327q139 0 260.5 -56t203.5 -157z" />
    <glyph glyph-name="scommaaccent" unicode="&#x219;" horiz-adv-x="1015" 
d="M332 -360v-2q-53 13 -53 69q0 73 62 104q52 26 101 3q45 -22 45 -76q0 -13 -18.5 -52t-56 -110t-56.5 -111h-104zM936 895l-100 -107q-110 99 -279 99q-117 0 -193.5 -42t-76.5 -124q0 -32 18 -56t52.5 -38.5t70.5 -23t86 -15.5q65 -9 111.5 -19t105 -33t93 -53.5t54 -83
t9.5 -120.5q-15 -98 -84.5 -167.5t-165 -100.5t-207.5 -31q-136 0 -251 49.5t-181 142.5l108 109q125 -152 334 -152q43 0 86.5 7.5t87 24t74 48.5t37.5 76q7 38 -8.5 67t-51.5 47t-80 29t-106 18q-57 8 -104 18.5t-96 31t-81.5 47.5t-53.5 68.5t-21 93.5q0 85 40 149.5
t106.5 101t142 54.5t157.5 20q114 0 203.5 -29.5t163.5 -105.5z" />
    <glyph glyph-name="uni021A" unicode="&#x21a;" horiz-adv-x="1228" 
d="M641 1268h-489l28 164h1161l-28 -164h-490l-223 -1268h-182zM408 -371l-2 2q-56 14 -56 74q0 75 64 108q54 27 105 4q50 -23 50 -81q0 -9 -7.5 -29t-22.5 -50.5t-30 -59.5t-38 -74t-39 -76h-110z" />
    <glyph glyph-name="uni021B" unicode="&#x21b;" horiz-adv-x="802" 
d="M553 1307l-53 -297h313l-25 -144h-315l-94 -534q-16 -95 11.5 -144t113.5 -49q70 0 149 37l23 -141q-107 -46 -205 -49q-160 -3 -224 86.5t-34 259.5l94 534h-203l25 144h203l49 278zM303 -358l-2 -4q-51 13 -51 69q0 73 62 104q53 26 101 3q44 -22 44 -74q0 -13 -18 -51
t-55.5 -111t-55.5 -110h-107z" />
    <glyph glyph-name="dotlessj" unicode="&#x237;" horiz-adv-x="473" 
d="M391 1014l2 2l-203 -1147q-31 -183 -116.5 -278t-247.5 -95q-103 0 -191 58l80 135q62 -38 131 -35q45 1 76 15.5t50.5 45.5t30 65t20.5 87l202 1147h166z" />
    <glyph glyph-name="circumflex" unicode="&#x2c6;" horiz-adv-x="866" 
d="M612 1448h109l246 -274l-2 -15h-168l-148 162l-203 -162h-180l2 15z" />
    <glyph glyph-name="caron" unicode="&#x2c7;" horiz-adv-x="827" 
d="M305 1421l4 15h166l150 -168l209 168h178l-4 -15l-346 -276h-107z" />
    <glyph glyph-name="breve" unicode="&#x2d8;" horiz-adv-x="714" 
d="M877 1434q-20 -133 -113.5 -207t-218.5 -72q-128 0 -195 74t-39 203h131q-10 -63 17 -104.5t100 -41.5t120 42.5t58 105.5h140z" />
    <glyph glyph-name="dotaccent" unicode="&#x2d9;" horiz-adv-x="413" 
d="M297 1335q14 70 79 98q58 24 106 -2q51 -29 38 -98q-15 -70 -80 -98q-59 -24 -106 3q-50 29 -37 97z" />
    <glyph glyph-name="ring" unicode="&#x2da;" horiz-adv-x="737" 
d="M317 1249q19 103 100 161t179 58q87 0 147 -49t60 -137q0 -117 -86 -186.5t-201 -69.5q-39 0 -77.5 14t-69.5 40.5t-46.5 70.5t-5.5 98zM578 1360q-80 0 -121 -64q-35 -54 -15 -105q21 -56 95 -56q83 0 124 64q35 53 14 105q-22 56 -97 56z" />
    <glyph glyph-name="ogonek" unicode="&#x2db;" horiz-adv-x="804" 
d="M475 -119l-2 2q-69 14 -131 -2.5t-96.5 -55t-26.5 -85.5q5 -30 30.5 -47.5t69.5 -16.5q95 4 162 74l84 -63q-46 -65 -115.5 -100.5t-146.5 -37.5q-91 -1 -152.5 40.5t-72.5 109.5q-5 40 5 80.5t36.5 79.5t72.5 66t112 39t155 -1z" />
    <glyph glyph-name="tilde" unicode="&#x2dc;" horiz-adv-x="733" 
d="M399 1300l-102 56q40 93 115.5 134t156.5 11q20 -7 48.5 -23t48 -25t43.5 -13t45.5 11t42.5 50l102 -47q-41 -101 -115 -138.5t-145 -6.5q-13 3 -54.5 27t-49.5 26q-30 15 -70 0.5t-66 -62.5z" />
    <glyph glyph-name="hungarumlaut" unicode="&#x2dd;" horiz-adv-x="796" 
d="M244 1180l194 256h199l-2 -4l-232 -252h-159zM557 1178l197 258h204l-2 -4l-241 -254h-158z" />
    <glyph glyph-name="commaaccentcomb" unicode="&#x326;" horiz-adv-x="0" 
d="M391 -367h2q-26 6 -41.5 26t-15.5 50q0 76 64 109q55 28 107 4q51 -24 52 -82q0 -15 -17.5 -52.5t-61 -120t-62.5 -120.5h-113z" />
    <glyph glyph-name="_375" unicode="&#x394;" horiz-adv-x="1419" 
d="M1391 0h-1407l895 1434h120zM903 1233l-663 -1086h948z" />
    <glyph glyph-name="Omega" unicode="&#x3a9;" horiz-adv-x="1679" 
d="M96 156h250q-110 73 -167.5 196.5t-57.5 268.5q0 161 64 312.5t176 268.5t276.5 187.5t353.5 70.5q147 0 265.5 -48.5t194 -132.5t115.5 -195t40 -238q0 -217 -110.5 -397.5t-319.5 -294.5h251l-26 -156h-512l29 160q155 41 272.5 146t176 239t58.5 276q0 78 -14 145.5
t-48 129t-86 104.5t-132 68.5t-182 25.5q-153 0 -281 -58t-210 -152.5t-127.5 -212.5t-45.5 -242q0 -165 79.5 -295t231.5 -172l-28 -160h-512z" />
    <glyph glyph-name="mu" unicode="&#x3bc;" horiz-adv-x="1239" 
d="M-16 -453v2l254 1444h176l-103 -575q-25 -143 52 -227.5t200 -84.5q78 0 150 34.5t129.5 113t77.5 188.5l96 549h176l-174 -991h-158l8 125q-57 -82 -150 -125t-186 -43q-102 0 -176 40t-96 130l-102 -580h-174z" />
    <glyph glyph-name="pi" unicode="&#x3c0;" horiz-adv-x="1386" 
d="M180 0l-4 -2l154 866h-234l27 146h1270l-27 -146h-238l-98 -561q-19 -104 15.5 -149.5t150.5 -26.5l-14 -133q-193 -34 -271 48.5t-45 260.5l99 563h-467l-152 -866h-166z" />
    <glyph glyph-name="Wgrave" unicode="&#x1e80;" horiz-adv-x="2215" 
d="M1061 1853v5h201l104 -254l-2 -11h-152zM197 1434h194l123 -807l49 -406l203 397l424 816h115l131 -816l53 -411l199 411l415 816h197l-750 -1436h-188l-107 674l-59 442l-221 -444l-348 -672h-183z" />
    <glyph glyph-name="wgrave" unicode="&#x1e81;" horiz-adv-x="1716" 
d="M760 1427v7h190l99 -238l-2 -10h-142zM129 1008h178l123 -830l426 830h137l129 -832l412 832h184l-532 -1010h-187l-114 752l-387 -752h-189z" />
    <glyph glyph-name="Wacute" unicode="&#x1e82;" horiz-adv-x="2215" 
d="M1190 1606l188 241h201l-2 -6l-236 -244h-153zM197 1434h194l123 -807l49 -406l203 397l424 816h115l131 -816l53 -411l199 411l415 816h197l-750 -1436h-188l-107 674l-59 442l-221 -444l-348 -672h-183z" />
    <glyph glyph-name="wacute" unicode="&#x1e83;" horiz-adv-x="1716" 
d="M866 1198l178 236h189v-7l-227 -237h-142zM129 1008h178l123 -830l426 830h137l129 -832l412 832h184l-532 -1010h-187l-114 752l-387 -752h-189z" />
    <glyph glyph-name="Wdieresis" unicode="&#x1e84;" horiz-adv-x="2215" 
d="M860 1671q14 70 79 98q58 24 106 -2q51 -29 38 -98q-15 -70 -80 -98q-59 -24 -106 3q-50 29 -37 97zM1483 1671q14 70 79 98q58 24 106 -2q51 -29 38 -98q-15 -70 -80 -98q-59 -24 -106 3q-50 29 -37 97zM197 1434h194l123 -807l49 -406l203 397l424 816h115l131 -816
l53 -411l199 411l415 816h197l-750 -1436h-188l-107 674l-59 442l-221 -444l-348 -672h-183z" />
    <glyph glyph-name="wdieresis" unicode="&#x1e85;" horiz-adv-x="1716" 
d="M610 1337q14 71 80 98q60 24 107 -3q49 -30 37 -97q-15 -71 -82 -98q-59 -24 -105 3q-50 29 -37 97zM1128 1337q14 71 80 98q60 24 107 -3q49 -30 37 -97q-15 -71 -82 -98q-59 -24 -105 3q-50 29 -37 97zM129 1008h178l123 -830l426 830h137l129 -832l412 832h184
l-532 -1010h-187l-114 752l-387 -752h-189z" />
    <glyph glyph-name="Ygrave" unicode="&#x1ef2;" horiz-adv-x="1388" 
d="M637 1794v4h197l84 -244l-3 -10h-145zM590 586l-408 841l2 7h197l319 -689l574 689h213l-2 -7l-711 -841l-106 -586h-185z" />
    <glyph glyph-name="ygrave" unicode="&#x1ef3;" horiz-adv-x="1245" 
d="M506 1430v4h196l101 -230l-2 -10h-146zM979 -43q-22 -124 -74 -218t-127 -150.5t-163.5 -84.5t-190.5 -28q-208 0 -312 98t-85 281h159q-13 -117 53.5 -173.5t200.5 -56.5q321 0 379 334l35 201q-146 -173 -385 -176q-197 0 -295.5 125.5t-60.5 343.5l98 555h168
l-98 -553q-57 -316 227 -316q138 2 253 98t140 232l94 539h168z" />
    <glyph glyph-name="endash" unicode="&#x2013;" horiz-adv-x="1230" 
d="M156 662h938l-29 -158h-938z" />
    <glyph glyph-name="emdash" unicode="&#x2014;" horiz-adv-x="1439" 
d="M156 662h1147l-29 -158h-1147z" />
    <glyph glyph-name="quoteleft" unicode="&#x2018;" horiz-adv-x="487" 
d="M532 1436l-163 -392h-181l207 392h137z" />
    <glyph glyph-name="quoteright" unicode="&#x2019;" horiz-adv-x="477" 
d="M190 1036l168 400h181l-209 -400h-140z" />
    <glyph glyph-name="quotesinglbase" unicode="&#x201a;" horiz-adv-x="501" 
d="M-68 -254l164 397h180l-206 -397h-138z" />
    <glyph glyph-name="quotedblleft" unicode="&#x201c;" horiz-adv-x="786" 
d="M530 1430l-165 -396h-181l209 396h137zM829 1430l-167 -396h-181l209 396h139z" />
    <glyph glyph-name="quotedblright" unicode="&#x201d;" horiz-adv-x="778" 
d="M197 1047l165 389h181l-207 -389h-139zM496 1047l163 389h181l-207 -389h-137z" />
    <glyph glyph-name="quotedblbase" unicode="&#x201e;" horiz-adv-x="794" 
d="M-66 -236l166 398h181l-207 -398h-140zM233 -236l164 398h181l-207 -398h-138z" />
    <glyph glyph-name="dagger" unicode="&#x2020;" horiz-adv-x="1169" 
d="M1145 885h-422l-201 -1141h-178l201 1141h-424l26 153h424l70 396h178l-69 -396h421z" />
    <glyph glyph-name="daggerdbl" unicode="&#x2021;" 
d="M1186 887h-424l-92 -518h424l-27 -154h-424l-84 -479h-178l84 479h-424l27 154h424l92 518h-424l26 153h424l70 394h178l-70 -394h424z" />
    <glyph glyph-name="bullet" unicode="&#x2022;" horiz-adv-x="806" 
d="M360 350v2q-88 0 -141 51t-53 136q0 113 79.5 187.5t192.5 74.5q85 0 138 -52t53 -137q0 -114 -80 -188t-189 -74z" />
    <glyph glyph-name="ellipsis" unicode="&#x2026;" horiz-adv-x="1363" 
d="M47 92q14 70 79 98q58 24 106 -2q51 -29 38 -98q-15 -70 -80 -98q-59 -24 -106 3q-50 29 -37 97zM485 92q14 71 80 98q60 24 107 -3q49 -30 37 -97q-15 -71 -82 -98q-59 -24 -105 3q-50 29 -37 97zM924 92q14 70 79 98q58 24 106 -2q51 -29 38 -98q-15 -70 -80 -98
q-59 -24 -106 3q-50 29 -37 97z" />
    <glyph glyph-name="perthousand" unicode="&#x2030;" horiz-adv-x="2285" 
d="M557 1452q166 0 236 -114q58 -96 25 -224q-33 -130 -140 -210q-100 -75 -232 -75q-165 0 -234 114q-59 96 -26 224q34 130 140 210q99 75 231 75zM1280 1427h188l-1177 -1437h-191zM543 1325q-108 0 -176 -87q-58 -74 -50 -156q7 -83 80 -110q28 -11 64 -11q108 0 176 87
q58 74 50 156q-7 83 -80 110q-28 11 -64 11zM1141 608h-2q166 0 236 -114q58 -96 25 -224q-34 -130 -140 -209q-100 -75 -232 -75q-166 0 -235 114q-58 96 -24 224q34 130 140 209q100 75 232 75zM1122 477q-109 0 -176 -87q-55 -73 -46 -154q10 -81 83 -107q27 -10 61 -10
q112 0 179 87q56 72 47 152q-9 82 -83 109q-29 10 -65 10zM1896 608h-2q166 0 236 -114q59 -96 26 -224q-34 -129 -140 -209q-100 -75 -232 -75q-166 0 -235 114q-58 96 -25 224q34 130 140 209q100 75 232 75zM1878 477q-109 0 -176 -87q-55 -73 -46 -154q10 -81 83 -107
q27 -10 61 -10q112 0 179 87q56 72 47 152q-9 82 -83 109q-29 10 -65 10z" />
    <glyph glyph-name="guilsinglleft" unicode="&#x2039;" horiz-adv-x="651" 
d="M92 610l361 451h180l-359 -451l201 -452h-180z" />
    <glyph glyph-name="guilsinglright" unicode="&#x203a;" horiz-adv-x="653" 
d="M20 156l363 465l-203 438h176l207 -451l-362 -452h-181z" />
    <glyph glyph-name="fraction" unicode="&#x2044;" horiz-adv-x="303" 
d="M-424 -6l1032 1450h158l-1032 -1450h-158z" />
    <glyph glyph-name="zerosuperior" unicode="&#x2070;" horiz-adv-x="792" 
d="M215 1356v2q30 172 165 262q113 76 242 62q124 -13 186 -103q60 -89 36 -223l-21 -109q-32 -173 -169 -264q-113 -76 -241 -63q-123 13 -184 104q-59 88 -34 223zM326 1247q-20 -117 53 -171q61 -45 144 -21q90 26 135 114q18 36 26 78l21 111q23 121 -50 176
q-60 46 -143 22q-90 -25 -137 -115q-20 -38 -29 -83z" />
    <glyph glyph-name="foursuperior" unicode="&#x2074;" horiz-adv-x="745" 
d="M772 1673l-84 -469h88l-20 -121h-88l-27 -147h-133l27 147h-394l15 111l436 479h180zM555 1204l61 340l-313 -340h252z" />
    <glyph glyph-name="fivesuperior" unicode="&#x2075;" horiz-adv-x="737" 
d="M506 1405l2 -4q125 0 193.5 -51t68.5 -148q0 -132 -96 -208t-250 -76q-58 0 -106 11.5t-86.5 36t-55 69.5t-6.5 106h131q-10 -54 31 -78.5t110 -24.5q97 0 142 40t45 104q0 46 -34 75t-110 29h-274l68 385h530l-21 -119h-401l-27 -147h146z" />
    <glyph glyph-name="sixsuperior" unicode="&#x2076;" horiz-adv-x="770" 
d="M354 1329q30 29 80.5 43t100.5 14q53 0 97.5 -9.5t83 -31t60 -60.5t21.5 -93q0 -72 -31 -127.5t-82.5 -87t-110 -47t-120.5 -15.5q-57 0 -107 14.5t-88.5 42.5t-56 75t-6.5 108l51 285q22 118 118 178.5t216 60.5q125 0 198 -50.5t60 -151.5h-133q3 41 -35 62.5
t-111 21.5q-72 0 -120.5 -29.5t-59.5 -91.5zM469 1028q74 0 130.5 34t59.5 105q1 52 -40 78.5t-101 26.5q-75 0 -134 -36t-62 -103q-1 -53 41 -78t106 -27z" />
    <glyph glyph-name="sevensuperior" unicode="&#x2077;" horiz-adv-x="649" 
d="M248 1671h547l-2 -57l-471 -680h-154l434 616h-377z" />
    <glyph glyph-name="eightsuperior" unicode="&#x2078;" horiz-adv-x="786" 
d="M168 1130l4 3q10 61 57.5 109t112.5 67q-46 18 -73 53t-27 82q0 61 30 108.5t80 74.5t107.5 40.5t118.5 13.5q110 0 188 -45.5t78 -136.5q0 -134 -156 -192q50 -17 80.5 -59.5t30.5 -94.5q0 -67 -32.5 -117.5t-86.5 -77.5t-114 -40t-126 -13q-46 0 -87.5 6.5t-80 23
t-64.5 41.5t-37.5 64.5t-2.5 89.5zM705 1468v-2q8 53 -36.5 79t-105.5 26q-42 0 -80.5 -10t-69 -38t-30.5 -69q0 -45 39.5 -67.5t103.5 -22.5q70 0 120.5 26t58.5 78zM659 1133v-5q0 57 -43 88t-110 31q-77 0 -137 -33.5t-60 -95.5q0 -46 47 -72t109 -26q43 0 85 12
t74.5 38.5t34.5 62.5z" />
    <glyph glyph-name="ninesuperior" unicode="&#x2079;" horiz-adv-x="770" 
d="M821 1444l-47 -289q-14 -80 -67 -136t-121.5 -80t-145.5 -24q-125 0 -199 51t-61 152h133q-3 -41 35 -62.5t111 -21.5q72 0 122.5 30t61.5 91l21 113q-33 -29 -84 -44.5t-99 -15.5q-53 0 -97 9.5t-82.5 31t-60.5 61.5t-22 95q0 72 31.5 127.5t83 86.5t110 46.5
t121.5 15.5q122 0 199 -60.5t57 -176.5zM545 1563q-74 0 -130.5 -34t-56.5 -104q0 -52 42.5 -78t103.5 -26q75 0 132.5 36t57.5 103q0 53 -42.5 78t-106.5 25z" />
    <glyph glyph-name="zeroinferior" unicode="&#x2080;" horiz-adv-x="792" 
d="M18 250q30 172 164 262q112 76 240 63q125 -13 187 -104q61 -88 38 -221l-18 -109q-29 -172 -164 -263q-111 -76 -240 -62q-124 13 -187 103q-61 88 -38 222zM129 139q-20 -117 53 -171q61 -45 144 -21q90 26 135 114q18 36 26 78l21 109q23 121 -50 177q-60 45 -143 21
q-89 -26 -137 -115q-20 -38 -28 -83z" />
    <glyph glyph-name="oneinferior" unicode="&#x2081;" horiz-adv-x="520" 
d="M-43 -57h129l84 469l-117 -27l23 119l256 59l-111 -620h131l-20 -119h-395z" />
    <glyph glyph-name="twoinferior" unicode="&#x2082;" horiz-adv-x="741" 
d="M39 352h4q11 60 44 105.5t79 71t96.5 37.5t104.5 12q112 0 183 -45t71 -144q0 -55 -14.5 -98.5t-41.5 -71t-56 -46.5t-69.5 -29.5t-69.5 -15t-67 -7.5q-34 -3 -60 -8t-56 -17t-50 -35.5t-26 -56.5l-9 -43h435l-23 -133h-571l30 178q10 56 39.5 98.5t73.5 67t91.5 38
t101.5 17.5q95 7 148.5 38t53.5 102q0 92 -139 92q-148 0 -170 -107h-133z" />
    <glyph glyph-name="threeinferior" unicode="&#x2083;" horiz-adv-x="749" 
d="M113 39v6q-9 -104 139 -104q44 0 81.5 8.5t69 37t31.5 74.5q0 37 -34.5 66t-106.5 29h-113l21 108h104q74 0 123 25t49 84q0 35 -33.5 62.5t-101.5 27.5q-150 0 -178 -107h-121q19 110 110.5 164.5t206.5 54.5q67 0 122.5 -19.5t92.5 -62t37 -102.5q0 -66 -39 -117.5
t-100 -66.5q48 -14 74 -53.5t26 -85.5q0 -69 -31.5 -120.5t-84 -79.5t-110.5 -41t-122 -13q-56 0 -103 12t-85.5 37.5t-56 70.5t-7.5 105h140z" />
    <glyph glyph-name="fourinferior" unicode="&#x2084;" horiz-adv-x="745" 
d="M578 563l-84 -471h86l-21 -121h-86l-27 -147h-133l27 147h-393l14 113l436 479h181zM360 92l62 342l-313 -342h251z" />
    <glyph glyph-name="fiveinferior" unicode="&#x2085;" horiz-adv-x="739" 
d="M311 297l2 -2q125 0 193.5 -51t68.5 -148q0 -134 -96 -210t-250 -76q-59 0 -106.5 11.5t-86 36t-55 70t-6.5 107.5h131q-10 -54 31.5 -78.5t110.5 -24.5q95 0 140.5 40t45.5 102q0 46 -33.5 75t-109.5 29h-275l68 387h530l-20 -119h-401l-27 -149h145z" />
    <glyph glyph-name="sixinferior" unicode="&#x2086;" horiz-adv-x="768" 
d="M182 336l-22 -113q63 60 178 60q42 0 78.5 -5.5t71 -20t59 -36t39 -55.5t14.5 -78q0 -72 -31 -127.5t-82.5 -86.5t-110 -46.5t-120.5 -15.5q-57 0 -107 14t-88.5 42t-56 75t-6.5 108l51 285q22 118 118 178.5t216 60.5q125 0 198 -50.5t60 -151.5h-133q3 42 -33 64
t-113 22q-71 0 -120 -30.5t-60 -92.5zM270 -76q74 0 132 34t61 105q1 52 -38.5 78.5t-100.5 26.5q-76 0 -136 -36t-63 -103q-1 -53 40 -78t105 -27z" />
    <glyph glyph-name="seveninferior" unicode="&#x2087;" horiz-adv-x="643" 
d="M47 563h547v-57l-471 -682h-154l434 618h-376z" />
    <glyph glyph-name="eightinferior" unicode="&#x2088;" horiz-adv-x="786" 
d="M-25 37q12 61 60 109t115 67q-47 18 -74 53.5t-27 83.5q0 61 30 108.5t80 75t107.5 41t118.5 13.5q110 0 188 -45.5t78 -136.5q0 -140 -155 -191q50 -17 80 -59.5t30 -94.5q0 -67 -32 -117.5t-85.5 -78t-114 -40.5t-126.5 -13q-59 0 -109.5 11.5t-93 36t-62 70
t-8.5 107.5zM510 383q0 47 -43 69.5t-98 22.5q-42 0 -80.5 -10t-69.5 -38.5t-31 -70.5q0 -45 40 -67.5t104 -22.5q76 0 127 29.5t51 87.5zM467 51q0 50 -46.5 77.5t-109.5 27.5q-78 0 -137 -33.5t-59 -97.5q0 -47 46.5 -73t108.5 -26q73 0 135 33.5t62 91.5z" />
    <glyph glyph-name="nineinferior" unicode="&#x2089;" horiz-adv-x="770" 
d="M627 336l-49 -283q-14 -80 -67 -136t-121 -79.5t-144 -23.5q-125 0 -199 51t-61 151h133q-3 -41 34.5 -62.5t110.5 -21.5q72 0 121 30t59 91l19 111q-69 -60 -176 -60q-50 0 -94 10.5t-83 33t-62 64t-23 97.5q2 56 23.5 101.5t55.5 75.5t78.5 50.5t91 29.5t95.5 9
q57 0 106.5 -14t88 -42t56 -75t7.5 -108zM352 461q-74 2 -131.5 -32t-60.5 -105q-1 -52 39.5 -78.5t101.5 -26.5q76 0 135 36t62 103q1 53 -39.5 78t-106.5 25z" />
    <glyph glyph-name="Euro" unicode="&#x20ac;" horiz-adv-x="1257" 
d="M1077 16l-2 -6q-128 -41 -258 -41q-155 0 -271.5 38.5t-188.5 110.5t-109 169.5t-41 220.5h-135l24 141h115q0 19 7.5 61.5t12.5 57.5h-116l26 143h138q44 118 115.5 215t169.5 171.5t229 115.5t282 41q97 0 209 -33l-76 -139q-76 21 -153 21q-218 0 -369.5 -101.5
t-232.5 -290.5h534l-61 -143h-535q-2 -9 -6 -29.5t-6 -29.5q-6 -42 -6 -54h504l-56 -141h-454q-1 -187 124 -288t355 -101q103 0 207 37z" />
    <glyph glyph-name="afii61289" unicode="&#x2113;" horiz-adv-x="823" 
d="M362 301q-15 -90 55 -126t189 -9l-26 -141q-104 -32 -187.5 -32.5t-143.5 32t-84 111.5t-3 198l-109 -49l-12 94q70 27 137 61l121 682q31 165 129 253.5t248 88.5q82 0 132 -45t59.5 -133t-33.5 -217q-87 -299 -437 -573zM502 1122q-19 -111 -88 -485q110 105 201.5 224
t123.5 226q9 29 14 48.5t11 50.5t6.5 52t-3.5 45.5t-16 39.5t-34 25t-53 10q-58 0 -102 -70.5t-60 -165.5z" />
    <glyph glyph-name="uni2117" unicode="&#x2117;" horiz-adv-x="1710" 
d="M934 563q154 -1 247 110q75 89 73 201q-1 112 -81 171q-58 42 -145 42h-354l-135 -770h143l43 246h209zM743 684l50 277h217q85 0 106 -67q19 -60 -21 -126q-45 -73 -125 -83l-20 -1h-207zM1012 1466q150 -1 270 -50t195.5 -134t115 -196.5t39.5 -241.5
q0 -136 -40 -265.5t-117.5 -239t-183 -192t-246 -129.5t-297.5 -47q-152 0 -273 49t-198 134.5t-117.5 198.5t-40.5 243q0 171 64.5 328.5t179 278t283.5 192t366 71.5zM276 610q0 -106 30 -195.5t89 -159.5t155.5 -109.5t221.5 -39.5q156 0 289.5 58.5t223 157.5t140 229.5
t50.5 273.5q0 110 -26.5 198.5t-82.5 158t-152.5 107.5t-226.5 38q-156 0 -290.5 -58t-225.5 -156t-143 -228.5t-52 -274.5z" />
    <glyph glyph-name="trademark" unicode="&#x2122;" horiz-adv-x="1638" 
d="M932 1436h143l156 -256l250 256h139l-104 -586h-144l74 385l-238 -246h-28l-146 252l-63 -391h-144zM463 1315h-215l20 119h572l-21 -119h-217l-82 -465h-139z" />
    <glyph glyph-name="estimated" unicode="&#x212e;" horiz-adv-x="1316" 
d="M1075 213q-110 -125 -232.5 -176t-273.5 -51q-203 0 -328.5 127.5t-125.5 357.5q0 171 55 311t147.5 230t212.5 139t252 49q67 0 125.5 -10.5t112.5 -34t95.5 -59t70.5 -88.5t42 -120t7 -156t-33 -193h-823l-62 -349q99 -108 271 -108q126 0 229.5 44t192.5 146z
M1042 1016q-98 88 -276 88q-181 0 -303 -94l-68 -375h580z" />
    <glyph glyph-name="uni2153" unicode="&#x2153;" horiz-adv-x="1554" 
d="M137 827h129l84 469l-117 -26l23 119l256 59l-111 -621h131l-20 -116h-395zM295 -6h-152l1031 1450h155zM954 217h2q-9 -102 140 -102q31 0 60 5t58 17.5t46.5 38t17.5 60.5q0 37 -34.5 65.5t-106.5 28.5h-115l20 110h107q170 0 170 109q0 35 -33.5 62.5t-103.5 27.5
q-150 0 -178 -107h-119q19 110 111.5 165t207.5 55q104 0 177 -48t73 -137q0 -65 -38.5 -116t-100.5 -70q48 -14 74 -53.5t26 -85.5q0 -55 -21 -99t-55 -72t-80.5 -47t-94 -26.5t-97.5 -7.5q-56 0 -103 12.5t-85 38t-55 71t-7 105.5h137z" />
    <glyph glyph-name="uni2154" unicode="&#x2154;" horiz-adv-x="1716" 
d="M209 1227h6q11 60 44 105.5t79 70.5t96.5 37t104.5 12q112 0 183 -44.5t71 -143.5q0 -48 -12 -87.5t-30 -66.5t-46.5 -47.5t-54.5 -32t-61.5 -20t-60.5 -11.5t-57 -6q-170 -14 -188 -116l-9 -46h426l-22 -131h-561l30 179q19 106 101.5 159t193.5 62q49 5 83 13t64.5 23
t46 41t15.5 64q0 92 -139 92q-148 0 -170 -106h-133zM1339 1444h156l-1034 -1450h-154zM1186 330h-2l20 110h105q74 0 123 25t49 84q0 35 -33.5 62.5t-101.5 27.5q-62 0 -112.5 -24t-66.5 -83h-120q19 110 110.5 165t206.5 55q105 0 178.5 -48t73.5 -137q0 -66 -39 -116.5
t-102 -69.5q50 -14 76 -53.5t26 -85.5q0 -68 -31.5 -119t-84 -79t-111 -41t-121.5 -13q-56 0 -103 12.5t-85.5 38t-56 71t-7.5 105.5h139q-2 -32 10.5 -53.5t36.5 -31.5t46 -13.5t48 -3.5q32 0 60.5 5t58 17.5t47 38t17.5 60.5q0 37 -35 65.5t-107 28.5h-112z" />
    <glyph glyph-name="oneeighth" unicode="&#x215b;" horiz-adv-x="1603" 
d="M137 827h129l84 469l-117 -26l23 119l256 59l-111 -621h131l-20 -116h-395zM143 -6l1031 1450h155l-1034 -1450h-152zM829 209h2q10 61 58 109t115 67q-47 18 -74 53.5t-27 83.5q0 61 30 108.5t80 75t107.5 41t118.5 13.5q110 0 188 -45.5t78 -136.5q0 -140 -155 -191
q51 -17 80.5 -59.5t29.5 -94.5q0 -67 -32 -117.5t-85.5 -78t-113 -40.5t-125.5 -13q-46 0 -88 6.5t-81 23t-65 41.5t-38 64.5t-3 89.5zM1364 555q0 47 -43.5 69.5t-97.5 22.5q-69 0 -125 -29t-56 -90q0 -45 40 -67.5t104 -22.5q76 0 127 29.5t51 87.5zM1321 223
q0 50 -46.5 77.5t-109.5 27.5q-77 0 -136.5 -33.5t-59.5 -97.5q0 -47 46.5 -73t108.5 -26q73 0 135 33.5t62 91.5z" />
    <glyph glyph-name="threeeighths" unicode="&#x215c;" horiz-adv-x="1724" 
d="M342 1024h-4l20 111h107q170 0 170 108q0 35 -33.5 62.5t-101.5 27.5q-152 0 -176 -106h-121q19 110 110.5 164.5t206.5 54.5q106 0 179 -48t73 -138q0 -64 -37.5 -115t-99.5 -70q48 -14 74 -53.5t26 -85.5q0 -68 -31.5 -119t-84 -79t-111 -41t-121.5 -13
q-56 0 -103 12.5t-85.5 38t-56 71t-7.5 105.5h139q-2 -32 10.5 -53.5t36.5 -31.5t46.5 -13.5t48.5 -3.5q31 0 60 5t58 17.5t46.5 38t17.5 60.5q0 37 -34.5 65.5t-106.5 28.5h-115zM1305 1444h155l-1034 -1450h-152zM950 209h2q10 61 57.5 109t114.5 67q-47 18 -73.5 53
t-26.5 84q0 61 30 108.5t80 75t107.5 41t118.5 13.5q110 0 188 -45.5t78 -136.5q0 -69 -40 -117.5t-116 -73.5q51 -17 81 -59.5t30 -94.5q0 -67 -32 -117.5t-85.5 -78t-113 -40.5t-125.5 -13q-46 0 -88 6.5t-81 23t-65 41.5t-38 64.5t-3 89.5zM1485 555q0 46 -44 69t-98 23
q-69 0 -124.5 -29t-55.5 -90q0 -45 40 -67.5t104 -22.5q76 0 127 29.5t51 87.5zM1442 223q0 50 -46.5 77.5t-109.5 27.5q-77 0 -136.5 -33.5t-59.5 -97.5q0 -47 46.5 -73t108.5 -26q73 0 135 33.5t62 91.5z" />
    <glyph glyph-name="fiveeighths" unicode="&#x215d;" horiz-adv-x="1730" 
d="M281 -6l1030 1450h155l-1034 -1450h-151zM182 1051l70 385h528l-22 -119h-400l-24 -150h143q123 0 192.5 -52t69.5 -150q0 -131 -95.5 -207t-246.5 -76q-59 0 -107 11.5t-86.5 36t-55.5 70t-7 107.5h131q-10 -54 31 -78t111 -24q97 0 142.5 39.5t45.5 101.5
q0 46 -35 75.5t-112 29.5h-273zM956 209q12 61 60 109t114 67q-47 18 -73.5 53t-26.5 84q0 61 30 108.5t80 75t107.5 41t118.5 13.5q110 0 188 -45.5t78 -136.5q0 -140 -155 -191q51 -17 80.5 -59.5t29.5 -94.5q0 -67 -32 -117.5t-85.5 -78t-113 -40.5t-125.5 -13
q-46 0 -88 6.5t-81 23t-65 41.5t-38 64.5t-3 89.5zM1491 555q0 47 -43.5 69.5t-97.5 22.5q-69 0 -125 -29t-56 -90q0 -45 40 -67.5t104 -22.5q76 0 127 29.5t51 87.5zM1448 223q0 50 -46.5 77.5t-109.5 27.5q-77 0 -136.5 -33.5t-59.5 -97.5q0 -47 46.5 -73t108.5 -26
q73 0 135 33.5t62 91.5z" />
    <glyph glyph-name="seveneighths" unicode="&#x215e;" horiz-adv-x="1560" 
d="M1133 1444h155l-1034 -1450h-152zM580 1315h-377l20 121h547l-2 -60l-471 -680h-154zM788 209q13 61 62 109t115 67q-47 18 -75 53.5t-28 83.5q0 61 30 108.5t80 75t107.5 41t118.5 13.5q69 0 126.5 -17.5t97.5 -60t40 -104.5q0 -140 -155 -191q50 -17 80 -59.5t30 -94.5
q0 -67 -32 -117.5t-86 -78t-114 -40.5t-126 -13q-46 0 -88 6.5t-80.5 23t-64 41.5t-37 64.5t-1.5 89.5zM1323 543q7 37 -15.5 61.5t-55.5 33.5t-72 9q-41 0 -80.5 -10.5t-71 -39t-31.5 -69.5q0 -45 41 -67.5t105 -22.5q70 0 120 26.5t60 78.5zM1278 223q0 50 -45.5 77.5
t-108.5 27.5q-78 0 -137 -33.5t-59 -97.5q0 -47 46.5 -73t108.5 -26q73 0 134 33.5t61 91.5z" />
    <glyph glyph-name="arrowleft" unicode="&#x2190;" horiz-adv-x="1282" 
d="M94 719l535 452l76 -88l-338 -288h833l-26 -156h-834l231 -293l-102 -82z" />
    <glyph glyph-name="arrowup" unicode="&#x2191;" horiz-adv-x="1046" 
d="M643 1274l373 -457l-103 -90l-239 285l-148 -832h-155l147 832l-344 -283l-65 90z" />
    <glyph glyph-name="arrowright" unicode="&#x2192;" horiz-adv-x="1284" 
d="M1231 719l-537 -455l-76 88l336 291h-831l27 156h831l-229 291l104 84z" />
    <glyph glyph-name="arrowdown" unicode="&#x2193;" horiz-adv-x="1046" 
d="M442 154l-374 454l104 92l240 -284l147 831h156l-148 -831l342 280l68 -88z" />
    <glyph glyph-name="uni2196" unicode="&#x2196;" horiz-adv-x="1032" 
d="M219 1104h645l-20 -131h-408l486 -590l-131 -111l-484 590l-80 -405l-121 4z" />
    <glyph glyph-name="uni2197" unicode="&#x2197;" horiz-adv-x="1040" 
d="M879 459l-134 -2l72 405l-692 -590l-90 111l694 590l-405 6l24 123h643z" />
    <glyph glyph-name="uni2198" unicode="&#x2198;" horiz-adv-x="1120" 
d="M864 326h-643l19 123l407 8l-485 587l131 111l485 -588l72 406l129 -2z" />
    <glyph glyph-name="uni2199" unicode="&#x2199;" horiz-adv-x="1122" 
d="M270 971l131 2l-71 -406l690 588l92 -111l-694 -587l407 -8l-26 -123h-643z" />
    <glyph glyph-name="partialdiff" unicode="&#x2202;" horiz-adv-x="1230" 
d="M530 131q95 0 175 37t131.5 96.5t80.5 133t29 149.5q0 59 -17.5 112t-52 95t-91.5 67t-130 25q-95 0 -176 -37t-133 -96.5t-81 -133t-29 -149.5q0 -80 30 -146t98.5 -109.5t165.5 -43.5zM627 989q99 7 197 -24.5t153 -106.5q-18 101 -99.5 195.5t-185.5 155.5t-207 85
l62 138q288 -75 438 -268t150 -484q0 -317 -176.5 -508.5t-456.5 -191.5q-110 0 -196 35.5t-138.5 96t-79.5 136t-27 160.5q0 102 38.5 200.5t108.5 180.5t179.5 136.5t239.5 63.5z" />
    <glyph glyph-name="increment" unicode="&#x2206;" horiz-adv-x="1605" 
d="M1440 0h-1487l895 1434h201zM252 164h944l-281 1077z" />
    <glyph glyph-name="product" unicode="&#x220f;" horiz-adv-x="1406" 
d="M862 -387l291 1653h-668l-290 -1653h-183l322 1821h1032l-322 -1821h-182z" />
    <glyph glyph-name="summation" unicode="&#x2211;" horiz-adv-x="1196" 
d="M258 176h756l-31 -176h-1012l17 96l571 656l-317 604l12 78h969l-29 -168h-702l262 -518z" />
    <glyph glyph-name="minus" unicode="&#x2212;" horiz-adv-x="1087" 
d="M172 731h784l-28 -162h-785z" />
    <glyph glyph-name="uni2215" unicode="&#x2215;" horiz-adv-x="925" 
d="M-115 -6l1033 1450h157l-1032 -1450h-158z" />
    <glyph glyph-name="uni2219" unicode="&#x2219;" horiz-adv-x="507" 
d="M141 606q14 71 80 98q60 24 107 -3q49 -30 37 -97q-15 -71 -82 -98q-59 -24 -105 3q-50 29 -37 97z" />
    <glyph glyph-name="radical" unicode="&#x221a;" horiz-adv-x="1261" 
d="M645 0h-143l-215 705l-195 -78l-29 116l367 152l186 -696l654 1263l110 -32z" />
    <glyph glyph-name="infinity" unicode="&#x221e;" horiz-adv-x="1603" 
d="M399 340q-66 0 -118.5 18t-85.5 49t-54.5 72.5t-24 88.5t4.5 96q23 132 132.5 228.5t270.5 96.5q162 0 303 -221q225 221 379 221q83 0 145.5 -27.5t97 -73.5t47 -103.5t1.5 -120.5q-10 -62 -41.5 -119t-80 -103t-119.5 -73.5t-152 -28.5q-97 0 -171 58.5t-142 160.5
q-104 -102 -198.5 -160.5t-193.5 -58.5zM428 479q36 0 71 11.5t72.5 37t59.5 44t63 55.5q25 25 39 37l-20 32q-47 73 -97.5 115.5t-121.5 42.5q-108 0 -175 -67.5t-67 -151.5q0 -64 45 -108.5t131 -47.5zM1124 479q113 3 177.5 67.5t64.5 145.5q0 69 -44.5 115.5
t-131.5 46.5q-35 0 -68.5 -11t-69.5 -37t-58 -45t-62 -56q-9 -9 -14 -13l-31 -28q5 -5 13.5 -16.5t10.5 -14.5h-2q3 -3 17 -21t18 -23t17 -20.5t19 -21t19.5 -18t21.5 -17.5t22 -13t25.5 -11t26 -6t29.5 -3z" />
    <glyph glyph-name="integral" unicode="&#x222b;" horiz-adv-x="962" 
d="M463 1081l2 -2q31 173 137 270t266 97q121 0 217 -74l-92 -125q-76 51 -145 51q-85 0 -141 -54t-76 -165l-191 -1083q-31 -175 -131 -272t-258 -97q-105 0 -198 72l90 123q32 -29 57.5 -39t67.5 -10q165 0 204 225z" />
    <glyph glyph-name="approxequal" unicode="&#x2248;" horiz-adv-x="1161" 
d="M274 690l-98 64q59 91 150 134.5t178 20.5l274 -96q37 -17 69.5 -9.5t55.5 26.5t51 59l101 -51q-136 -223 -326 -154l-264 86q-51 20 -103.5 -3t-87.5 -77zM211 324l-100 63q59 92 149 135.5t178 20.5l273 -97q38 -17 71 -9.5t56 26.5t53 59l98 -51q-136 -224 -327 -154
l-265 86q-50 20 -101.5 -2.5t-84.5 -76.5z" />
    <glyph glyph-name="notequal" unicode="&#x2260;" horiz-adv-x="1128" 
d="M119 506h295l213 274h-461l29 158h555l116 149l72 -45l-82 -104h186l-28 -158h-279l-213 -274h445l-29 -158h-537l-118 -153l-74 47l82 106h-201z" />
    <glyph glyph-name="lessequal" unicode="&#x2264;" horiz-adv-x="921" 
d="M768 1253l72 -108l-451 -285l350 -297l-114 -106l-426 377l10 55zM96 328h635l-24 -142h-635z" />
    <glyph glyph-name="greaterequal" unicode="&#x2265;" horiz-adv-x="917" 
d="M815 889l-8 -55l-561 -377l-78 106l457 297l-349 285l111 108zM707 186h-637l24 142h637z" />
    <glyph glyph-name="lozenge" unicode="&#x25ca;" horiz-adv-x="1173" 
d="M547 14h-137l-316 707l565 704h138l321 -704zM283 719l223 -545l430 545l-238 545z" />
    <glyph glyph-name="fi" unicode="&#xfb01;" horiz-adv-x="1206" 
d="M924 1403l-2 2q-52 45 -170 45q-160 0 -267.5 -97.5t-138.5 -271.5l-14 -80h-197l-26 -145h198l-151 -854h168l151 854h307l27 145h-309l14 80q20 111 76 165t141 54q65 0 113 -30zM963 1018l-181 -1016h168l180 1016h-167zM999 1315q14 71 80 98q60 24 107 -3
q49 -30 37 -97q-15 -71 -82 -98q-59 -24 -105 3q-50 29 -37 97z" />
    <glyph glyph-name="fl" unicode="&#xfb02;" horiz-adv-x="1216" 
d="M850 1272h-2q-50 31 -115 31q-84 0 -140.5 -55.5t-76.5 -166.5l-14 -80h295l-27 -147h-295l-149 -852h-168l149 852h-198l26 147h199l14 80q31 173 137.5 270t266.5 97q93 0 166 -43zM1198 1434l-254 -1434h-168l254 1434h168z" />
    <glyph glyph-name="a.alt" horiz-adv-x="1142" 
d="M754 0l18 162q-75 -87 -185 -132.5t-222 -45.5q-148 0 -248.5 71.5t-100.5 210.5q0 95 41 169.5t109.5 118.5t149.5 66.5t169 22.5q204 0 340 -84l15 80q6 33 6 60.5t-5.5 49.5t-14.5 40t-23.5 31t-30 23t-37 16.5t-41 11t-44.5 6.5t-47 3t-48 1q-80 0 -175 -22t-167 -54
l-6 141q206 86 377 86q84 0 152.5 -12.5t127.5 -41t93 -74t49.5 -112t-2.5 -155.5l-105 -637h-145zM805 420q-57 38 -148 60t-172 22q-73 0 -135 -18.5t-108.5 -63.5t-57.5 -111q-8 -50 7 -86.5t49.5 -57t78 -29.5t97.5 -9q130 0 245 86t144 207z" />
    <glyph glyph-name="aacute.alt" horiz-adv-x="1142" 
d="M551 1188l2 10l178 236h203l-2 -7l-230 -239h-151zM754 0l18 162q-75 -87 -185 -132.5t-222 -45.5q-148 0 -248.5 71.5t-100.5 210.5q0 95 41 169.5t109.5 118.5t149.5 66.5t169 22.5q204 0 340 -84l15 80q6 33 6 60.5t-5.5 49.5t-14.5 40t-23.5 31t-30 23t-37 16.5
t-41 11t-44.5 6.5t-47 3t-48 1q-80 0 -175 -22t-167 -54l-6 141q206 86 377 86q84 0 152.5 -12.5t127.5 -41t93 -74t49.5 -112t-2.5 -155.5l-105 -637h-145zM805 420q-57 38 -148 60t-172 22q-73 0 -135 -18.5t-108.5 -63.5t-57.5 -111q-8 -50 7 -86.5t49.5 -57t78 -29.5
t97.5 -9q130 0 245 86t144 207z" />
    <glyph glyph-name="abreve.alt" horiz-adv-x="1142" 
d="M754 0l18 162q-75 -87 -185 -132.5t-222 -45.5q-148 0 -248.5 71.5t-100.5 210.5q0 95 41 169.5t109.5 118.5t149.5 66.5t169 22.5q204 0 340 -84l15 80q6 33 6 60.5t-5.5 49.5t-14.5 40t-23.5 31t-30 23t-37 16.5t-41 11t-44.5 6.5t-47 3t-48 1q-80 0 -175 -22t-167 -54
l-6 141q206 86 377 86q84 0 152.5 -12.5t127.5 -41t93 -74t49.5 -112t-2.5 -155.5l-105 -637h-145zM805 420q-57 38 -148 60t-172 22q-73 0 -135 -18.5t-108.5 -63.5t-57.5 -111q-8 -50 7 -86.5t49.5 -57t78 -29.5t97.5 -9q130 0 245 86t144 207zM987 1442
q-20 -133 -113.5 -207t-218.5 -72q-128 0 -194.5 74t-38.5 203h131q-10 -63 17 -104.5t100 -41.5t120 42.5t58 105.5h139z" />
    <glyph glyph-name="acircumflex.alt" horiz-adv-x="1142" 
d="M317 1180l338 270h105l244 -270l-3 -15h-165l-144 160l-200 -160h-177zM754 0l18 162q-75 -87 -185 -132.5t-222 -45.5q-148 0 -248.5 71.5t-100.5 210.5q0 95 41 169.5t109.5 118.5t149.5 66.5t169 22.5q204 0 340 -84l15 80q6 33 6 60.5t-5.5 49.5t-14.5 40t-23.5 31
t-30 23t-37 16.5t-41 11t-44.5 6.5t-47 3t-48 1q-80 0 -175 -22t-167 -54l-6 141q206 86 377 86q84 0 152.5 -12.5t127.5 -41t93 -74t49.5 -112t-2.5 -155.5l-105 -637h-145zM805 420q-57 38 -148 60t-172 22q-73 0 -135 -18.5t-108.5 -63.5t-57.5 -111q-8 -50 7 -86.5
t49.5 -57t78 -29.5t97.5 -9q130 0 245 86t144 207z" />
    <glyph glyph-name="adieresis.alt" horiz-adv-x="1142" 
d="M754 0l18 162q-75 -87 -185 -132.5t-222 -45.5q-148 0 -248.5 71.5t-100.5 210.5q0 95 41 169.5t109.5 118.5t149.5 66.5t169 22.5q204 0 340 -84l15 80q6 33 6 60.5t-5.5 49.5t-14.5 40t-23.5 31t-30 23t-37 16.5t-41 11t-44.5 6.5t-47 3t-48 1q-80 0 -175 -22t-167 -54
l-6 141q206 86 377 86q84 0 152.5 -12.5t127.5 -41t93 -74t49.5 -112t-2.5 -155.5l-105 -637h-145zM805 420q-57 38 -148 60t-172 22q-73 0 -135 -18.5t-108.5 -63.5t-57.5 -111q-8 -50 7 -86.5t49.5 -57t78 -29.5t97.5 -9q130 0 245 86t144 207zM348 1331q13 68 76 94
q56 23 101 -3q48 -29 36 -93q-14 -68 -78 -94q-57 -23 -101 3q-46 29 -34 93zM811 1331q14 68 78 94q57 24 102 -4q46 -28 35 -92q-15 -68 -79 -94q-57 -23 -102 3q-46 29 -34 93z" />
    <glyph glyph-name="agrave.alt" horiz-adv-x="1142" 
d="M471 1436l2 6h201l96 -244l-2 -10h-150zM754 0l18 162q-75 -87 -185 -132.5t-222 -45.5q-148 0 -248.5 71.5t-100.5 210.5q0 95 41 169.5t109.5 118.5t149.5 66.5t169 22.5q204 0 340 -84l15 80q6 33 6 60.5t-5.5 49.5t-14.5 40t-23.5 31t-30 23t-37 16.5t-41 11
t-44.5 6.5t-47 3t-48 1q-80 0 -175 -22t-167 -54l-6 141q206 86 377 86q84 0 152.5 -12.5t127.5 -41t93 -74t49.5 -112t-2.5 -155.5l-105 -637h-145zM805 420q-57 38 -148 60t-172 22q-73 0 -135 -18.5t-108.5 -63.5t-57.5 -111q-8 -50 7 -86.5t49.5 -57t78 -29.5t97.5 -9
q130 0 245 86t144 207z" />
    <glyph glyph-name="amacron.alt" horiz-adv-x="1142" 
d="M395 1407h609l-27 -141h-608zM754 0l18 162q-75 -87 -185 -132.5t-222 -45.5q-148 0 -248.5 71.5t-100.5 210.5q0 95 41 169.5t109.5 118.5t149.5 66.5t169 22.5q204 0 340 -84l15 80q6 33 6 60.5t-5.5 49.5t-14.5 40t-23.5 31t-30 23t-37 16.5t-41 11t-44.5 6.5t-47 3
t-48 1q-80 0 -175 -22t-167 -54l-6 141q206 86 377 86q84 0 152.5 -12.5t127.5 -41t93 -74t49.5 -112t-2.5 -155.5l-105 -637h-145zM805 420q-57 38 -148 60t-172 22q-73 0 -135 -18.5t-108.5 -63.5t-57.5 -111q-8 -50 7 -86.5t49.5 -57t78 -29.5t97.5 -9q130 0 245 86
t144 207z" />
    <glyph glyph-name="aogonek.alt" horiz-adv-x="1140" 
d="M213 803l-6 139q209 86 375 86q106 0 188 -20t143.5 -64.5t85.5 -122.5t5 -186l-127 -721q-63 8 -121 -8t-92 -48.5t-31 -70.5q2 -29 29 -48.5t71 -19.5q41 0 87.5 20t82.5 58l82 -63q-45 -63 -119 -98t-151 -37q-95 -1 -154.5 40.5t-62.5 110.5q-2 32 13 69.5t44.5 74
t81 64.5t115.5 38l22 164q-76 -87 -185.5 -131.5t-221.5 -44.5q-71 0 -132.5 16t-111.5 48.5t-78.5 86.5t-28.5 125q0 95 41 170t109.5 120t150 68t168.5 23q204 0 340 -84l15 80q10 57 -0.5 100.5t-36 70.5t-65.5 43.5t-84 23t-97 6.5q-79 0 -174 -22.5t-170 -55.5z
M801 414q-60 38 -149 61t-169 23q-56 0 -107 -12t-95 -36t-71.5 -65.5t-31.5 -95.5q-4 -56 28.5 -94t82 -53t112.5 -15q135 0 254 80.5t146 206.5z" />
    <glyph glyph-name="aring.alt" horiz-adv-x="1142" 
d="M469 1341q16 92 93 144.5t171 52.5q82 0 139.5 -44.5t57.5 -123.5q0 -70 -39.5 -122t-100.5 -77.5t-131 -25.5q-96 0 -148 51t-42 145zM713 1444q-75 0 -112 -58q-31 -49 -10 -94q22 -47 89 -47q79 0 117 58q31 48 9 93q-25 47 -93 48zM754 0l18 162q-75 -87 -185 -132.5
t-222 -45.5q-148 0 -248.5 71.5t-100.5 210.5q0 95 41 169.5t109.5 118.5t149.5 66.5t169 22.5q204 0 340 -84l15 80q6 33 6 60.5t-5.5 49.5t-14.5 40t-23.5 31t-30 23t-37 16.5t-41 11t-44.5 6.5t-47 3t-48 1q-80 0 -175 -22t-167 -54l-6 141q206 86 377 86
q84 0 152.5 -12.5t127.5 -41t93 -74t49.5 -112t-2.5 -155.5l-105 -637h-145zM805 420q-57 38 -148 60t-172 22q-73 0 -135 -18.5t-108.5 -63.5t-57.5 -111q-8 -50 7 -86.5t49.5 -57t78 -29.5t97.5 -9q130 0 245 86t144 207z" />
    <glyph glyph-name="aringacute.alt" horiz-adv-x="1142" 
d="M639 1528l162 176h192v-4l-202 -178h-154zM709 1468q-90 0 -159.5 -47.5t-84.5 -117.5q-11 -51 2.5 -94t60 -73t121.5 -30q100 0 172 56t72 153q0 72 -53.5 112.5t-130.5 40.5zM690 1376q69 0 88 -50q16 -45 -19 -87q-36 -45 -102 -45q-69 0 -87 50q-15 45 19 87
q38 44 101 45zM754 0l18 162q-75 -87 -185 -132.5t-222 -45.5q-148 0 -248.5 71.5t-100.5 210.5q0 95 41 169.5t109.5 118.5t149.5 66.5t169 22.5q204 0 340 -84l15 80q6 33 6 60.5t-5.5 49.5t-14.5 40t-23.5 31t-30 23t-37 16.5t-41 11t-44.5 6.5t-47 3t-48 1
q-80 0 -175 -22t-167 -54l-6 141q206 86 377 86q84 0 152.5 -12.5t127.5 -41t93 -74t49.5 -112t-2.5 -155.5l-105 -637h-145zM805 420q-57 38 -148 60t-172 22q-73 0 -135 -18.5t-108.5 -63.5t-57.5 -111q-8 -50 7 -86.5t49.5 -57t78 -29.5t97.5 -9q130 0 245 86t144 207z
" />
    <glyph glyph-name="atilde.alt" horiz-adv-x="1142" 
d="M375 1311q42 91 122.5 123.5t161.5 -0.5q12 -3 54 -27.5t51 -26.5q34 -12 67 2t56 58l102 -47q-41 -101 -116 -138t-148 -8q-12 3 -56 27t-57 26q-20 8 -35.5 11t-34.5 2t-36 -14t-31 -37zM754 0l18 162q-75 -87 -185 -132.5t-222 -45.5q-148 0 -248.5 71.5t-100.5 210.5
q0 95 41 169.5t109.5 118.5t149.5 66.5t169 22.5q204 0 340 -84l15 80q6 33 6 60.5t-5.5 49.5t-14.5 40t-23.5 31t-30 23t-37 16.5t-41 11t-44.5 6.5t-47 3t-48 1q-80 0 -175 -22t-167 -54l-6 141q206 86 377 86q84 0 152.5 -12.5t127.5 -41t93 -74t49.5 -112t-2.5 -155.5
l-105 -637h-145zM805 420q-57 38 -148 60t-172 22q-73 0 -135 -18.5t-108.5 -63.5t-57.5 -111q-8 -50 7 -86.5t49.5 -57t78 -29.5t97.5 -9q130 0 245 86t144 207z" />
    <glyph glyph-name="g.alt" horiz-adv-x="1255" 
d="M131 -170q-24 -143 56.5 -211t252.5 -68q59 0 115 9t109 29.5t92.5 51t63.5 78t24 105.5q0 101 -90 156t-226 55q-211 0 -333.5 109.5t-122.5 301.5q0 113 38 211t101.5 166t146 117t171 72.5t176.5 23.5q74 0 150.5 -19.5t123.5 -55.5l131 131l102 -95l-139 -135
q82 -113 82 -252q0 -102 -37.5 -199t-119.5 -178.5t-195 -115.5q213 -66 213 -273q0 -106 -53 -192.5t-139.5 -141t-193 -83.5t-218.5 -29q-234 0 -358 116t-85 316h162zM686 883q-119 0 -221 -54t-164.5 -152t-62.5 -218q-1 -132 84.5 -204.5t224.5 -72.5q179 0 308 120.5
t134 289.5q4 137 -82.5 214t-220.5 77z" />
    <glyph glyph-name="gbreve.alt" horiz-adv-x="1255" 
d="M1057 1450l-2 -2q-17 -127 -110 -199.5t-220 -72.5q-128 0 -193.5 72t-37.5 200h135q-12 -62 17 -103.5t104 -41.5q72 0 115.5 41.5t54.5 105.5h137zM131 -170q-24 -143 56.5 -211t252.5 -68q59 0 115 9t109 29.5t92.5 51t63.5 78t24 105.5q0 101 -90 156t-226 55
q-211 0 -333.5 109.5t-122.5 301.5q0 113 38 211t101.5 166t146 117t171 72.5t176.5 23.5q74 0 150.5 -19.5t123.5 -55.5l131 131l102 -95l-139 -135q82 -113 82 -252q0 -102 -37.5 -199t-119.5 -178.5t-195 -115.5q213 -66 213 -273q0 -106 -53 -192.5t-139.5 -141
t-193 -83.5t-218.5 -29q-234 0 -358 116t-85 316h162zM686 883q-119 0 -221 -54t-164.5 -152t-62.5 -218q-1 -132 84.5 -204.5t224.5 -72.5q179 0 308 120.5t134 289.5q4 137 -82.5 214t-220.5 77z" />
    <glyph glyph-name="gcircumflex.alt" horiz-adv-x="1255" 
d="M758 1468h108l246 -276l-2 -12h-172l-150 163l-204 -163h-172l2 12zM131 -170q-24 -143 56.5 -211t252.5 -68q59 0 115 9t109 29.5t92.5 51t63.5 78t24 105.5q0 101 -90 156t-226 55q-211 0 -333.5 109.5t-122.5 301.5q0 113 38 211t101.5 166t146 117t171 72.5
t176.5 23.5q74 0 150.5 -19.5t123.5 -55.5l131 131l102 -95l-139 -135q82 -113 82 -252q0 -102 -37.5 -199t-119.5 -178.5t-195 -115.5q213 -66 213 -273q0 -106 -53 -192.5t-139.5 -141t-193 -83.5t-218.5 -29q-234 0 -358 116t-85 316h162zM686 883q-119 0 -221 -54
t-164.5 -152t-62.5 -218q-1 -132 84.5 -204.5t224.5 -72.5q179 0 308 120.5t134 289.5q4 137 -82.5 214t-220.5 77z" />
    <glyph glyph-name="gcommaaccent.alt" horiz-adv-x="1255" 
d="M805 1374h-2q57 -13 57 -76q0 -75 -63 -107q-54 -27 -106 -5q-52 23 -52 82q0 15 14.5 46t52 99.5t60.5 112.5h113zM131 -170q-24 -143 56.5 -211t252.5 -68q59 0 115 9t109 29.5t92.5 51t63.5 78t24 105.5q0 101 -90 156t-226 55q-211 0 -333.5 109.5t-122.5 301.5
q0 113 38 211t101.5 166t146 117t171 72.5t176.5 23.5q74 0 150.5 -19.5t123.5 -55.5l131 131l102 -95l-139 -135q82 -113 82 -252q0 -102 -37.5 -199t-119.5 -178.5t-195 -115.5q213 -66 213 -273q0 -106 -53 -192.5t-139.5 -141t-193 -83.5t-218.5 -29q-234 0 -358 116
t-85 316h162zM686 883q-119 0 -221 -54t-164.5 -152t-62.5 -218q-1 -132 84.5 -204.5t224.5 -72.5q179 0 308 120.5t134 289.5q4 137 -82.5 214t-220.5 77z" />
    <glyph glyph-name="gdotaccent.alt" horiz-adv-x="1255" 
d="M131 -170q-24 -143 56.5 -211t252.5 -68q59 0 115 9t109 29.5t92.5 51t63.5 78t24 105.5q0 101 -90 156t-226 55q-211 0 -333.5 109.5t-122.5 301.5q0 113 38 211t101.5 166t146 117t171 72.5t176.5 23.5q74 0 150.5 -19.5t123.5 -55.5l131 131l102 -95l-139 -135
q82 -113 82 -252q0 -102 -37.5 -199t-119.5 -178.5t-195 -115.5q213 -66 213 -273q0 -106 -53 -192.5t-139.5 -141t-193 -83.5t-218.5 -29q-234 0 -358 116t-85 316h162zM686 883q-119 0 -221 -54t-164.5 -152t-62.5 -218q-1 -132 84.5 -204.5t224.5 -72.5q179 0 308 120.5
t134 289.5q4 137 -82.5 214t-220.5 77zM662 1329q14 70 79 98q58 24 106 -2q51 -29 38 -98q-15 -70 -80 -98q-59 -24 -106 3q-50 29 -37 97z" />
    <glyph glyph-name="y.alt" horiz-adv-x="1132" 
d="M1153 1008l-903 -1485h-180l297 491l-234 994h191l108 -523l60 -288l159 286l318 525h184z" />
    <glyph glyph-name="yacute.alt" horiz-adv-x="1136" 
d="M578 1184l192 252h203l-2 -6l-244 -256h-152zM1157 1008l-905 -1485h-180l297 491l-236 994h191l110 -523l60 -288l159 286l320 525h184z" />
    <glyph glyph-name="ycircumflex.alt" horiz-adv-x="1136" 
d="M332 1184l336 264h106l240 -264l-2 -13h-172l-144 154l-194 -154h-172zM1157 1008l-905 -1485h-180l297 491l-236 994h191l110 -523l60 -288l159 286l320 525h184z" />
    <glyph glyph-name="ydieresis.alt" horiz-adv-x="1136" 
d="M1157 1008l-905 -1485h-180l297 491l-236 994h191l110 -523l60 -288l159 286l320 525h184zM350 1323q14 70 79 98q58 24 106 -2q51 -29 38 -98q-15 -70 -80 -98q-59 -24 -106 3q-50 29 -37 97zM834 1323q14 70 79 98q58 24 106 -2q51 -29 38 -98q-15 -70 -80 -98
q-59 -24 -106 3q-50 29 -37 97z" />
    <glyph glyph-name="ygrave.alt" horiz-adv-x="1136" 
d="M463 1430l2 6h197l102 -252l-2 -10h-152zM1157 1008l-905 -1485h-180l297 491l-236 994h191l110 -523l60 -288l159 286l320 525h184z" />
    <glyph glyph-name="zero.denom" horiz-adv-x="792" 
d="M51 420q31 172 165 262q112 76 240 62q124 -12 187 -103q60 -88 37 -221l-18 -109q-30 -172 -165 -264q-111 -76 -239 -63q-125 13 -187 103q-62 89 -38 224zM164 309q-20 -116 54 -171q61 -44 144 -22q90 25 136 112q19 38 26 81l19 109q21 121 -52 176q-60 46 -143 22
q-90 -26 -136 -116q-20 -37 -28 -82z" />
    <glyph glyph-name="one.denom" horiz-adv-x="520" 
d="M-12 117h129l84 471l-117 -29l20 119l256 59l-108 -620h131l-21 -117h-395z" />
    <glyph glyph-name="two.denom" horiz-adv-x="739" 
d="M-27 0l4 2l31 178q35 205 330 230q176 10 176 133q0 92 -137 92q-150 0 -172 -107h-133q11 60 43.5 105.5t78.5 71t96.5 37.5t104.5 12q112 0 183 -45t71 -144q0 -47 -11 -85.5t-28 -65t-44 -46.5t-52 -32t-59.5 -20.5t-58.5 -12t-56 -6.5q-36 -4 -62 -9.5t-58.5 -17.5
t-52.5 -35.5t-26 -56.5l-8 -45h432l-22 -133h-570z" />
    <glyph glyph-name="three.denom" horiz-adv-x="749" 
d="M4 215h133q-2 -29 7 -49t22.5 -30t37 -15.5t38.5 -6.5t39 -1q32 0 60.5 5t57.5 17t46.5 37.5t17.5 60.5q0 37 -34.5 66t-106.5 29h-115l20 110h107q71 0 119.5 27t48.5 88q0 34 -32 59t-101 25q-38 0 -71 -7.5t-64.5 -33t-40.5 -66.5h-121q19 110 110.5 165t206.5 55
q106 0 179 -48.5t73 -138.5q0 -64 -37.5 -114.5t-99.5 -69.5q48 -14 74 -53.5t26 -85.5q0 -68 -31.5 -119t-84 -79t-111 -41t-121.5 -13q-56 0 -103 12.5t-85.5 38t-56 71t-7.5 105.5z" />
    <glyph glyph-name="four.denom" horiz-adv-x="745" 
d="M608 739l-84 -469h86l-20 -120h-86l-27 -148h-133l27 148h-394l15 110l436 479h180zM391 270l62 340l-314 -340h252z" />
    <glyph glyph-name="five.denom" horiz-adv-x="739" 
d="M342 471q127 0 195.5 -51.5t68.5 -149.5q0 -134 -96 -210t-250 -76q-59 0 -106.5 11.5t-86 36t-55 70t-6.5 107.5h131q-10 -54 31.5 -78.5t110.5 -24.5q95 0 140.5 40t45.5 102q0 46 -33.5 75t-109.5 29h-275l68 387h530l-20 -121h-402l-26 -147h145z" />
    <glyph glyph-name="six.denom" horiz-adv-x="770" 
d="M213 512l-23 -113q72 60 179 60q42 0 78.5 -5.5t71 -20t59 -36t39 -55.5t14.5 -78q0 -72 -31 -127.5t-82.5 -86.5t-110 -46.5t-120.5 -15.5q-57 0 -107 14t-88.5 42t-56 75t-6.5 108l51 285q22 118 118 179t216 61q125 0 198 -51t60 -152h-133q3 41 -35 62.5t-111 21.5
q-72 0 -120.5 -29.5t-59.5 -91.5zM299 102q74 0 132.5 34.5t62.5 105.5q3 52 -37.5 78t-100.5 26q-76 0 -136 -36t-64 -103q-3 -53 38 -78t105 -27z" />
    <glyph glyph-name="seven.denom" horiz-adv-x="649" 
d="M82 739h547l-2 -59l-471 -680h-154l434 618h-377z" />
    <glyph glyph-name="eight.denom" horiz-adv-x="784" 
d="M8 207h2q10 61 57.5 109t114.5 67q-47 18 -74.5 53.5t-27.5 81.5q0 61 30 108.5t80 75t108 41t120 13.5q108 0 186 -46t78 -137q0 -140 -156 -190q50 -17 80.5 -59.5t30.5 -94.5q0 -67 -32 -117t-86 -77.5t-114 -40t-126 -12.5q-46 0 -88 6.5t-80.5 23t-64 41.5t-37 64.5
t-1.5 89.5zM543 543v-2q8 53 -36.5 78.5t-107.5 25.5q-42 0 -81.5 -10.5t-70 -38.5t-30.5 -68q0 -45 40 -67.5t105 -22.5q69 0 119.5 26t61.5 79zM496 207v-4q0 57 -43.5 88t-110.5 31q-77 0 -137 -33.5t-60 -95.5q0 -47 47 -73t109 -26q43 0 85.5 12t75 38.5t34.5 62.5z
" />
    <glyph glyph-name="nine.denom" horiz-adv-x="770" 
d="M657 512l-49 -289q-14 -80 -67 -136t-121 -79.5t-144 -23.5q-81 0 -141 20.5t-94 67.5t-25 116h134q-3 -84 145 -84q72 0 121.5 30t60.5 91l21 113q-71 -59 -181 -59q-52 0 -96.5 9.5t-83 31t-60.5 60.5t-22 93q0 72 31 127.5t82.5 87t110.5 47t122 15.5q122 0 199 -61
t57 -177zM387 633q-76 0 -134.5 -34t-62.5 -105q-3 -53 36.5 -79t103.5 -26q75 0 134.5 35.5t63.5 101.5q3 54 -36 80.5t-105 26.5z" />
    <glyph glyph-name="zero.num" horiz-adv-x="794" 
d="M174 1128v2q30 172 164 262q112 76 239 62q125 -13 188 -104q60 -88 38 -222l-17 -108q-29 -173 -164 -264q-111 -76 -239 -63q-124 13 -187 103q-61 89 -38 224zM291 1020q-24 -116 47 -170q59 -45 143 -23q91 25 139 112q20 37 29 81l21 110q24 119 -48 174
q-59 45 -143 21q-91 -26 -139 -114q-20 -37 -29 -81z" />
    <glyph glyph-name="one.num" horiz-adv-x="526" 
d="M119 836h129l82 469l-115 -27l21 119l256 59l-109 -620h131l-20 -119h-396z" />
    <glyph glyph-name="two.num" horiz-adv-x="747" 
d="M195 1229l4 -2q11 60 43.5 105.5t78.5 70.5t96.5 37t104.5 12q112 0 183 -44.5t71 -143.5q0 -67 -22.5 -116.5t-53.5 -76.5t-80 -45t-83.5 -23.5t-81.5 -9.5q-169 -14 -187 -116l-8 -43h434l-22 -134h-572l31 179q10 57 41 100.5t75.5 68t92 38t102.5 18.5q45 4 78 12
t60.5 23.5t42 41.5t14.5 62q0 92 -137 92q-150 0 -172 -106h-133z" />
    <glyph glyph-name="three.num" horiz-adv-x="751" 
d="M268 918l-2 2q-9 -103 140 -103q31 0 60 5t58 17.5t46.5 37t17.5 59.5q0 37 -35 65.5t-107 28.5h-114l20 111h107q170 0 170 108q0 35 -33.5 62.5t-101.5 27.5q-153 0 -177 -106h-120q19 110 110.5 164.5t206.5 54.5q106 0 179 -48t73 -138q0 -65 -38 -116.5t-99 -66.5
q48 -14 74 -53.5t26 -85.5q0 -69 -31.5 -120.5t-84 -79.5t-110.5 -41t-122 -13q-56 0 -103 12.5t-85.5 38t-56 71.5t-7.5 106h139z" />
    <glyph glyph-name="four.num" horiz-adv-x="745" 
d="M731 1438l-84 -469h86l-20 -121h-86l-27 -148h-133l27 148h-394l15 110l436 480h180zM514 969l61 340l-313 -340h252z" />
    <glyph glyph-name="five.num" horiz-adv-x="739" 
d="M465 1167q125 -2 194.5 -54t69.5 -150q0 -131 -96.5 -207t-247.5 -76q-59 0 -106.5 11.5t-86 36t-55 70t-6.5 107.5h131q-10 -54 30.5 -78t110.5 -24q95 0 141 39.5t46 101.5q0 46 -34.5 75.5t-111.5 29.5h-272l68 387h530l-20 -119h-402l-26 -150h143z" />
    <glyph glyph-name="six.num" horiz-adv-x="765" 
d="M334 1214l-23 -110q71 59 181 59q53 0 96.5 -9.5t82 -30.5t60 -61t21.5 -95q0 -72 -31 -127.5t-82.5 -87t-110 -47t-120.5 -15.5q-122 0 -200 61t-58 177l51 286q22 118 118 179t216 61q125 0 198 -51t60 -152h-134q3 41 -34.5 62.5t-110.5 21.5q-72 0 -120.5 -29.5
t-59.5 -91.5zM416 809q75 0 132.5 33.5t63.5 103.5q4 52 -35.5 78.5t-99.5 26.5q-76 0 -137.5 -36.5t-65.5 -103.5q-4 -53 37 -77.5t105 -24.5z" />
    <glyph glyph-name="seven.num" horiz-adv-x="647" 
d="M205 1436h547l-4 -60l-469 -680h-154l434 617h-377z" />
    <glyph glyph-name="eight.num" horiz-adv-x="788" 
d="M131 907q12 57 59.5 104t112.5 66q-47 18 -73.5 53t-26.5 84q0 61 30 108.5t80 75t108 41t120 13.5q69 0 126.5 -17.5t97.5 -60t40 -104.5q0 -67 -40 -115.5t-114 -73.5q51 -17 81 -59.5t30 -93.5q0 -67 -32.5 -116.5t-86.5 -76.5t-114 -40t-126 -13q-46 0 -87.5 6.5
t-80 23t-64.5 41.5t-37.5 64.5t-2.5 89.5zM668 1247q1 47 -42.5 69.5t-99.5 22.5q-68 0 -124.5 -28.5t-59.5 -89.5q-1 -45 38.5 -68t102.5 -23q77 0 129.5 29.5t55.5 87.5zM623 915q0 50 -45.5 77.5t-108.5 27.5q-78 0 -137.5 -33.5t-59.5 -97.5q0 -47 46 -72.5t110 -25.5
q73 0 134 33t61 91z" />
    <glyph glyph-name="nine.num" horiz-adv-x="772" 
d="M598 932l25 112q-68 -59 -179 -59q-52 0 -96.5 10t-83 31t-60.5 60.5t-22 93.5q0 72 31 127.5t82.5 86.5t110 46.5t120.5 15.5q57 0 107 -14t88.5 -42t56 -75t6.5 -108l-51 -285q-22 -118 -117.5 -179t-216.5 -61q-125 0 -199 51t-61 152h133q-3 -41 35 -62.5t111 -21.5
q72 0 120.5 29.5t59.5 91.5zM653 1221q11 62 -32 91t-113 29q-76 0 -132.5 -34t-56.5 -105q0 -52 42.5 -78t103.5 -26q68 0 123 31.5t65 91.5z" />
    <glyph glyph-name="zero.tf" horiz-adv-x="1419" 
d="M176 866q49 273 252 435q167 133 378 149q203 14 350 -85q164 -111 186 -320q9 -88 -9 -189l-51 -287q-49 -274 -251 -437q-166 -134 -377 -151q-202 -16 -350 83q-164 111 -187 322q-10 90 8 194zM301 573q-17 -94 -7.5 -165t35 -121t69.5 -81t95.5 -45t112.5 -14
q80 0 158.5 26t149 76t122.5 134.5t70 191.5l49 287q17 117 2.5 198t-63 130.5t-110.5 71.5t-140 22t-155 -26.5t-146.5 -76.5t-121 -133.5t-69.5 -187.5z" />
    <glyph glyph-name="one.tf" horiz-adv-x="1419" 
d="M193 150h362l207 1073l-334 -93l29 164l520 152l-244 -1296h387l-26 -150h-928z" />
    <glyph glyph-name="two.tf" horiz-adv-x="1419" 
d="M412 1036h-179q21 96 69.5 170t110.5 119.5t141.5 74t156.5 39.5t163 11q75 0 143.5 -12t131.5 -39.5t108.5 -68.5t73 -103.5t27.5 -139.5q0 -109 -37 -194t-97.5 -138.5t-145 -88t-171.5 -48.5t-184 -14q-55 -1 -108 -8t-111.5 -25t-104 -46t-80 -74t-45.5 -105
l-30 -176h952l-31 -170h-1124l61 346q16 94 62.5 167t108.5 119t142.5 75.5t159.5 41t166 11.5q54 0 110 7.5t118.5 29t110 54t79 87.5t31.5 125q0 233 -344 233q-71 0 -138 -13.5t-130.5 -42t-108 -81.5t-57.5 -123z" />
    <glyph glyph-name="three.tf" horiz-adv-x="1419" 
d="M236 1061l-5 2q20 108 84 188t155 123t186.5 62.5t197.5 19.5q215 0 347 -95t132 -257q0 -130 -91 -231.5t-226 -131.5q101 -27 166 -106t65 -182q0 -145 -90 -253t-237.5 -162t-327.5 -54q-82 0 -156.5 11.5t-146 41t-120 74t-71 117t-6.5 163.5h178q-10 -62 9.5 -108
t55 -71t89.5 -40.5t100.5 -20t100.5 -4.5q192 0 317 77.5t125 209.5q0 94 -84 161t-258 67h-231l24 149h219q163 0 278 67.5t136 170.5q19 99 -61.5 171t-262.5 72q-66 0 -126.5 -9.5t-124 -33t-108 -72t-56.5 -116.5h-176z" />
    <glyph glyph-name="four.tf" horiz-adv-x="1419" 
d="M885 301h-828l11 197l921 936h277l-172 -967h174l-29 -166h-174l-53 -301h-181zM913 467l158 831l-821 -831h663z" />
    <glyph glyph-name="five.tf" horiz-adv-x="1419" 
d="M791 899q227 0 350 -103.5t123 -279.5q0 -235 -181 -381.5t-465 -146.5q-84 0 -159 12.5t-145 43.5t-116.5 77.5t-67.5 121.5t-5 169h176q-11 -60 5 -106.5t49 -74t82.5 -45t99 -24t106.5 -6.5q192 0 316 91.5t124 244.5q0 241 -321 241h-553l123 701h1016l-29 -164h-842
l-65 -371h379z" />
    <glyph glyph-name="six.tf" horiz-adv-x="1419" 
d="M406 1024l-52 -287q88 70 210.5 112t226.5 42q99 0 187 -22t161.5 -66.5t114.5 -121t36 -175.5q-5 -106 -46.5 -195.5t-106.5 -150t-149.5 -102.5t-175.5 -61.5t-185 -19.5q-88 0 -166.5 17t-147.5 55.5t-115 94.5t-64.5 140t-0.5 187l96 555q18 106 81 190t153 135.5
t194 78t213 26.5q114 0 207.5 -23.5t162.5 -70t101 -122t19 -173.5h-170q10 79 -36 134t-125.5 79.5t-182.5 24.5q-158 0 -287 -76t-153 -205zM637 141q82 1 160 21t146.5 58.5t114.5 105t54 151.5q8 83 -39.5 143t-123.5 87.5t-169 27.5q-123 0 -230.5 -47t-171 -121
t-71.5 -155q-5 -47 12 -90.5t55 -81.5t105.5 -64.5t157.5 -34.5z" />
    <glyph glyph-name="seven.tf" horiz-adv-x="1419" 
d="M1163 1278h-852l27 156h1048l-4 -115l-950 -1319h-203z" />
    <glyph glyph-name="eight.tf" horiz-adv-x="1419" 
d="M61 334q0 149 99 262.5t246 153.5q-89 37 -143 106.5t-54 147.5q0 95 38 173t101 129.5t148 87t175.5 51t186.5 15.5q75 0 146 -12t137.5 -39t115.5 -67t79 -100t30 -134q0 -129 -86.5 -229t-224.5 -144q101 -31 163 -111t62 -182q0 -105 -41.5 -188.5t-108.5 -136
t-158.5 -87t-184 -48t-193.5 -13.5q-71 0 -140.5 10t-142 36.5t-127 66.5t-89 105t-34.5 147zM1184 1057q12 64 -16.5 116t-84 82t-121 46t-133.5 16q-77 0 -153 -18t-140.5 -52.5t-104.5 -91t-40 -125.5q0 -56 32.5 -99.5t85.5 -68t112.5 -37t121.5 -12.5q67 0 136 14
t135 41.5t112.5 76.5t57.5 112zM725 672q-67 1 -132.5 -8t-130 -33t-112.5 -60.5t-77.5 -95t-28.5 -131.5q1 -74 52 -122.5t130 -68.5t186 -20q82 0 163.5 17t156 51t121.5 95t49 140q1 61 -34.5 108.5t-93.5 74t-121.5 40t-127.5 13.5z" />
    <glyph glyph-name="nine.tf" horiz-adv-x="1419" 
d="M1067 455l49 268q-81 -94 -201.5 -135t-248.5 -41q-78 0 -149 13t-135.5 42.5t-112 73t-75.5 109.5t-28 147q0 107 39.5 196.5t105 150t152.5 102t179 60.5t187 19q87 0 166.5 -16.5t148 -53.5t115.5 -90t67 -131t3 -172l-96 -563q-16 -99 -61.5 -177.5t-108 -129
t-143.5 -84t-163 -47.5t-171 -14q-114 0 -209 23.5t-166 70t-104.5 122.5t-20.5 173h174q-10 -81 36.5 -136.5t125 -78.5t182.5 -23q61 0 118.5 10t115.5 33.5t104 59.5t79.5 92t45.5 127zM813 1298q-64 -1 -126.5 -12t-123.5 -37t-107.5 -63.5t-76.5 -95.5t-33 -129
q-4 -64 22.5 -114t75 -80t108.5 -45t128 -15q82 0 163 21t150.5 61.5t114.5 107.5t49 150q2 52 -16 95t-50.5 71.5t-78 48t-95.5 28t-104 8.5z" />
    <glyph glyph-name="bullet.case" horiz-adv-x="802" 
d="M377 463l-2 -2q-88 0 -141.5 51t-53.5 137q0 114 80 188t195 74q85 0 137.5 -51.5t52.5 -136.5q0 -113 -79 -186.5t-189 -73.5z" />
    <glyph glyph-name="periodcentered.case" horiz-adv-x="534" 
d="M166 702q14 73 82 102q60 26 109 -1q56 -30 42 -103q-15 -74 -83 -103q-61 -27 -110 1q-55 30 -40 104z" />
    <glyph glyph-name="braceleft.case" horiz-adv-x="694" 
d="M471 -160l-2 4q-208 -33 -278 42t-37 264l51 294q7 42 7 74.5t-9.5 65.5t-38.5 51t-76 18l23 127q155 0 190 209l49 281q33 188 134.5 265.5t291.5 41.5l-22 -127q-114 23 -164 -18t-72 -168l-49 -275q-7 -40 -11 -59.5t-13.5 -53.5t-22 -53.5t-32 -43t-48.5 -39
t-66 -25.5q29 -8 50.5 -22t34.5 -28.5t19.5 -38.5t8.5 -41t-0.5 -48t-5 -47t-8.5 -50l-51 -288q-22 -126 11.5 -163t158.5 -18z" />
    <glyph glyph-name="braceright.case" horiz-adv-x="692" 
d="M-25 -29v2q120 -19 168 18t70 161l51 290q6 35 9 50.5t11 47t16 47.5t22.5 40.5t32 39t43 28.5t57.5 22q-29 9 -50 23t-33.5 28t-19 38t-8.5 40t0.5 47t5 46t8.5 50l50 277q22 126 -14 167.5t-156 18.5l20 125q204 36 277 -41t40 -264l-49 -283q-7 -42 -7 -74.5
t9.5 -65.5t38.5 -51t76 -18l-22 -129q-156 0 -191 -209l-53 -295q-33 -189 -130.5 -263.5t-293.5 -41.5z" />
    <glyph glyph-name="bracketleft.case" horiz-adv-x="700" 
d="M367 1618h426l-27 -154h-254l-266 -1503h254l-27 -156h-426z" />
    <glyph glyph-name="bracketright.case" horiz-adv-x="700" 
d="M373 -195h-426l26 156h254l267 1503h-254l26 154h426z" />
    <glyph glyph-name="parenleft.case" horiz-adv-x="718" 
d="M817 1522q-205 -134 -338.5 -341.5t-175.5 -443.5q-44 -242 15 -448t221 -346l-113 -127q-158 115 -239 314.5t-81 424.5q0 209 74.5 410.5t221.5 378t350 296.5z" />
    <glyph glyph-name="parenright.case" horiz-adv-x="714" 
d="M330 1645v-3q158 -118 239.5 -317t81.5 -422q0 -314 -168.5 -609t-470.5 -472l-65 129q259 171 393.5 417.5t134.5 526.5q0 190 -64.5 359t-187.5 274z" />
    <glyph glyph-name="emdash.case" horiz-adv-x="1454" 
d="M178 768h1147l-27 -158h-1146z" />
    <glyph glyph-name="endash.case" horiz-adv-x="1243" 
d="M178 764h938l-29 -158h-937z" />
    <glyph glyph-name="hyphen.case" horiz-adv-x="1038" 
d="M180 774h733l-28 -162h-733z" />
    <glyph glyph-name="guillemotleft.case" horiz-adv-x="1001" 
d="M498 1141h180l-361 -451l201 -452h-180l-203 452zM416 690l364 451h178l-358 -451l199 -452h-178z" />
    <glyph glyph-name="guillemotright.case" horiz-adv-x="999" 
d="M254 250h-178l358 452l-198 451h178l202 -451zM899 702l-362 -452h-179l359 452l-199 451h178z" />
    <glyph glyph-name="guilsinglleft.case" horiz-adv-x="720" 
d="M135 705l361 450h180l-359 -450l201 -453h-180z" />
    <glyph glyph-name="guilsinglright.case" horiz-adv-x="720" 
d="M258 246h-180l360 452l-200 451h180l203 -451z" />
    <glyph glyph-name="florin.tf" horiz-adv-x="1419" 
d="M647 854l-4 -2h-295l27 147h295l14 80q31 173 138 270t268 97q122 0 215 -74l-91 -125q-76 51 -145 51q-85 0 -141 -54t-76 -165l-14 -80h348l-27 -147h-346l-151 -856q-31 -175 -132 -272t-260 -97q-106 0 -196 72l90 123q32 -29 58 -39t69 -10q166 0 205 225z" />
    <glyph glyph-name="cent.tf" horiz-adv-x="1419" 
d="M594 -25q-169 17 -267 131t-98 291q0 154 73 284t197 212.5t277 105.5l25 134h157l-24 -134q165 -24 272 -149l-119 -102q-43 51 -112.5 79.5t-140.5 28.5q-113 0 -212 -53t-161 -154.5t-62 -230.5q0 -146 74.5 -224.5t226.5 -78.5q70 0 149.5 30t141.5 82l86 -116
q-152 -125 -325 -146l-27 -145h-158z" />
    <glyph glyph-name="dollar.tf" horiz-adv-x="1419" 
d="M991 1649v4l-35 -189q144 -15 255 -82t153 -188l-147 -66q-44 94 -148 137.5t-229 45.5q-80 0 -154 -15.5t-137.5 -47t-102 -86.5t-38.5 -126q0 -44 20.5 -78t43 -52.5t80 -36t87 -23t108.5 -18.5q5 -1 9 -1.5t8 -1.5q102 -16 168 -31t147 -48.5t123.5 -77t65.5 -117.5
t6 -170q-14 -79 -55.5 -143.5t-98 -108t-129 -74t-145.5 -46t-150 -19.5l-37 -203h-165l34 199q-112 7 -207.5 40.5t-172.5 103t-105 165.5l158 74q24 -63 70 -108t106 -69.5t122.5 -35.5t131.5 -11q72 0 145 14t142 43t117.5 81t60.5 120q8 43 -1 78.5t-36.5 61t-60.5 44.5
t-84.5 33.5t-94.5 24t-104 19.5t-106 19t-99 24.5t-92.5 33t-77 44t-62 58t-38.5 75.5t-15 96q0 89 34.5 163.5t91.5 125t131 86t151 52.5t155 19l35 189h168z" />
    <glyph glyph-name="Euro.tf" horiz-adv-x="1419" 
d="M1159 16l-2 -6q-128 -41 -258 -41q-155 0 -271.5 38.5t-188.5 110.5t-109 169.5t-41 220.5h-135l24 141h115q0 19 7.5 61.5t12.5 57.5h-116l26 143h137q44 118 115.5 215t170 171t229.5 115.5t282 41.5q97 0 209 -33l-76 -139q-76 21 -153 21q-218 0 -369.5 -101.5
t-232.5 -290.5h534l-61 -143h-535q-2 -9 -6 -29.5t-6 -29.5q-6 -42 -6 -54h503l-55 -141h-454q-1 -187 124 -288t355 -101q103 0 207 37z" />
    <glyph glyph-name="sterling.tf" horiz-adv-x="1419" 
d="M88 166l4 -2q142 95 198.5 195.5t63.5 228.5h-188l27 151h155q-10 118 -10 174q0 130 46 233.5t126.5 169t187.5 100t232 34.5q101 0 179.5 -21.5t136.5 -66.5t81.5 -123.5t7.5 -185.5h-151q9 74 -10 123.5t-62.5 74t-93 34t-117.5 9.5q-182 0 -287.5 -100.5
t-105.5 -292.5q0 -72 4 -158h492l-27 -151h-459q-8 -282 -227 -434h897l-29 -158h-1100z" />
    <glyph glyph-name="yen.tf" horiz-adv-x="1419" 
d="M262 430h320l20 117h-319l24 137h250l-356 743v7h192l322 -713l588 713h200v-7l-629 -743h252l-24 -137h-326l-20 -117h325l-24 -135h-326l-51 -295h-174l51 295h-319z" />
    <glyph glyph-name="bar.case" horiz-adv-x="546" 
d="M524 1548l-301 -1704h-168l301 1704h168z" />
    <glyph glyph-name="commaaccentcomb.alt" horiz-adv-x="1028" 
d="M766 1430v-3q57 -14 57 -75q0 -80 -67 -109q-55 -24 -109 3q-57 28 -51 88q2 15 8 30q10 27 59.5 111.5t75.5 138.5h113z" />
    <glyph glyph-name="_0004" horiz-adv-x="0" 
 />
    <glyph glyph-name="asterisk.alt" horiz-adv-x="753" 
d="M254 1040l123 123l-152 37q-26 14 -22.5 45t31 59t53.5 19l145 -53l17 141q6 33 40 46.5t64.5 0t26.5 -46.5l-33 -141l166 53q35 11 51.5 -27.5t-3.5 -71.5q-13 -18 -32 -24l-164 -37l80 -123q25 -38 -14 -75q-33 -31 -71 -27q-27 5 -36 29l-65 129l-111 -129
q-27 -40 -71 -27q-35 11 -43 41q-9 30 20 59z" />
    </font>
</defs>
</svg>
