<?xml version="1.0" standalone="no"?>
<!DOCTYPE svg PUBLIC "-//W3C//DTD SVG 1.1//EN" "http://www.w3.org/Graphics/SVG/1.1/DTD/svg11.dtd" >
<svg xmlns="http://www.w3.org/2000/svg" xmlns:xlink="http://www.w3.org/1999/xlink" version="1.1">
<metadata>
Created by FontForge 20170731 at Mon Dec 20 09:30:52 2021
 By Aleksey,,,
Copyright (c) 2012 by Fontfabric LLC. All rights reserved.
</metadata>
<defs>
<font id="Nexa-Heavy-Italic" horiz-adv-x="1456" >
  <font-face 
    font-family="Nexa Heavy Italic"
    font-weight="900"
    font-style="italic"
    font-stretch="normal"
    units-per-em="2048"
    panose-1="2 0 0 0 0 0 0 0 0 0"
    ascent="1536"
    descent="-512"
    x-height="1010"
    cap-height="1434"
    bbox="-459 -610 2337 2015"
    underline-thickness="102"
    underline-position="-307"
    unicode-range="U+0020-FB02"
  />
<missing-glyph horiz-adv-x="1361" 
d="M541 268q0 -51 32 -79.5t78 -28.5q58 0 108 42.5t50 114.5q0 51 -31.5 79t-75.5 28q-63 0 -112 -40t-49 -116zM451 907h221q6 50 56.5 86.5t109.5 36.5q56 0 94.5 -22.5t38.5 -75.5q0 -42 -24 -63.5t-77 -41t-79 -36.5q-2 -1 -18.5 -11.5t-22 -14.5t-21 -16t-23 -22
t-21.5 -26t-22 -34t-18 -41t-17.5 -51t-13.5 -61l220 -2q5 27 15.5 58.5t18.5 39.5q21 19 67 40t88 42.5t83.5 53.5t66.5 87.5t25 131.5q0 129 -92 196.5t-234 67.5q-159 0 -276.5 -83.5t-144.5 -238.5zM106 0l252 1434h1102l-252 -1434h-1102z" />
    <glyph glyph-name=".notdef" horiz-adv-x="1361" 
d="M541 268q0 -51 32 -79.5t78 -28.5q58 0 108 42.5t50 114.5q0 51 -31.5 79t-75.5 28q-63 0 -112 -40t-49 -116zM451 907h221q6 50 56.5 86.5t109.5 36.5q56 0 94.5 -22.5t38.5 -75.5q0 -42 -24 -63.5t-77 -41t-79 -36.5q-2 -1 -18.5 -11.5t-22 -14.5t-21 -16t-23 -22
t-21.5 -26t-22 -34t-18 -41t-17.5 -51t-13.5 -61l220 -2q5 27 15.5 58.5t18.5 39.5q21 19 67 40t88 42.5t83.5 53.5t66.5 87.5t25 131.5q0 129 -92 196.5t-234 67.5q-159 0 -276.5 -83.5t-144.5 -238.5zM106 0l252 1434h1102l-252 -1434h-1102z" />
    <glyph glyph-name=".null" horiz-adv-x="0" 
 />
    <glyph glyph-name="nonmarkingreturn" horiz-adv-x="682" 
 />
    <glyph glyph-name="space" unicode=" " horiz-adv-x="493" 
 />
    <glyph glyph-name="exclam" unicode="!" horiz-adv-x="616" 
d="M297 1436h317l-184 -1000h-303q157 927 170 1000zM49 139q0 98 66 154.5t149 56.5q67 0 109.5 -38.5t42.5 -108.5q0 -98 -66.5 -154.5t-150.5 -56.5q-64 0 -107 38.5t-43 108.5z" />
    <glyph glyph-name="quotedbl" unicode="&#x22;" horiz-adv-x="937" 
d="M274 1432h269l-99 -555h-268zM680 1432h272l-98 -555h-272z" />
    <glyph glyph-name="numbersign" unicode="#" horiz-adv-x="1447" 
d="M670 1434h274l-131 -308h223l133 308h273l-131 -308h147l-41 -237h-207l-161 -373h161l-43 -240h-217l-116 -276h-275l117 276h-225l-117 -276h-273l117 276h-155l43 240h217l159 375h-170l41 235h226zM961 907h-259l-174 -405h258z" />
    <glyph glyph-name="dollar" unicode="$" horiz-adv-x="1468" 
d="M1432 1190l-273 -117q-20 65 -105 113.5t-200 48.5q-119 0 -211 -45.5t-108 -130.5q-8 -44 10.5 -75t62.5 -48.5t88.5 -26t110.5 -14.5q101 -10 179.5 -26.5t160.5 -51.5t131.5 -85t73.5 -131.5t6 -186.5q-35 -200 -182.5 -318t-393.5 -143l-32 -195h-281l33 193
q-182 19 -315 118t-169 253l289 129q27 -96 134.5 -160t234.5 -64q77 0 132 7t105.5 26t81 57.5t41.5 96.5q8 47 -12.5 82.5t-65 58t-100 36t-125.5 19.5q-55 5 -98 10.5t-94 15.5t-88 22.5t-78.5 31.5t-66 42.5t-51.5 56t-34 72t-13.5 89.5t9.5 109q18 98 72 176.5
t131.5 129t168 79.5t189.5 37l29 170h270l-28 -170q306 -35 381 -291z" />
    <glyph glyph-name="percent" unicode="%" horiz-adv-x="1677" 
d="M561 1442q72 0 128.5 -23t91 -62.5t52 -88.5t17.5 -103q0 -69 -27.5 -136.5t-77.5 -122t-128.5 -88.5t-170.5 -34q-142 0 -215 80t-73 197q0 69 27.5 136.5t77 122t127.5 88.5t171 34zM1292 1432h322l-1190 -1434h-326zM1272 643q140 0 213.5 -80.5t73.5 -195.5
q0 -69 -27.5 -136.5t-77.5 -122t-128.5 -88.5t-170.5 -34q-72 0 -128.5 23t-90 62.5t-51 88.5t-17.5 104q0 69 27.5 136t77.5 121.5t128.5 88t170.5 33.5zM1233 430q-59 0 -98 -41.5t-39 -93.5q0 -40 25.5 -68t70.5 -28q63 0 99 40t36 95q0 40 -24 68t-70 28zM524 1233
q-63 0 -101 -42t-38 -95q0 -42 25 -70.5t73 -28.5q63 0 100.5 41.5t37.5 96.5q0 42 -24.5 70t-72.5 28z" />
    <glyph glyph-name="ampersand" unicode="&#x26;" horiz-adv-x="1468" 
d="M670 614q-132 0 -209.5 -57.5t-77.5 -134.5q0 -39 16 -68.5t40.5 -47t58 -28.5t64 -14.5t63.5 -3.5t77 10.5t93 32t87.5 64.5t47.5 98l26 149h-286zM1239 614l-33 -184q-5 -34 5 -65t41 -50t77 -10l-57 -315q-56 -10 -108 -3t-92.5 26t-67 61t-31.5 102
q-77 -103 -194 -151t-247 -48q-96 0 -176.5 18t-150 57.5t-109 112.5t-39.5 173q0 140 79.5 240.5t219.5 158.5q-48 16 -82.5 60t-49.5 92.5t-15 95.5q0 103 42 186.5t108 136t152 88t170 50t167 14.5q107 0 193.5 -22.5t154.5 -69.5t100.5 -131t20.5 -197h-293
q1 78 -67.5 120t-161.5 40q-108 -2 -187.5 -57.5t-79.5 -149.5q0 -135 201 -135h668l-43 -244h-115z" />
    <glyph glyph-name="quotesingle" unicode="'" horiz-adv-x="528" 
d="M274 1427h267l-99 -555h-266z" />
    <glyph glyph-name="parenleft" unicode="(" horiz-adv-x="743" 
d="M739 1583l113 -203q-230 -165 -357.5 -413.5t-127.5 -526.5q0 -179 51 -334.5t153 -252.5l-182 -199q-164 124 -248 319.5t-84 436.5q0 197 51 377t143 326.5t215 264.5t273 205z" />
    <glyph glyph-name="parenright" unicode=")" horiz-adv-x="743" 
d="M166 1380l182 203q159 -128 249.5 -331t90.5 -447q0 -688 -651 -1159l-131 207q183 130 299 331t157 439q40 219 -9 421t-187 336z" />
    <glyph glyph-name="asterisk" unicode="*" horiz-adv-x="839" 
d="M758 950l-180 -119l-86 175l-146 -179l-145 123l153 150l-176 43l90 184l170 -67l23 190h211l-56 -190l205 71l23 -188l-193 -39z" />
    <glyph glyph-name="plus" unicode="+" horiz-adv-x="1015" 
d="M121 801h282l54 295h270l-53 -295h289l-45 -258h-289l-51 -295h-271l51 295h-282z" />
    <glyph glyph-name="comma" unicode="," horiz-adv-x="536" 
d="M354 156q0 -36 -15.5 -82.5t-34 -82t-53 -98.5t-52.5 -100h-158l70 213q-51 8 -75.5 39t-15.5 82q13 74 70 115t125 41q58 0 98.5 -34t40.5 -93z" />
    <glyph glyph-name="hyphen" unicode="-" horiz-adv-x="1011" 
d="M98 471l45 256h768l-45 -256h-768z" />
    <glyph glyph-name="period" unicode="." horiz-adv-x="536" 
d="M23 125q0 92 60.5 143t139.5 51q59 0 100.5 -37t41.5 -102q0 -89 -61.5 -140.5t-139.5 -51.5q-60 0 -100.5 36t-40.5 101z" />
    <glyph glyph-name="slash" unicode="/" horiz-adv-x="1069" 
d="M889 1573h289l-967 -1741h-287z" />
    <glyph glyph-name="zero" unicode="0" horiz-adv-x="1480" 
d="M463 821l-43 -207q-35 -182 34.5 -277t213.5 -95t251 95t142 277l43 207q34 177 -35 272t-211 95q-145 0 -253 -93t-142 -274zM106 614l35 209q22 131 74 240t123.5 185t161.5 129t188.5 77.5t204.5 24.5q105 0 195 -26t160.5 -78.5t115 -131.5t59 -184t-7.5 -236
l-35 -207q-22 -128 -73 -236t-122 -185t-159 -130.5t-184.5 -79.5t-198.5 -26q-103 0 -192.5 25t-163.5 76t-121.5 129t-65 184t5.5 241z" />
    <glyph glyph-name="one" unicode="1" horiz-adv-x="935" 
d="M-4 0l47 262h256l135 774l-241 -71l49 278l563 191l-205 -1172h225l-47 -262h-782z" />
    <glyph glyph-name="two" unicode="2" horiz-adv-x="1382" 
d="M498 1008h-308q22 97 70.5 174t112 127t143.5 82.5t161 46.5t169 14q105 0 195.5 -23.5t160 -70t109 -120.5t39.5 -169q0 -524 -662 -524q-44 0 -78.5 -3t-79.5 -14t-77 -31t-59 -57.5t-36 -89.5l-10 -55h858l-51 -295h-1159q8 48 29 167t32 185q16 93 53.5 168
t90.5 125.5t114.5 86t135 55t142 28t144.5 8.5q44 0 86.5 7.5t87.5 25t76.5 53.5t40.5 86q15 89 -46 137t-183 48q-67 0 -128.5 -18t-110 -58t-62.5 -96z" />
    <glyph glyph-name="three" unicode="3" horiz-adv-x="1390" 
d="M698 604h-219l47 260h199q39 0 68.5 2t69.5 10t68 22.5t51 42t30 65.5q5 26 -1 51.5t-27 51.5t-72 42t-126 16q-236 0 -286 -139h-318q24 93 74.5 168t115 123t144 80t159.5 45.5t165 13.5q74 0 143 -11.5t134.5 -39t114 -68t78 -103t29.5 -140.5q0 -123 -66 -221
t-179 -142q116 -51 154.5 -158.5t-5.5 -232.5q-30 -90 -87.5 -158.5t-124 -108t-151 -64t-159 -32.5t-156.5 -8q-86 0 -164 15.5t-146.5 51.5t-116.5 89t-71 132t-12 177h322q-3 -49 15 -85t52 -56t77 -29.5t95 -9.5q45 0 90.5 7.5t100 27t89 63.5t34.5 107q0 24 -9 46
t-31.5 45.5t-72 37.5t-119.5 14z" />
    <glyph glyph-name="four" unicode="4" horiz-adv-x="1406" 
d="M983 1432h317l-157 -897h164l-50 -277h-163l-45 -260h-314l45 260h-764l31 328zM367 535h462l91 509z" />
    <glyph glyph-name="five" unicode="5" horiz-adv-x="1345" 
d="M1325 1432l-49 -287h-762l-39 -225h260q97 0 174 -13t145 -45.5t110.5 -84.5t62 -134t8.5 -190q-11 -102 -58 -184.5t-113.5 -134.5t-152 -87.5t-168 -50t-165.5 -14.5q-129 0 -227.5 24.5t-170.5 77.5t-100.5 143.5t-7.5 214.5h311q-8 -52 10.5 -89t57 -55.5t80.5 -26
t92 -7.5q30 0 64 4.5t77.5 19.5t77 38t57 65t23.5 96q0 38 -16.5 67.5t-41 47t-57.5 28.5t-62.5 15t-58.5 4h-549q94 539 137 783h1051z" />
    <glyph glyph-name="six" unicode="6" horiz-adv-x="1427" 
d="M502 971l-29 -160q78 72 160.5 101.5t197.5 29.5q140 0 249 -44t175 -136.5t66 -222.5q0 -116 -40 -212t-107.5 -160t-158 -108.5t-189 -64t-203.5 -19.5q-92 0 -175 17t-155.5 55t-121 94t-69 139t-2.5 185l90 506q21 122 88.5 218t163 154.5t205.5 88.5t227 30
q98 0 179 -14t149.5 -46.5t112.5 -82t63 -124t6 -169.5h-299q-1 83 -75.5 123.5t-184.5 40.5q-117 0 -211 -60.5t-112 -158.5zM666 258q136 0 232 63.5t99 170.5q2 85 -63 132.5t-182 47.5q-145 0 -241 -63t-99 -171q-1 -85 67 -132.5t187 -47.5z" />
    <glyph glyph-name="seven" unicode="7" horiz-adv-x="1181" 
d="M422 0h-359l768 1143h-675l51 291h1087l-16 -158z" />
    <glyph glyph-name="eight" unicode="8" horiz-adv-x="1454" 
d="M725 614q-130 0 -220.5 -48t-107.5 -130q-6 -19 -2 -40t11 -42t27.5 -40.5t48.5 -34.5t74 -24t103 -9q86 0 151 18.5t101 48.5t54 60.5t22 62.5q12 81 -56.5 129.5t-205.5 48.5zM66 453q15 76 88.5 164.5t187.5 125.5q-86 52 -117 148.5t2 200.5q36 119 131.5 205
t227 128.5t284.5 42.5q244 0 385.5 -94.5t141.5 -273.5q0 -113 -65 -204t-175 -136q49 -20 85 -52.5t54.5 -71t26.5 -74t8 -70.5q0 -107 -39 -195t-106.5 -149.5t-160 -103.5t-198 -61t-221.5 -18q-101 1 -188.5 18.5t-163 54t-123 94t-68 137.5t2.5 184zM537 1018
q0 -71 59.5 -117.5t171.5 -46.5q119 0 195 50.5t94 127.5q16 67 -43 123.5t-189 56.5q-80 0 -140 -21.5t-90 -54t-44 -62.5t-14 -56z" />
    <glyph glyph-name="nine" unicode="9" horiz-adv-x="1437" 
d="M979 467l27 160q-78 -72 -161 -101.5t-198 -29.5q-140 0 -248.5 44t-174.5 136.5t-66 222.5q0 116 40.5 212t108 160t158 108t189 63.5t202.5 19.5q92 0 175 -17t155 -55t120.5 -93.5t69 -138.5t2.5 -185l-88 -506q-15 -88 -52.5 -161.5t-90.5 -126.5t-117.5 -93
t-139 -64t-149.5 -35.5t-153 -11.5q-124 0 -221.5 23.5t-171.5 73t-107.5 136t-17.5 204.5h299q1 -43 24.5 -74.5t62.5 -49.5t84.5 -26t98.5 -8q80 0 148.5 20t122.5 70t69 123zM807 1180q-136 0 -231 -64t-95 -170q0 -85 66.5 -132.5t183.5 -47.5q145 0 240.5 63t95.5 170
q0 85 -70.5 133t-189.5 48z" />
    <glyph glyph-name="colon" unicode=":" horiz-adv-x="577" 
d="M41 123q0 87 59 137.5t140 50.5q57 0 97 -35t40 -98q0 -86 -60.5 -138t-130.5 -52q-61 0 -103 35t-42 100zM145 711q0 87 61 137.5t136 50.5q59 0 99 -35t40 -98q0 -88 -60 -139.5t-134 -51.5q-59 0 -100.5 36t-41.5 100z" />
    <glyph glyph-name="semicolon" unicode=";" horiz-adv-x="581" 
d="M373 158q0 -25 -7.5 -55.5t-16.5 -55t-28.5 -64t-31 -60.5t-37.5 -67.5t-35 -62.5h-158l74 203q-49 8 -76 44t-18 87q13 75 71.5 117.5t127.5 42.5q61 0 98 -33.5t37 -95.5zM147 711q0 87 61 137.5t136 50.5q59 0 99 -35t40 -98q0 -88 -60 -139.5t-134 -51.5
q-59 0 -100.5 36t-41.5 100z" />
    <glyph glyph-name="less" unicode="&#x3c;" horiz-adv-x="860" 
d="M446 641l248 -297l-225 -203l-395 494l2 14l569 494l156 -203z" />
    <glyph glyph-name="equal" unicode="=" horiz-adv-x="1169" 
d="M72 262l47 262h905l-47 -262h-905zM156 743l47 265h905l-47 -265h-905z" />
    <glyph glyph-name="greater" unicode="&#x3e;" horiz-adv-x="860" 
d="M72 328l356 313l-248 315l226 187l397 -494l-4 -14l-570 -494z" />
    <glyph glyph-name="question" unicode="?" horiz-adv-x="1200" 
d="M473 -16q-107 0 -144 81q-31 70 7 152q39 86 126 116q38 14 81 13q112 -3 148 -84q31 -70 -10 -152q-42 -84 -131 -114q-37 -12 -77 -12zM461 1014h-322q20 122 74 211t136.5 141t181.5 76t221 24q208 0 337 -98t125 -260q-2 -70 -19.5 -124.5t-43 -89.5t-67.5 -68.5
t-79.5 -55t-92.5 -54.5t-95 -63q-60 -44 -78.5 -84.5t-23.5 -113.5h-318q15 255 234 379q30 17 77 40.5t72 37.5t53 36.5t40 51t12 67.5q0 60 -49 92.5t-134 32.5q-197 0 -241 -178z" />
    <glyph glyph-name="at" unicode="@" horiz-adv-x="1912" 
d="M1055 1149q-119 0 -234 -35.5t-214 -103.5t-174.5 -160t-119 -213.5t-43.5 -255.5q0 -130 44 -229.5t121.5 -159.5t174.5 -89.5t211 -29.5q162 0 316 80l53 -166q-193 -104 -410 -104q-113 0 -217 25.5t-195.5 80t-159.5 132.5t-107.5 190.5t-39.5 246.5q0 180 59.5 338
t161 273t233 198t278 124.5t294.5 41.5q163 0 298.5 -42.5t236.5 -124t157 -210.5t56 -294q0 -197 -65.5 -353.5t-180.5 -242.5t-258 -86q-32 0 -61 7.5t-57.5 24t-45.5 49.5t-16 78q-57 -63 -151.5 -104t-157.5 -41q-193 0 -314.5 120.5t-121.5 309.5q0 111 46 217
t123.5 186.5t187 129.5t228.5 49q89 -2 164 -35.5t111 -100.5l28 88l187 -30l-123 -692q-5 -30 11 -47t32 -17q104 6 170.5 132t66.5 325q0 261 -138 390.5t-445 129.5zM973 774q-75 0 -137 -28.5t-100.5 -75t-59.5 -103t-21 -114.5q0 -96 56 -160t168 -64q147 0 233 97.5
t86 232.5q0 95 -56.5 155t-168.5 60z" />
    <glyph glyph-name="A" unicode="A" horiz-adv-x="1619" 
d="M1192 0l-62 246h-735l-147 -246h-357l895 1434h349l391 -1434h-334zM1059 528l-141 588l-353 -588h494z" />
    <glyph glyph-name="B" unicode="B" horiz-adv-x="1486" 
d="M477 610l-59 -331h393q120 0 182 51t62 139q0 65 -48.5 103t-140.5 38h-389zM573 1157l-51 -280h389q92 0 146.5 52t54.5 115q0 49 -36.5 81t-108.5 32h-394zM307 1434h707q194 0 310 -84t116 -246q0 -112 -60.5 -204t-189.5 -148q82 -32 130 -102t53.5 -150t-17.5 -164
q-56 -173 -196.5 -254.5t-373.5 -81.5h-731z" />
    <glyph glyph-name="C" unicode="C" horiz-adv-x="1427" 
d="M1161 395l160 -221q-250 -211 -588 -211q-164 0 -291 48.5t-203.5 133t-115.5 192.5t-39 234q0 130 36 257t112 242.5t182.5 203.5t257.5 140t327 52q301 0 488 -221l-234 -194q-50 59 -131.5 87.5t-175.5 28.5t-176.5 -28t-142 -74t-105 -107t-71.5 -124.5t-37 -128.5
q-11 -52 -6.5 -105.5t17 -103t43.5 -93t73 -76t105 -51t140 -18.5q90 0 196.5 37.5t178.5 99.5z" />
    <glyph glyph-name="D" unicode="D" horiz-adv-x="1550" 
d="M307 1434h588q154 0 272 -46t188.5 -127t106 -183.5t35.5 -223.5q0 -105 -21.5 -206t-64 -197.5t-113 -177.5t-162.5 -142.5t-218.5 -96t-274.5 -34.5h-588zM573 1145l-151 -850h272q110 0 197 35t140 89.5t88 126t48 138t13 131.5q0 67 -18 124t-55.5 104.5t-104 74.5
t-156.5 27h-273z" />
    <glyph glyph-name="E" unicode="E" horiz-adv-x="1343" 
d="M1198 295l-51 -295h-1092q42 239 126 717.5t126 716.5h1063l-51 -293h-750l-49 -277h707l-49 -280h-707l-51 -289h778z" />
    <glyph glyph-name="F" unicode="F" horiz-adv-x="1288" 
d="M375 0h-320l252 1432h1045l-52 -293h-725l-59 -340h680l-51 -285h-680z" />
    <glyph glyph-name="G" unicode="G" horiz-adv-x="1523" 
d="M1487 1262l-223 -205q-54 61 -139 94t-175 33q-243 0 -395.5 -152t-155.5 -403q-1 -54 8 -103t35 -100.5t67.5 -88t112.5 -60t164 -23.5q85 0 160 21t162 79l41 230h-342l47 266h619l-111 -625q-233 -266 -631 -266q-137 0 -247.5 34.5t-183 92.5t-121.5 138.5t-70 169
t-21 186.5q0 137 34 265.5t107 244t178 201t258 136t336 50.5q344 0 486 -215z" />
    <glyph glyph-name="H" unicode="H" horiz-adv-x="1599" 
d="M1331 -2h-315l100 567h-641l-100 -567h-320l252 1434h320l-101 -574h641l101 574h315z" />
    <glyph glyph-name="I" unicode="I" horiz-adv-x="641" 
d="M373 0h-318l252 1434h318z" />
    <glyph glyph-name="J" unicode="J" horiz-adv-x="1466" 
d="M35 596h301q-24 -172 45.5 -248t230.5 -76q158 0 261.5 89.5t132.5 254.5l94 535h-395l49 283h716l-145 -820q-26 -145 -80.5 -259t-144 -201.5t-222.5 -134t-303 -46.5q-311 0 -452.5 152.5t-87.5 470.5z" />
    <glyph glyph-name="K" unicode="K" horiz-adv-x="1378" 
d="M1491 1434v-9l-711 -700l514 -707l-4 -18h-385l-422 612l-108 -612h-320l252 1434h320l-105 -592l582 592h387z" />
    <glyph glyph-name="L" unicode="L" horiz-adv-x="1224" 
d="M307 1434h320l-201 -1141h717l-51 -293h-1037z" />
    <glyph glyph-name="M" unicode="M" horiz-adv-x="1890" 
d="M1303 -2l176 997l-541 -557h-57l-328 574l-178 -1014h-320l252 1434h367l321 -551l516 551h363l-252 -1434h-319z" />
    <glyph glyph-name="N" unicode="N" horiz-adv-x="1622" 
d="M582 1434l559 -932l59 450l84 482h322l-252 -1434h-275l-551 918l-71 -472l-78 -446h-324l252 1434h275z" />
    <glyph glyph-name="O" unicode="O" horiz-adv-x="1716" 
d="M1667 850q0 -197 -71 -364t-194 -280.5t-292.5 -177t-364.5 -63.5q-303 0 -480 166t-177 453q0 197 71 364t194 280t292.5 176.5t364.5 63.5q303 0 480 -165.5t177 -452.5zM1337 717q36 200 -68.5 332.5t-310.5 132.5q-150 0 -277 -73.5t-200 -198t-73 -269.5
q0 -171 105 -279t282 -108q207 0 356.5 130.5t185.5 332.5z" />
    <glyph glyph-name="P" unicode="P" horiz-adv-x="1437" 
d="M573 1130l-75 -432h356q124 0 198 74.5t74 175.5q0 78 -50.5 130t-145.5 52h-357zM803 406h-357l-71 -406h-320l252 1434h676q230 0 349.5 -121t119.5 -309q0 -96 -27 -184t-81.5 -163.5t-131 -131.5t-182 -87.5t-227.5 -31.5z" />
    <glyph glyph-name="Q" unicode="Q" horiz-adv-x="1712" 
d="M1663 856q0 -326 -219 -584l137 -168l-264 -221l-141 178q-196 -94 -431 -94q-304 0 -480.5 164t-176.5 453q0 200 70.5 367.5t194 280.5t292.5 175.5t365 62.5q302 0 477.5 -163.5t175.5 -450.5zM1333 719q37 203 -65.5 332t-309.5 129q-151 0 -277.5 -71t-199.5 -195.5
t-73 -274.5q0 -172 105 -276.5t284 -104.5q206 0 357.5 133t178.5 328z" />
    <glyph glyph-name="R" unicode="R" horiz-adv-x="1490" 
d="M1331 25l-4 -25h-348l-283 471h-237l-84 -471h-320l252 1434h680q112 0 200 -33.5t143 -91t83.5 -130.5t28.5 -157q0 -195 -101.5 -322t-318.5 -200zM940 1159h-360l-74 -418h364q115 0 182.5 73.5t67.5 158.5q0 75 -44.5 130.5t-135.5 55.5z" />
    <glyph glyph-name="S" unicode="S" horiz-adv-x="1323" 
d="M1288 1286l-215 -192q-47 57 -131 85.5t-174 28.5q-119 0 -203 -49.5t-84 -132.5q0 -40 19.5 -67t60 -42.5t86 -23.5t115.5 -14q79 -7 146 -24t129.5 -48t106 -74.5t69.5 -108t26 -143.5q0 -112 -37.5 -202t-102 -150t-154 -100t-188 -57.5t-210.5 -18.5
q-178 -2 -327.5 61.5t-223.5 184.5l205 239q62 -95 172 -143.5t227 -48.5q141 0 230.5 53t89.5 145q0 71 -62 106.5t-196 51.5q-94 11 -168 28.5t-144 52t-112.5 83t-61.5 124t-4 171.5q19 103 80.5 185.5t150 133.5t194 78t218.5 27q164 0 273 -43.5t200 -155.5z" />
    <glyph glyph-name="T" unicode="T" horiz-adv-x="1257" 
d="M362 0l203 1149h-436l51 285h1190l-51 -285h-436l-203 -1149h-318z" />
    <glyph glyph-name="U" unicode="U" horiz-adv-x="1587" 
d="M1274 1432h317l-141 -801q-57 -318 -252.5 -492t-492.5 -174q-115 0 -211 25t-173 76.5t-124 130.5t-63 187t9 247l142 801h317l-141 -801q-34 -193 40.5 -290.5t250.5 -88.5q159 9 254.5 110t126.5 269z" />
    <glyph glyph-name="V" unicode="V" horiz-adv-x="1519" 
d="M1661 1434l-838 -1440h-342l-344 1440h359l217 -1059l590 1059h358z" />
    <glyph glyph-name="W" unicode="W" horiz-adv-x="2199" 
d="M2331 1434l-772 -1432h-263l-166 801l-438 -801h-262l-283 1432h359l92 -490l47 -463l490 953h208l168 -953l205 461l256 492h359z" />
    <glyph glyph-name="X" unicode="X" horiz-adv-x="1419" 
d="M768 940l416 494h368l-2 -15l-628 -714l376 -695l-2 -10h-354l-250 475l-401 -475h-389l2 10l628 717l-364 692l2 15h350z" />
    <glyph glyph-name="Y" unicode="Y" horiz-adv-x="1443" 
d="M506 1434l244 -570l462 570h375l-2 -17l-723 -848l-100 -569h-320l101 569l-400 848l2 17h361z" />
    <glyph glyph-name="Z" unicode="Z" horiz-adv-x="1286" 
d="M199 1159l47 275h1095l-24 -140l-862 -995h704l-53 -299h-1147l29 166l876 993h-665z" />
    <glyph glyph-name="bracketleft" unicode="[" horiz-adv-x="745" 
d="M502 -365h-525l320 1807h524l-45 -252h-233l-230 -1301h234z" />
    <glyph glyph-name="backslash" unicode="\" horiz-adv-x="1038" 
d="M215 1573h293l350 -1741h-291z" />
    <glyph glyph-name="bracketright" unicode="]" horiz-adv-x="745" 
d="M426 -365h-524l45 254h233l230 1301h-234l45 252h524z" />
    <glyph glyph-name="asciicircum" unicode="^" horiz-adv-x="1333" 
d="M96 672l4 12l625 756h170l377 -752v-16h-314l-210 430l-351 -430h-301z" />
    <glyph glyph-name="underscore" unicode="_" horiz-adv-x="1017" 
d="M-115 -248l45 256h969l-45 -256h-969z" />
    <glyph glyph-name="grave" unicode="`" horiz-adv-x="540" 
d="M244 1417l2 13h344l100 -287l-2 -15h-258z" />
    <glyph glyph-name="a" unicode="a" horiz-adv-x="1312" 
d="M952 895l31 117h277q-30 -168 -90 -506t-89 -506h-266l6 127q-59 -73 -155.5 -110.5t-182.5 -39.5q-201 -2 -320.5 114t-119.5 319q0 142 51.5 261.5t138.5 198.5t202.5 122t242.5 42q95 0 171.5 -38.5t102.5 -100.5zM662 774q-130 0 -224 -87t-94 -228q0 -101 61.5 -160
t161.5 -59q134 0 227 92.5t93 210.5q0 99 -57.5 165t-167.5 66z" />
    <glyph glyph-name="b" unicode="b" horiz-adv-x="1312" 
d="M727 766q-58 0 -115 -20t-104 -57.5t-76 -98t-29 -133.5q0 -108 66.5 -159.5t165.5 -51.5q132 0 215.5 89.5t83.5 217.5q0 96 -55 154.5t-152 58.5zM270 1432h297l-94 -543q140 143 342 143q194 0 308 -114.5t114 -313.5q0 -134 -47 -251t-127.5 -198.5t-192 -128
t-237.5 -46.5q-106 0 -181.5 32t-127.5 117l-41 -129h-265z" />
    <glyph glyph-name="c" unicode="c" horiz-adv-x="1040" 
d="M782 326l152 -193q-185 -156 -422 -156q-100 0 -184.5 26.5t-149 78t-101 135t-36.5 191.5q0 145 55.5 265.5t148 198t209 120t242.5 42.5q116 0 199 -31.5t143 -107.5l-196 -186q-67 59 -180 59q-130 0 -224 -84.5t-94 -220.5q0 -98 62.5 -155.5t156.5 -57.5
q53 0 115.5 20.5t103.5 55.5z" />
    <glyph glyph-name="d" unicode="d" horiz-adv-x="1314" 
d="M645 766q-130 0 -214.5 -88t-84.5 -219q0 -94 54 -153.5t153 -59.5q60 0 115 17t102 51t75.5 94t28.5 139q0 103 -66.5 161t-162.5 58zM1038 1432h297l-252 -1432h-264l4 129q-82 -84 -168.5 -115.5t-193.5 -31.5q-192 0 -305 116.5t-113 311.5q0 183 80.5 326
t218.5 219.5t309 76.5q199 0 291 -143z" />
    <glyph glyph-name="e" unicode="e" horiz-adv-x="1179" 
d="M1077 410h-743q-2 -78 61.5 -128.5t182.5 -50.5q168 0 276 80l133 -184q-90 -75 -214 -112.5t-247 -37.5q-234 0 -358.5 119t-124.5 322q0 177 81 318.5t227 221.5t331 80q175 0 286 -71t144 -210.5t-35 -346.5zM373 625h479q9 79 -52.5 120t-160.5 41q-89 0 -160.5 -43
t-105.5 -118z" />
    <glyph glyph-name="f" unicode="f" horiz-adv-x="833" 
d="M1030 1391l-112 -224q-60 41 -144 41q-71 0 -115 -39.5t-57 -115.5l-10 -60h280l-43 -248h-280l-131 -745h-295l131 745h-178l43 248h178l10 60q69 407 484 407q132 0 239 -69z" />
    <glyph glyph-name="g" unicode="g" horiz-adv-x="1318" 
d="M662 776q-131 0 -224.5 -86.5t-93.5 -232.5q0 -103 61 -159t160 -56q143 0 234 111q76 92 78 207q1 116 -77 175q-54 41 -138 41zM-23 -123h293q-1 -68 61 -99.5t156 -31.5q49 0 96 12.5t91 38t76 73t43 110.5l24 141q-120 -146 -336 -150q-199 -2 -318.5 117t-119.5 322
q0 144 51.5 264.5t138.5 199t202 121.5t243 41q94 0 167.5 -39.5t100.5 -101.5l31 115h285l-175 -1037q-44 -250 -213.5 -372.5t-427.5 -122.5q-107 0 -196.5 25t-155.5 73.5t-97.5 125.5t-19.5 175z" />
    <glyph glyph-name="h" unicode="h" horiz-adv-x="1245" 
d="M270 1434h297l-96 -547q135 141 334 141q402 0 317 -485l-96 -543h-295l96 541q18 104 -24 161.5t-131 57.5q-97 0 -172.5 -65.5t-96.5 -182.5l-90 -512h-295z" />
    <glyph glyph-name="i" unicode="i" horiz-adv-x="544" 
d="M492 1014h-295l-179 -1014h295zM221 1251q0 91 60.5 143t138.5 52q60 0 101.5 -36t41.5 -101q0 -89 -60 -141t-136 -54q-62 -2 -104 34.5t-42 102.5z" />
    <glyph glyph-name="j" unicode="j" horiz-adv-x="544" 
d="M-207 -172l-76 -242q57 -25 118.5 -33t121.5 1t116.5 39t102.5 77t79.5 119t47.5 162l189 1063h-295l-189 -1071q-13 -68 -44.5 -102.5t-74.5 -35t-96 22.5zM223 1251q0 90 60 142.5t139 52.5q59 0 100 -36.5t41 -100.5q0 -91 -61.5 -143t-139.5 -52q-59 0 -99 36
t-40 101z" />
    <glyph glyph-name="k" unicode="k" horiz-adv-x="1118" 
d="M270 1432h295l-143 -818l369 396h348l-4 -19l-455 -465l342 -503l-4 -23h-346l-281 444l-78 -444h-295z" />
    <glyph glyph-name="l" unicode="l" horiz-adv-x="550" 
d="M274 1432h293l-252 -1432h-292z" />
    <glyph glyph-name="m" unicode="m" horiz-adv-x="1816" 
d="M961 0h-291l96 543q18 104 -14.5 162.5t-120.5 58.5q-84 0 -144.5 -66t-76.5 -157l-97 -541h-295l179 1012h258v-115q104 137 290 137q213 0 263 -188q86 103 170.5 146.5t197.5 43.5q55 0 101.5 -9.5t90 -32t73 -59t49.5 -90t20.5 -126t-14.5 -166.5l-99 -553h-297
l97 547q19 102 -6.5 156.5t-110.5 54.5t-146 -62.5t-77 -152.5z" />
    <glyph glyph-name="n" unicode="n" horiz-adv-x="1261" 
d="M1044 0h-296l94 535q41 235 -168 235q-100 1 -177.5 -72.5t-95.5 -175.5l-92 -522h-291l179 1012h266l-12 -129q148 156 354 153q423 0 334 -499z" />
    <glyph glyph-name="o" unicode="o" horiz-adv-x="1243" 
d="M510 -23q-220 0 -344.5 121.5t-124.5 317.5q0 171 84 312.5t234.5 223.5t336.5 82q219 0 345 -123t126 -321q0 -171 -82 -310.5t-233 -221t-342 -81.5zM557 240q75 0 135.5 27.5t97 73t55.5 99t19 109.5q0 93 -52.5 157t-160.5 64q-72 0 -132 -28.5t-97.5 -74.5
t-57.5 -100t-20 -108q0 -92 53 -155.5t160 -63.5z" />
    <glyph glyph-name="p" unicode="p" horiz-adv-x="1314" 
d="M635 244q130 0 214.5 88t84.5 219q0 94 -54 153.5t-153 59.5q-60 0 -115 -17t-102 -51t-75.5 -94t-28.5 -139q0 -103 66.5 -161t162.5 -58zM238 -446h-297l256 1456h264l-4 -129q82 84 168.5 115.5t193.5 31.5q192 0 305 -116.5t113 -311.5q0 -138 -47 -255
t-128.5 -197.5t-193.5 -125.5t-239 -45q-87 0 -165 34.5t-126 109.5z" />
    <glyph glyph-name="q" unicode="q" horiz-adv-x="1314" 
d="M553 244q58 0 115 20t104 57.5t76 98t29 133.5q0 108 -66.5 159.5t-165.5 51.5q-132 0 -215.5 -89.5t-83.5 -217.5q0 -96 55 -154.5t152 -58.5zM1006 -446h-297l98 567q-73 -74 -163.5 -109t-178.5 -35q-194 0 -308 115t-114 314q0 134 47 250.5t127.5 197.5t192 127.5
t237.5 46.5q107 0 182 -31.5t127 -115.5l41 129h265z" />
    <glyph glyph-name="r" unicode="r" horiz-adv-x="933" 
d="M197 1010h274l2 -111q124 135 295 135q145 0 231 -92l-163 -233q-63 51 -154 51q-100 0 -178.5 -62t-97.5 -172l-93 -526h-295z" />
    <glyph glyph-name="s" unicode="s" horiz-adv-x="1015" 
d="M963 909l-179 -184q-92 74 -227 74q-76 0 -119 -26.5t-43 -70.5q0 -72 135 -75q67 -2 121 -10t111 -30t92.5 -57t53 -96t3.5 -141q-11 -64 -45 -121.5t-93 -105.5t-152 -76.5t-209 -28.5q-128 0 -235.5 36.5t-209.5 135.5l164 209q128 -123 330 -127q70 -2 119 25t49 73
q0 73 -158 78q-69 2 -131 18t-118 47t-89 86t-33 128q0 75 28.5 138t77 105t113 71.5t134.5 42.5t145 13q237 0 365 -131z" />
    <glyph glyph-name="t" unicode="t" horiz-adv-x="843" 
d="M334 1255l299 33l-49 -282h256l-43 -246h-258l-68 -381q-12 -73 15.5 -104t76.5 -31q71 0 127 24l25 -245q-112 -41 -221 -46q-69 -3 -123 8t-99.5 38.5t-70 75t-33 117t9.5 163.5l68 381h-180l43 246h180z" />
    <glyph glyph-name="u" unicode="u" horiz-adv-x="1263" 
d="M184 1012h297l-94 -535q-41 -235 168 -235q100 -1 177 72t95 175l93 523h290l-178 -1012h-266l12 133q-143 -156 -354 -153q-59 0 -108 9.5t-95 31.5t-75.5 59t-50.5 92t-20.5 130t15.5 173z" />
    <glyph glyph-name="v" unicode="v" horiz-adv-x="1210" 
d="M483 641l60 -334l178 334l211 371h338l-615 -1018h-323l-254 1018h325z" />
    <glyph glyph-name="w" unicode="w" horiz-adv-x="1732" 
d="M819 1012h232l79 -645l107 229l215 416h330l-555 -1018h-293l-90 506l-269 -506h-294l-193 1018h330l67 -416l25 -229z" />
    <glyph glyph-name="x" unicode="x" horiz-adv-x="1110" 
d="M580 719l215 291h352l-2 -11l-414 -495l258 -498l-2 -6h-344l-147 299l-232 -299h-354l2 6l436 512l-244 481l2 11h340z" />
    <glyph glyph-name="y" unicode="y" horiz-adv-x="1257" 
d="M180 1012h295l-90 -516q-19 -108 16 -177t134 -69q101 0 184 76t102 180l90 506h293l-184 -1041q-22 -126 -78.5 -224t-136 -157t-171.5 -88.5t-194 -29.5q-100 0 -181 24t-141.5 72t-91 126.5t-26.5 182.5h276q-1 -42 16.5 -70.5t49.5 -42t64 -18t75 -4.5q84 0 161.5 61
t96.5 166l27 152q-45 -48 -86.5 -76.5t-88.5 -41.5t-84.5 -16t-100.5 -3q-180 0 -270 136.5t-48 373.5z" />
    <glyph glyph-name="z" unicode="z" horiz-adv-x="976" 
d="M174 1012h784l-24 -144l-531 -596h445l-47 -272h-854l22 125l555 631h-395z" />
    <glyph glyph-name="braceleft" unicode="{" horiz-adv-x="761" 
d="M559 -92l-41 -232q-235 -43 -346.5 49t-77.5 285l53 305q7 25 5.5 52t-9.5 49.5t-35.5 36.5t-72.5 14l39 217q45 0 77 13.5t49.5 38t26 47t13.5 53.5l51 290q36 206 176.5 302t368.5 53l-39 -224q-88 19 -134 -15t-63 -132l-47 -274q-2 -10 -5 -28q-5 -32 -8 -47
t-10 -40.5t-15 -38.5t-21.5 -32t-31 -31t-43 -24t-57.5 -22q41 -12 66.5 -29.5t37 -38t13 -47.5t-2 -55t-10.5 -64q-3 -16 -5 -24l-47 -266q-17 -98 9.5 -124t135.5 -17z" />
    <glyph glyph-name="bar" unicode="|" horiz-adv-x="581" 
d="M602 1569l-303 -1721h-283l303 1721h283z" />
    <glyph glyph-name="braceright" unicode="}" horiz-adv-x="763" 
d="M-84 -328l41 230q106 -8 142 18.5t53 124.5l47 266q2 11 6.5 36t6 35t6.5 31t9.5 30.5t12 26t16.5 25.5l21.5 21.5t28 20.5t36 16.5t45.5 15.5q-40 13 -65 30.5t-36.5 37t-13 47.5t2 54t10.5 63l6 30l47 275q17 95 -16 123t-129 16l40 232q244 43 351 -53t71 -302
l-51 -291q-7 -25 -5.5 -52t9.5 -49t36 -36t73 -14l-39 -217q-45 0 -77 -13.5t-49.5 -38t-26 -47t-13.5 -53.5l-53 -305q-34 -193 -178.5 -285t-364.5 -49z" />
    <glyph glyph-name="asciitilde" unicode="~" horiz-adv-x="1282" 
d="M979 793l213 -64q-59 -142 -155.5 -219t-209.5 -80q-46 -1 -88.5 14t-76.5 37.5t-67 45t-72.5 37.5t-80.5 14q-83 -4 -147 -113l-193 70q54 125 152.5 204.5t226.5 83.5q53 1 103.5 -17.5t84.5 -42.5t78.5 -49t83.5 -34q78 -16 148 113z" />
    <glyph glyph-name="exclamdown" unicode="&#xa1;" horiz-adv-x="579" 
d="M-41 -371h317q28 163 84 495t86 505h-303zM524 926q0 -97 -66.5 -154t-150.5 -57q-64 0 -107.5 39t-43.5 110q0 100 68 154.5t155 54.5q61 0 103 -39.5t42 -107.5z" />
    <glyph glyph-name="cent" unicode="&#xa2;" horiz-adv-x="1128" 
d="M819 305l146 -209q-65 -58 -137 -90.5t-166 -52.5l-29 -156h-271l29 160q-151 45 -239.5 154.5t-88.5 275.5q0 226 140 387.5t372 222.5l27 158h270l-26 -156q143 -35 233 -141l-200 -182q-59 74 -199 74q-75 0 -148 -40.5t-121.5 -114.5t-48.5 -159q0 -100 65.5 -163.5
t158.5 -63.5q58 0 121.5 24.5t111.5 71.5z" />
    <glyph glyph-name="sterling" unicode="&#xa3;" horiz-adv-x="1351" 
d="M588 889q0 -36 4 -90h405l-45 -256h-348q-5 -30 -17.5 -66.5t-33 -78t-52.5 -72t-69 -37.5h772l-51 -289h-1149l51 291q56 1 97 21t67.5 57.5t42.5 77.5t29 96h-191l45 256h142q-6 47 -6 102q0 117 43 219t121 177t193 118t253 43q230 0 342 -117t70 -333h-277
q14 93 -38.5 133.5t-145.5 40.5q-102 0 -178 -75.5t-76 -217.5z" />
    <glyph glyph-name="currency" unicode="&#xa4;" horiz-adv-x="1273" 
d="M604 436q111 0 175.5 68.5t64.5 177.5q0 77 -43 120.5t-125 43.5q-100 0 -170 -68.5t-70 -173.5q0 -76 46 -122t122 -46zM387 242l-137 -121l-184 221l137 115q-20 102 -1 185.5t77 176.5l-109 121l264 223l96 -119q95 27 191 27q87 0 172 -31l145 123l181 -223
l-140 -117q43 -187 -59 -366l94 -115l-256 -217l-100 117q-82 -27 -193 -27q-89 0 -178 27z" />
    <glyph glyph-name="yen" unicode="&#xa5;" horiz-adv-x="1564" 
d="M231 209l39 219h308l20 119h-307l39 219h192l-321 651l2 17h360l129 -291l117 -297l227 295l242 293h367l-3 -17l-571 -651h189l-39 -219h-310l-20 -119h309l-39 -219h-309l-37 -209h-313l37 209h-308z" />
    <glyph glyph-name="brokenbar" unicode="&#xa6;" horiz-adv-x="600" 
d="M465 698h-299l135 758h299zM143 571h299l-133 -759h-299z" />
    <glyph glyph-name="section" unicode="&#xa7;" horiz-adv-x="1261" 
d="M25 166l186 184q72 -84 153 -116.5t189 -32.5q266 4 266 108q0 75 -225 72q-77 -1 -148.5 8.5t-137 33.5t-109.5 60t-63 92t-3 125q14 60 62.5 116t128.5 83q-56 21 -81.5 72.5t-25.5 109.5q0 71 28.5 129.5t77.5 97t109 67t129.5 44t131.5 22.5t122 7q80 0 157 -14.5
t155 -54.5t120 -101l-203 -145q-55 45 -119.5 64.5t-156.5 21.5q-70 1 -127.5 -8t-98 -34t-40.5 -63q0 -82 217 -82q41 0 78.5 -2t80 -7t78 -13.5t72 -21.5t62.5 -30.5t49.5 -41.5t33 -54t12.5 -67.5t-11 -83.5q-18 -60 -69 -115t-120 -82q69 -33 97.5 -89t17.5 -124
q-12 -68 -48.5 -123.5t-88.5 -91.5t-111 -61.5t-124.5 -39t-119.5 -19t-106 -5.5q-156 0 -282.5 52t-194.5 153zM895 721q0 47 -62 71.5t-153 26.5q-105 2 -185.5 -28t-80.5 -86q0 -45 60 -71t149 -28q36 -1 78.5 4t88 16.5t75.5 36t30 58.5z" />
    <glyph glyph-name="dieresis" unicode="&#xa8;" horiz-adv-x="1077" 
d="M352 1298q0 90 60.5 140.5t138.5 50.5q57 0 95 -36t38 -99q0 -88 -60.5 -137.5t-138.5 -49.5q-58 0 -95.5 34.5t-37.5 96.5zM885 1303q0 88 61 137t139 49q55 0 93.5 -36t38.5 -99q0 -75 -56.5 -131t-134.5 -56q-61 0 -101 36.5t-40 99.5z" />
    <glyph glyph-name="copyright" unicode="&#xa9;" horiz-adv-x="1703" 
d="M1014 1477q153 0 273.5 -46t198.5 -129t118.5 -194.5t40.5 -245.5q0 -182 -63.5 -343t-178 -280t-283.5 -188t-370 -69q-152 0 -275.5 46.5t-204.5 129.5t-124.5 197t-43.5 249q0 176 68.5 336t188 278.5t290.5 188.5t365 70zM489 657q0 -150 97.5 -236.5t242.5 -86.5
q186 0 345 133l-115 139q-79 -67 -176 -67q-73 0 -123.5 40t-50.5 113q0 109 71 167.5t170 58.5q42 0 83.5 -17.5t66.5 -44.5l160 135q-108 129 -285 129q-129 0 -239 -56.5t-178.5 -164t-68.5 -242.5zM330 631q0 -204 122.5 -327.5t333.5 -123.5q188 0 333 84t222.5 233
t77.5 339q0 203 -115 321.5t-325 118.5q-183 0 -331.5 -83.5t-233 -231.5t-84.5 -330z" />
    <glyph glyph-name="ordfeminine" unicode="&#xaa;" horiz-adv-x="897" 
d="M717 1354l28 80h207l-116 -662h-213l8 96q-36 -56 -98 -85t-125 -29q-124 0 -205.5 72.5t-81.5 207.5q0 101 33 181.5t91 131.5t133 78t161 27q64 0 112.5 -27t65.5 -71zM528 1253q-71 0 -124 -48.5t-56 -129.5q-1 -57 33 -89t88 -32q89 0 141 77q45 65 31.5 134.5
t-80.5 84.5q-15 3 -33 3zM47 444l35 201h745l-34 -201h-746z" />
    <glyph glyph-name="guillemotleft" unicode="&#xab;" horiz-adv-x="1155" 
d="M63 608l365 455h313v2l-364 -457q151 -348 205 -456h-314zM485 608l365 455h315v2l-364 -457l205 -456h-316z" />
    <glyph glyph-name="logicalnot" unicode="&#xac;" horiz-adv-x="1110" 
d="M997 795l-88 -500h-247l45 254h-590l43 246h837z" />
    <glyph glyph-name="registered" unicode="&#xae;" horiz-adv-x="1705" 
d="M1163 348l-123 264q53 14 95.5 47.5t66.5 77t35 92t-1.5 95t-39.5 83.5t-81.5 60t-127.5 23h-340l-131 -742h211l39 221h86l84 -221h227zM821 907h142q51 0 62 -47q11 -44 -20 -84q-27 -35 -69 -35h-143zM1014 1477q153 0 273.5 -46t198.5 -129t118.5 -194.5t40.5 -245.5
q0 -183 -61 -343t-173.5 -279.5t-283 -188.5t-377.5 -69q-152 0 -275.5 46.5t-204.5 129.5t-124.5 197t-43.5 249q0 141 41.5 272t122 240t190 190t253.5 126t305 45zM326 631q-6 -204 112.5 -327.5t329.5 -123.5q188 0 335.5 84t229.5 233t88 339q6 203 -105 321.5
t-321 118.5q-150 0 -275 -49t-209.5 -135t-132.5 -204.5t-52 -256.5z" />
    <glyph glyph-name="macron" unicode="&#xaf;" horiz-adv-x="927" 
d="M313 1194l43 244h736l-43 -244h-736z" />
    <glyph glyph-name="degree" unicode="&#xb0;" horiz-adv-x="749" 
d="M496 1296q-69 0 -110.5 -42.5t-41.5 -96.5q0 -42 27.5 -71t79.5 -29q68 0 109.5 42t41.5 95q0 42 -27 72t-79 30zM522 1454q121 0 184.5 -68t63.5 -167q0 -58 -24.5 -114.5t-68 -102t-110.5 -73.5t-145 -28q-118 0 -182 66.5t-64 165.5q0 79 39 151t120.5 121t186.5 49z
" />
    <glyph glyph-name="plusminus" unicode="&#xb1;" horiz-adv-x="1114" 
d="M133 639l49 276h287l51 293h287l-51 -293h286l-49 -276h-286l-52 -291h-286l51 291h-287zM20 23l46 258h868l-45 -258h-869z" />
    <glyph glyph-name="twosuperior" unicode="&#xb2;" horiz-adv-x="772" 
d="M403 1329h-200q22 111 123 175.5t223 64.5q126 0 202 -54t76 -157q0 -72 -26 -124t-68 -80.5t-93 -47t-102.5 -29t-95.5 -20t-73.5 -27t-34.5 -43.5h424l-35 -196h-619l35 196q11 62 43 106.5t74.5 68t91.5 39t96 25.5t85 20.5t61.5 29.5t23.5 49q0 31 -27.5 48
t-62.5 16.5t-70.5 -16.5t-50.5 -44z" />
    <glyph glyph-name="threesuperior" unicode="&#xb3;" horiz-adv-x="786" 
d="M473 1102h-119l29 153h111q65 0 96 22.5t31 57.5q0 27 -28 42.5t-75 17.5t-85 -13t-48 -45h-182q14 77 72 132t130 77.5t148 22.5q70 0 130.5 -22t102 -71.5t41.5 -117.5q0 -128 -127 -180q42 -15 67.5 -54.5t25.5 -87.5q0 -61 -24.5 -109t-62.5 -76.5t-90 -47t-101 -25
t-101 -6.5q-45 0 -88 8.5t-82.5 27.5t-67.5 46t-40.5 68t-4.5 90h215q-1 -31 26.5 -44.5t71.5 -13.5q51 0 91 22t40 62q0 30 -26.5 47t-75.5 17z" />
    <glyph glyph-name="acute" unicode="&#xb4;" horiz-adv-x="569" 
d="M778 1430l-2 -13l-289 -289h-258l2 15l203 287h344z" />
    <glyph glyph-name="mu" unicode="&#xb5;" horiz-adv-x="1263" 
d="M1057 0h-256l-13 104q-39 -70 -106.5 -109t-140.5 -42q-74 -3 -131.5 31.5t-75.5 101.5l-92 -522h-283l256 1448h297l-98 -557q-19 -103 32.5 -164.5t133.5 -59.5q86 0 163 63.5t99 182.5l94 535h299z" />
    <glyph glyph-name="mu" unicode="&#x3bc;" horiz-adv-x="1263" 
d="M1057 0h-256l-13 104q-39 -70 -106.5 -109t-140.5 -42q-74 -3 -131.5 31.5t-75.5 101.5l-92 -522h-283l256 1448h297l-98 -557q-19 -103 32.5 -164.5t133.5 -59.5q86 0 163 63.5t99 182.5l94 535h299z" />
    <glyph glyph-name="paragraph" unicode="&#xb6;" horiz-adv-x="1761" 
d="M967 1130l-277 -1564h-321l143 819q-239 18 -343 180q-88 137 -52 326q36 187 175 332q167 176 409 206q45 5 90 5h1024l-54 -304h-174l-276 -1564h-322l277 1564h-299z" />
    <glyph glyph-name="periodcentered" unicode="&#xb7;" horiz-adv-x="569" 
d="M102 580q0 95 65.5 149.5t149.5 54.5q63 0 105.5 -38t42.5 -107q0 -97 -66 -151t-151 -54q-62 0 -104 38.5t-42 107.5z" />
    <glyph glyph-name="cedilla" unicode="&#xb8;" horiz-adv-x="745" 
d="M41 -367l143 115q19 -29 56 -49t77 -21q34 -2 61.5 13t39.5 45q16 37 -10.5 64.5t-70 28.5t-87.5 -24l-57 50l106 196h211l-53 -100q55 -3 94.5 -21t60 -44t29.5 -60t6.5 -67t-12.5 -66q-23 -75 -81 -124t-126 -67t-143 -14q-81 5 -148.5 43t-95.5 102z" />
    <glyph glyph-name="onesuperior" unicode="&#xb9;" horiz-adv-x="579" 
d="M104 793l31 178h127l64 352l-111 -23l31 173l325 81l-104 -583h131l-31 -178h-463z" />
    <glyph glyph-name="ordmasculine" unicode="&#xba;" horiz-adv-x="870" 
d="M41 446l35 203h729l-35 -203h-729zM457 748q-146 0 -234 74t-88 214q0 132 61 227.5t161 142t225 46.5q147 0 233 -73t86 -212q0 -197 -126 -308t-318 -111zM494 954q72 0 125 47t53 129q0 57 -35.5 90t-91.5 33q-70 0 -125 -48.5t-55 -127.5q0 -59 37 -91t92 -32z" />
    <glyph glyph-name="guillemotright" unicode="&#xbb;" horiz-adv-x="1155" 
d="M887 1067l205 -455l-365 -454h-315l364 454l-205 457v-2h316zM467 1067l205 -455l-365 -454h-313l364 454l-204 457v-2h313z" />
    <glyph glyph-name="onequarter" unicode="&#xbc;" horiz-adv-x="1648" 
d="M1245 758h266l-79 -455h92l-31 -178h-92l-23 -125h-196l22 125h-403l22 176zM1235 303l45 256l-248 -256h203zM414 -2h-246l1055 1452h250zM102 676l33 180h127l62 350l-113 -22l31 172l327 82l-102 -582h129l-33 -180h-461z" />
    <glyph glyph-name="onehalf" unicode="&#xbd;" horiz-adv-x="1683" 
d="M412 -4h-246l1055 1454h249zM98 674l33 180h127l61 352l-110 -24l31 174l325 82l-102 -584h131l-33 -180h-463zM1169 528h-200q22 111 123 175.5t223 64.5q126 0 202 -54t76 -157q0 -72 -26 -124t-67.5 -80.5t-92.5 -47t-102.5 -29t-95.5 -20t-74 -27t-35 -43.5h424
l-35 -196h-619l35 196q11 62 43 106.5t74.5 68t91.5 39t96 25.5t85 20.5t61.5 29.5t23.5 49q0 31 -28.5 47t-65 15.5t-71.5 -16t-46 -42.5z" />
    <glyph glyph-name="threequarters" unicode="&#xbe;" horiz-adv-x="1724" 
d="M461 1014h-113l25 147h104q63 0 87 11t34 55q1 5 0.5 11.5t-6 16.5t-14.5 18t-29 13.5t-47 5.5q-52 0 -79 -10t-46 -43h-178q13 74 70 126t126.5 73.5t141.5 21.5q106 0 185 -53.5t79 -151.5q0 -52 -32.5 -103t-84.5 -65q39 -13 60.5 -49t21.5 -77q0 -69 -35.5 -122
t-92.5 -82.5t-119 -44t-124 -14.5q-54 0 -103 13.5t-90 39.5t-61 72t-10 105h205q26 -51 100 -51q48 0 84.5 19t36.5 54q0 64 -96 64zM500 -12h-248l1063 1462h250zM1323 758h266l-80 -455h93l-31 -178h-92l-23 -125h-196l22 125h-403l22 176zM1313 303l45 256l-248 -256
h203z" />
    <glyph glyph-name="questiondown" unicode="&#xbf;" horiz-adv-x="1183" 
d="M690 1065q107 0 144 -81q31 -70 -6 -152q-39 -86 -124 -117q-39 -14 -83 -13q-112 3 -148 84q-31 70 9 152q41 84 130 115q38 12 78 12zM1024 35h-322q-44 -178 -241 -178q-81 0 -126.5 35t-43.5 90q1 31 11 57t22.5 43t39 36t46 30t59 32t63.5 35q219 124 234 379h-317
q-5 -73 -24 -114t-79 -85q-38 -29 -95 -65t-94 -59.5t-79.5 -59.5t-67.5 -71t-42.5 -86t-18.5 -113q-3 -163 126 -261t337 -98q537 0 612 453z" />
    <glyph glyph-name="Agrave" unicode="&#xc0;" horiz-adv-x="1619" 
d="M1192 0l-62 246h-735l-147 -246h-357l895 1434h349l391 -1434h-334zM1059 528l-141 588l-353 -588h494zM676 1839l2 12h344l100 -286l-2 -15h-258z" />
    <glyph glyph-name="Aacute" unicode="&#xc1;" horiz-adv-x="1619" 
d="M1130 246l62 -246h334l-391 1434h-349l-895 -1434h357l147 246h735zM918 1116l141 -588h-494zM1376 1851l-2 -12l-289 -289h-258l2 15l203 286h344z" />
    <glyph glyph-name="Acircumflex" unicode="&#xc2;" horiz-adv-x="1619" 
d="M1130 246l62 -246h334l-391 1434h-349l-895 -1434h357l147 246h735zM918 1116l141 -588h-494zM958 1858h154l254 -287l-2 -10h-287l-82 86l-108 -86h-289l2 10z" />
    <glyph glyph-name="Atilde" unicode="&#xc3;" horiz-adv-x="1619" 
d="M1192 0l-62 246h-735l-147 -246h-357l895 1434h349l391 -1434h-334zM1059 528l-141 588l-353 -588h494zM766 1544l-156 103q149 232 330 184q23 -6 55.5 -22.5t55 -27t48.5 -14.5t49 12t44 54l166 -90q-78 -129 -155.5 -172t-162.5 -12q-22 8 -52 22.5t-49 23.5t-44 15
t-44 1.5t-41.5 -23.5t-43.5 -54z" />
    <glyph glyph-name="Adieresis" unicode="&#xc4;" horiz-adv-x="1619" 
d="M1130 246l62 -246h334l-391 1434h-349l-895 -1434h357l147 246h735zM918 1116l141 -588h-494zM590 1683q0 90 60 140.5t138 50.5q57 0 95.5 -36t38.5 -99q0 -88 -60.5 -137.5t-138.5 -49.5q-58 0 -95.5 34.5t-37.5 96.5zM1122 1688q0 88 61.5 137t139.5 49q55 0 93 -36
t38 -99q0 -75 -56 -131t-134 -56q-61 0 -101.5 36.5t-40.5 99.5z" />
    <glyph glyph-name="Aring" unicode="&#xc5;" horiz-adv-x="1619" 
d="M702 1599q0 95 53 166t129.5 104.5t159.5 33.5q100 0 171 -59t71 -163q0 -161 -151 -254l391 -1427h-340l-66 246h-719l-155 -246h-355l893 1427q-82 59 -82 172zM584 543h460l-61 250q-45 163 -61 372q-93 -215 -195 -381zM1010 1743q-79 0 -117 -58q-32 -48 -10 -93
q24 -47 92 -48q82 0 119 59q30 48 7 93q-24 47 -91 47z" />
    <glyph glyph-name="AE" unicode="&#xc6;" horiz-adv-x="1839" 
d="M1694 283l-49 -283h-838l39 223h-455l-168 -223h-373l1119 1434h895l-49 -279h-519l-51 -295h484l-48 -270h-483l-55 -307h551zM604 504h291l104 520z" />
    <glyph glyph-name="Ccedilla" unicode="&#xc7;" horiz-adv-x="1429" 
d="M319 -416l144 105q19 -29 67 -49t98 -13.5t68 49.5q16 37 -10.5 65t-70 29t-87.5 -24l-55 49l96 180q-126 20 -221 75.5t-151 137t-83.5 177.5t-27.5 206q0 92 19.5 184t58.5 180t95 167t133 146t167.5 115.5t204 75.5t237.5 27q302 0 486 -221l-236 -198
q-50 60 -130.5 89t-172.5 29q-106 0 -196.5 -33.5t-152.5 -88.5t-106 -126t-64.5 -144.5t-20.5 -145.5q0 -56 11.5 -107.5t39.5 -100t70.5 -83.5t108 -56.5t148.5 -21.5q90 0 197.5 37.5t179.5 99.5l160 -221q-238 -198 -549 -211l-37 -72q68 -4 111.5 -27.5t59.5 -60
t16 -76t-13 -81.5q-21 -66 -67.5 -113.5t-104 -68.5t-122.5 -24t-123 13t-105.5 50t-69.5 81z" />
    <glyph glyph-name="Egrave" unicode="&#xc8;" horiz-adv-x="1343" 
d="M1198 295l-51 -295h-1092q42 239 126 717.5t126 716.5h1063l-51 -293h-750l-49 -277h707l-49 -280h-707l-51 -289h778zM582 1862l2 12h344l100 -287l-2 -14h-258z" />
    <glyph glyph-name="Eacute" unicode="&#xc9;" horiz-adv-x="1343" 
d="M1147 0l51 295h-778l51 289h707l49 280h-707l49 277h750l51 293h-1063q-42 -238 -126 -716.5t-126 -717.5h1092zM1264 1874l-2 -12l-289 -289h-258l2 14l203 287h344z" />
    <glyph glyph-name="Ecircumflex" unicode="&#xca;" horiz-adv-x="1343" 
d="M1147 0l51 295h-778l51 289h707l49 280h-707l49 277h750l51 293h-1063q-42 -238 -126 -716.5t-126 -717.5h1092zM858 1870h154l254 -287l-2 -10h-287l-82 86l-109 -86h-288l2 10z" />
    <glyph glyph-name="Edieresis" unicode="&#xcb;" horiz-adv-x="1343" 
d="M1147 0l51 295h-778l51 289h707l49 280h-707l49 277h750l51 293h-1063q-42 -238 -126 -716.5t-126 -717.5h1092zM492 1690q0 86 59 134t137 48q57 0 95 -34t38 -95q0 -85 -60 -131.5t-138 -46.5q-57 0 -94 33t-37 92zM1022 1694q0 83 61.5 130.5t139.5 47.5
q55 0 93 -34.5t38 -94.5q0 -72 -56.5 -125t-134.5 -53q-61 0 -101 34.5t-40 94.5z" />
    <glyph glyph-name="Igrave" unicode="&#xcc;" horiz-adv-x="641" 
d="M373 0h-318l252 1434h318zM190 1849l3 13h344l100 -287l-2 -14h-258z" />
    <glyph glyph-name="Iacute" unicode="&#xcd;" horiz-adv-x="641" 
d="M55 0h318l252 1434h-318zM889 1853l-2 -12l-289 -289h-258l2 15l203 286h344z" />
    <glyph glyph-name="Icircumflex" unicode="&#xce;" horiz-adv-x="641" 
d="M55 0h318l252 1434h-318zM469 1864h154l254 -287l-3 -10h-286l-82 86l-109 -86h-288l2 10z" />
    <glyph glyph-name="Idieresis" unicode="&#xcf;" horiz-adv-x="641" 
d="M111 1690q0 90 61 140t139 50q56 0 93.5 -35.5t37.5 -99.5q0 -88 -60 -137t-138 -49q-58 0 -95.5 34.5t-37.5 96.5zM608 1694q0 88 61.5 137t139.5 49q55 0 92 -36t37 -99q0 -75 -56 -130.5t-134 -55.5q-61 0 -100.5 36t-39.5 99zM55 0h318l252 1434h-318z" />
    <glyph glyph-name="Eth" unicode="&#xd0;" horiz-adv-x="1564" 
d="M23 586l45 256h159l105 592h542q155 0 278.5 -44t202 -122.5t120 -183.5t41.5 -230q0 -132 -35.5 -255.5t-109 -232.5t-177.5 -190.5t-251 -128.5t-320 -47h-543l102 586h-159zM487 586l-53 -303h238q217 0 347 119.5t169 336.5q38 210 -55.5 315t-307.5 105h-237
l-56 -317h259l-46 -256h-258z" />
    <glyph glyph-name="Ntilde" unicode="&#xd1;" horiz-adv-x="1622" 
d="M582 1434l559 -932l59 450l84 482h322l-252 -1434h-275l-551 918l-71 -472l-78 -446h-324l252 1434h275zM750 1556l-166 109q75 114 160 168t190 27q24 -7 58.5 -24.5t58.5 -28t51 -15t51.5 12.5t46.5 57l176 -97q-83 -137 -164.5 -182t-171.5 -12q-23 8 -55 23.5
t-52.5 25.5t-46.5 16.5t-46.5 1.5t-44 -25t-45.5 -57z" />
    <glyph glyph-name="Ograve" unicode="&#xd2;" horiz-adv-x="1716" 
d="M1667 850q0 -197 -71 -364t-194 -280.5t-292.5 -177t-364.5 -63.5q-303 0 -480 166t-177 453q0 197 71 364t194 280t292.5 176.5t364.5 63.5q303 0 480 -165.5t177 -452.5zM1337 717q36 200 -68.5 332.5t-310.5 132.5q-150 0 -277 -73.5t-200 -198t-73 -269.5
q0 -171 105 -279t282 -108q207 0 356.5 130.5t185.5 332.5zM737 1882l2 12h344l101 -286l-2 -15h-258z" />
    <glyph glyph-name="Oacute" unicode="&#xd3;" horiz-adv-x="1716" 
d="M1667 850q0 287 -177 452.5t-480 165.5q-195 0 -364.5 -63.5t-292.5 -176.5t-194 -280t-71 -364q0 -287 177 -453t480 -166q195 0 364.5 63.5t292.5 177t194 280.5t71 364zM1337 717q-36 -202 -185.5 -332.5t-356.5 -130.5q-177 0 -282 108t-105 279q0 145 73 269.5
t200 198t277 73.5q206 0 310.5 -132.5t68.5 -332.5zM1456 1888l-2 -12l-289 -289h-258l2 15l203 286h344z" />
    <glyph glyph-name="Ocircumflex" unicode="&#xd4;" horiz-adv-x="1716" 
d="M1667 850q0 287 -177 452.5t-480 165.5q-195 0 -364.5 -63.5t-292.5 -176.5t-194 -280t-71 -364q0 -287 177 -453t480 -166q195 0 364.5 63.5t292.5 177t194 280.5t71 364zM1337 717q-36 -202 -185.5 -332.5t-356.5 -130.5q-177 0 -282 108t-105 279q0 145 73 269.5
t200 198t277 73.5q206 0 310.5 -132.5t68.5 -332.5zM1028 1884h164l268 -291l-2 -10h-303l-88 86l-115 -86h-307l2 10z" />
    <glyph glyph-name="Otilde" unicode="&#xd5;" horiz-adv-x="1716" 
d="M1667 850q0 -197 -71 -364t-194 -280.5t-292.5 -177t-364.5 -63.5q-303 0 -480 166t-177 453q0 197 71 364t194 280t292.5 176.5t364.5 63.5q303 0 480 -165.5t177 -452.5zM1337 717q36 200 -68.5 332.5t-310.5 132.5q-150 0 -277 -73.5t-200 -198t-73 -269.5
q0 -171 105 -279t282 -108q207 0 356.5 130.5t185.5 332.5zM827 1579l-163 107q73 114 157 167t189 27q24 -7 57.5 -24.5t57.5 -28t51 -15t51 12.5t45 57l174 -96q-82 -136 -162.5 -181t-169.5 -12q-24 8 -55 23.5l-51 25.5t-46 16t-46 1.5t-43.5 -24t-45.5 -56.5z" />
    <glyph glyph-name="Odieresis" unicode="&#xd6;" horiz-adv-x="1716" 
d="M1667 850q0 287 -177 452.5t-480 165.5q-195 0 -364.5 -63.5t-292.5 -176.5t-194 -280t-71 -364q0 -287 177 -453t480 -166q195 0 364.5 63.5t292.5 177t194 280.5t71 364zM1337 717q-36 -202 -185.5 -332.5t-356.5 -130.5q-177 0 -282 108t-105 279q0 145 73 269.5
t200 198t277 73.5q206 0 310.5 -132.5t68.5 -332.5zM631 1704q0 90 60 140t138 50q57 0 95.5 -36t38.5 -99q0 -88 -60.5 -137t-138.5 -49q-58 0 -95.5 34.5t-37.5 96.5zM1163 1708q0 88 61.5 137t139.5 49q55 0 93 -36t38 -99q0 -75 -56 -130.5t-134 -55.5
q-61 0 -101.5 36.5t-40.5 98.5z" />
    <glyph glyph-name="multiply" unicode="&#xd7;" horiz-adv-x="944" 
d="M377 1014l139 -183l215 183l150 -183l-224 -192l156 -186l-213 -174l-151 184l-211 -184l-158 188l213 178l-146 180z" />
    <glyph glyph-name="Oslash" unicode="&#xd8;" horiz-adv-x="1642" 
d="M975 1464q127 0 252 -39l116 146h308l-217 -277q105 -108 142 -264t5 -323q-22 -113 -68 -219t-121.5 -201.5t-172.5 -166.5t-228 -113t-280 -42q-168 0 -287 49l-125 -157h-305l229 290q-68 79 -102.5 193t-34.5 238q0 126 37.5 252t113.5 240t180.5 202t249 140
t308.5 52zM762 256q92 0 170 26.5t132.5 69.5t96.5 102t66.5 119.5t38.5 126.5q40 198 -41 332l-600 -762q68 -14 137 -14zM926 1176q-102 0 -189.5 -35t-147 -92t-102 -131t-62 -152t-19.5 -154q0 -115 26 -192l594 747q-74 9 -100 9z" />
    <glyph glyph-name="Ugrave" unicode="&#xd9;" horiz-adv-x="1587" 
d="M1274 1432h317l-141 -801q-57 -318 -252.5 -492t-492.5 -174q-115 0 -211 25t-173 76.5t-124 130.5t-63 187t9 247l142 801h317l-141 -801q-34 -193 40.5 -290.5t250.5 -88.5q159 9 254.5 110t126.5 269zM664 1855l2 13h344l100 -287l-2 -14h-258z" />
    <glyph glyph-name="Uacute" unicode="&#xda;" horiz-adv-x="1587" 
d="M1591 1432h-317l-141 -801q-31 -168 -126.5 -269t-254.5 -110q-176 -9 -250.5 88.5t-40.5 290.5l141 801h-317l-142 -801q-25 -139 -9 -247t63 -187t124 -130.5t173 -76.5t211 -25q297 0 492.5 174t252.5 492zM1368 1862l-2 -13l-289 -288h-258l2 14l203 287h344z" />
    <glyph glyph-name="Ucircumflex" unicode="&#xdb;" horiz-adv-x="1587" 
d="M1591 1432h-317l-141 -801q-31 -168 -126.5 -269t-254.5 -110q-176 -9 -250.5 88.5t-40.5 290.5l141 801h-317l-142 -801q-25 -139 -9 -247t63 -187t124 -130.5t173 -76.5t211 -25q297 0 492.5 174t252.5 492zM942 1870h162l266 -289l-2 -10h-301l-86 86l-115 -86h-303
l2 10z" />
    <glyph glyph-name="Udieresis" unicode="&#xdc;" horiz-adv-x="1587" 
d="M1591 1432h-317l-141 -801q-31 -168 -126.5 -269t-254.5 -110q-176 -9 -250.5 88.5t-40.5 290.5l141 801h-317l-142 -801q-25 -139 -9 -247t63 -187t124 -130.5t173 -76.5t211 -25q297 0 492.5 174t252.5 492zM571 1706q0 90 60.5 140t138.5 50q57 0 95 -36t38 -99
q0 -88 -60 -137t-138 -49q-58 0 -96 34.5t-38 96.5zM1104 1710q0 88 61.5 137t139.5 49q55 0 93 -36t38 -99q0 -75 -56.5 -130.5t-134.5 -55.5q-61 0 -101 36t-40 99z" />
    <glyph glyph-name="Yacute" unicode="&#xdd;" horiz-adv-x="1443" 
d="M750 864l-244 570h-361l-2 -17l400 -848l-101 -569h320l100 569l723 848l2 17h-375zM1280 1870l-2 -12l-289 -289h-258l2 14l203 287h344z" />
    <glyph glyph-name="Thorn" unicode="&#xde;" horiz-adv-x="1406" 
d="M55 0l254 1432h316l-39 -230h340q256 0 381 -150q100 -121 83 -295q-17 -173 -141 -312q-148 -167 -383 -201q-55 -8 -112 -8h-338l-41 -236h-320zM535 911l-68 -391h338q135 0 213 90q62 73 51 158q-10 86 -92 123q-45 20 -105 20h-337z" />
    <glyph glyph-name="germandbls" unicode="&#xdf;" horiz-adv-x="1302" 
d="M446 -2q8 43 20.5 120.5t20.5 123.5q63 -13 117 -14.5t93 6t70.5 23t51.5 34t35 42.5t22.5 44.5t12 43.5t5.5 36t1 26q0 96 -68 140.5t-172 44.5h-90l51 280h68q94 0 149 29.5t64 83.5q14 76 -64 110q-73 32 -168 7q-102 -27 -137 -102q-6 -14 -10 -29
q-147 -840 -184 -1047h-316l185 1051q33 191 211 305q156 101 355 105q195 4 320 -86q128 -93 128 -255q0 -107 -69 -196t-196 -117q125 -27 190.5 -110.5t65.5 -192.5t-29 -197.5t-81 -149t-123 -102t-156.5 -59.5t-179 -17.5t-193.5 19.5z" />
    <glyph glyph-name="agrave" unicode="&#xe0;" horiz-adv-x="1312" 
d="M952 895l31 117h277q-30 -168 -90 -506t-89 -506h-266l6 127q-59 -73 -155.5 -110.5t-182.5 -39.5q-201 -2 -320.5 114t-119.5 319q0 142 51.5 261.5t138.5 198.5t202.5 122t242.5 42q95 0 171.5 -38.5t102.5 -100.5zM662 774q-130 0 -224 -87t-94 -228q0 -101 61.5 -160
t161.5 -59q134 0 227 92.5t93 210.5q0 99 -57.5 165t-167.5 66zM459 1452l2 12h344l100 -286l-2 -15h-258z" />
    <glyph glyph-name="aacute" unicode="&#xe1;" horiz-adv-x="1312" 
d="M952 895q-26 62 -102.5 100.5t-171.5 38.5q-127 1 -242.5 -42t-202.5 -122t-138.5 -198.5t-51.5 -261.5q0 -203 119.5 -319t320.5 -114q86 2 182.5 39.5t155.5 110.5l-6 -127h266q29 168 89 506t90 506h-277zM662 774q110 0 167.5 -66t57.5 -165q0 -118 -93 -210.5
t-227 -92.5q-100 0 -161.5 59t-61.5 160q0 141 94 228t224 87zM1126 1464l-2 -12l-288 -289h-258l2 15l202 286h344z" />
    <glyph glyph-name="acircumflex" unicode="&#xe2;" horiz-adv-x="1312" 
d="M952 895q-26 62 -102.5 100.5t-171.5 38.5q-127 1 -242.5 -42t-202.5 -122t-138.5 -198.5t-51.5 -261.5q0 -203 119.5 -319t320.5 -114q86 2 182.5 39.5t155.5 110.5l-6 -127h266q29 168 89 506t90 506h-277zM662 774q110 0 167.5 -66t57.5 -165q0 -118 -93 -210.5
t-227 -92.5q-100 0 -161.5 59t-61.5 160q0 141 94 228t224 87zM721 1462h153l254 -286l-2 -11h-286l-82 86l-109 -86h-289l2 11z" />
    <glyph glyph-name="atilde" unicode="&#xe3;" horiz-adv-x="1312" 
d="M537 1178l-154 110q161 242 340 187q23 -7 55 -25t55 -29.5t49 -16.5t50.5 11t46.5 55l164 -98q-154 -254 -324 -184q-21 7 -46 20t-43 22.5t-39.5 18t-39 9.5t-37 -5t-38.5 -25t-39 -50zM952 895l31 117h277q-30 -168 -90 -506t-89 -506h-266l6 127
q-59 -73 -155.5 -110.5t-182.5 -39.5q-201 -2 -320.5 114t-119.5 319q0 142 51.5 261.5t138.5 198.5t202.5 122t242.5 42q95 0 171.5 -38.5t102.5 -100.5zM662 774q-130 0 -224 -87t-94 -228q0 -101 61.5 -160t161.5 -59q134 0 227 92.5t93 210.5q0 99 -57.5 165t-167.5 66z
" />
    <glyph glyph-name="adieresis" unicode="&#xe4;" horiz-adv-x="1312" 
d="M952 895q-26 62 -102.5 100.5t-171.5 38.5q-127 1 -242.5 -42t-202.5 -122t-138.5 -198.5t-51.5 -261.5q0 -203 119.5 -319t320.5 -114q86 2 182.5 39.5t155.5 110.5l-6 -127h266q29 168 89 506t90 506h-277zM662 774q110 0 167.5 -66t57.5 -165q0 -118 -93 -210.5
t-227 -92.5q-100 0 -161.5 59t-61.5 160q0 141 94 228t224 87zM408 1296q0 86 58 134.5t134 48.5q54 0 90.5 -34.5t36.5 -94.5q0 -85 -58 -133t-132 -48q-56 0 -92.5 33t-36.5 94zM922 1300q0 84 58.5 131.5t133.5 47.5q52 0 88.5 -34.5t36.5 -94.5q0 -73 -54 -127t-128 -54
q-59 0 -97 35t-38 96z" />
    <glyph glyph-name="aring" unicode="&#xe5;" horiz-adv-x="1312" 
d="M952 895l31 117h277q-30 -168 -90 -506t-89 -506h-266l6 127q-59 -73 -155.5 -110.5t-182.5 -39.5q-201 -2 -320.5 114t-119.5 319q0 142 51.5 261.5t138.5 198.5t202.5 122t242.5 42q95 0 171.5 -38.5t102.5 -100.5zM662 774q-130 0 -224 -87t-94 -228q0 -101 61.5 -160
t161.5 -59q134 0 227 92.5t93 210.5q0 99 -57.5 165t-167.5 66zM528 1325q0 57 20 103.5t53 77.5t76.5 52t89.5 30t93 9q98 0 165 -48t67 -144q0 -87 -51 -150.5t-121.5 -91.5t-145.5 -28q-64 0 -117 17t-91 61.5t-38 111.5zM829 1460q-59 0 -94 -33t-35 -75
q0 -33 24.5 -56.5t68.5 -23.5q59 0 94 33t35 73q0 34 -24.5 58t-68.5 24z" />
    <glyph glyph-name="ae" unicode="&#xe6;" horiz-adv-x="1974" 
d="M1876 420h-750q6 -93 76 -144t170 -51q68 0 140.5 23t123.5 61l125 -188q-168 -154 -434 -154q-94 0 -173.5 35.5t-117.5 106.5l-30 -109h-215l20 127q-43 -72 -144 -111t-188 -39q-205 -2 -321.5 102.5t-116.5 313.5q0 122 35.5 227t96 180t140 128.5t168.5 79.5t181 26
q95 0 170 -36t112 -103l31 115h221l-18 -103q72 70 167 101.5t187 31.5q143 0 245.5 -74.5t136 -212t-37.5 -333.5zM662 776q-132 0 -225 -87t-93 -232q0 -104 61 -164t160 -60q150 0 245 112q78 93 80 208q2 117 -79 179q-58 44 -149 44zM1171 637h471q1 73 -46 111
t-121 38q-102 0 -180.5 -39t-123.5 -110z" />
    <glyph glyph-name="ccedilla" unicode="&#xe7;" horiz-adv-x="1044" 
d="M121 -389l143 119q17 -26 64.5 -45t98 -12.5t67.5 46.5q15 35 -9.5 62.5t-68.5 30.5t-94 -21l-52 39l92 162q-146 32 -232.5 138t-86.5 278q0 116 36 217.5t99 175.5t146 127.5t178.5 80.5t195.5 27q116 0 199 -31.5t143 -107.5l-196 -186q-67 59 -180 59
q-130 0 -224 -85.5t-94 -221.5q0 -99 62 -157t157 -58q53 0 115.5 20.5t103.5 55.5l152 -193q-164 -136 -371 -154l-35 -57q72 -6 116 -31t57.5 -61t13 -69.5t-11.5 -67.5q-25 -78 -82.5 -130t-128 -69t-143 -11.5t-135 40.5t-95.5 90z" />
    <glyph glyph-name="egrave" unicode="&#xe8;" horiz-adv-x="1179" 
d="M1077 410h-743q-2 -78 61.5 -128.5t182.5 -50.5q168 0 276 80l133 -184q-90 -75 -214 -112.5t-247 -37.5q-234 0 -358.5 119t-124.5 322q0 177 81 318.5t227 221.5t331 80q175 0 286 -71t144 -210.5t-35 -346.5zM373 625h479q9 79 -52.5 120t-160.5 41q-89 0 -160.5 -43
t-105.5 -118zM436 1456l2 12h344l101 -286l-2 -15h-258z" />
    <glyph glyph-name="eacute" unicode="&#xe9;" horiz-adv-x="1179" 
d="M1077 410h-743q-2 -78 61.5 -128.5t182.5 -50.5q168 0 276 80l133 -184q-90 -75 -214 -112.5t-247 -37.5q-234 0 -358.5 119t-124.5 322q0 177 81 318.5t227 221.5t331 80q175 0 286 -71t144 -210.5t-35 -346.5zM373 625h479q9 79 -52.5 120t-160.5 41q-89 0 -160.5 -43
t-105.5 -118zM1116 1458l-2 -12l-289 -289h-258l2 14l203 287h344z" />
    <glyph glyph-name="ecircumflex" unicode="&#xea;" horiz-adv-x="1179" 
d="M1077 410h-743q-2 -78 61.5 -128.5t182.5 -50.5q168 0 276 80l133 -184q-90 -75 -214 -112.5t-247 -37.5q-234 0 -358.5 119t-124.5 322q0 177 81 318.5t227 221.5t331 80q175 0 286 -71t144 -210.5t-35 -346.5zM373 625h479q9 79 -52.5 120t-160.5 41q-89 0 -160.5 -43
t-105.5 -118zM709 1460h153l254 -286l-2 -11h-287l-82 86l-108 -86h-289l2 11z" />
    <glyph glyph-name="edieresis" unicode="&#xeb;" horiz-adv-x="1179" 
d="M346 1280q0 82 58.5 130t132.5 48q54 0 92.5 -33.5t38.5 -93.5q0 -74 -57 -126t-136 -52q-55 0 -92 34t-37 93zM823 1278q0 85 59.5 132.5t135.5 47.5q54 0 90.5 -34t36.5 -93q0 -82 -58.5 -130t-130.5 -48q-57 0 -95 32.5t-38 92.5zM1077 410h-743q-2 -78 61.5 -128.5
t182.5 -50.5q168 0 276 80l133 -184q-90 -75 -214 -112.5t-247 -37.5q-234 0 -358.5 119t-124.5 322q0 177 81 318.5t227 221.5t331 80q175 0 286 -71t144 -210.5t-35 -346.5zM373 625h479q9 79 -52.5 120t-160.5 41q-89 0 -160.5 -43t-105.5 -118z" />
    <glyph glyph-name="igrave" unicode="&#xec;" horiz-adv-x="546" 
d="M147 1419l3 13h321l49 -289l-2 -15h-254zM315 0h-297l179 1012h297z" />
    <glyph glyph-name="iacute" unicode="&#xed;" horiz-adv-x="546" 
d="M690 1432l-2 -13l-219 -291h-254l2 15l152 289h321zM18 0h297l179 1012h-297z" />
    <glyph glyph-name="icircumflex" unicode="&#xee;" horiz-adv-x="546" 
d="M18 0h297l179 1012h-297zM354 1458h135l224 -307l-2 -10h-252l-74 90l-94 -90h-256l2 10z" />
    <glyph glyph-name="idieresis" unicode="&#xef;" horiz-adv-x="546" 
d="M39 1270q0 82 55 129t125 47q56 0 93.5 -32.5t37.5 -92.5q0 -81 -56 -127.5t-126 -46.5q-57 0 -93 32t-36 91zM461 1270q0 82 55 129t125 47q56 0 93.5 -32.5t37.5 -92.5q0 -81 -56 -127.5t-126 -46.5q-57 0 -93 32t-36 91zM18 0h297l179 1012h-297z" />
    <glyph glyph-name="eth" unicode="&#xf0;" horiz-adv-x="1189" 
d="M754 1352l125 116l147 -137l-102 -96q90 -87 139.5 -207t54.5 -248t-20 -268q-47 -244 -203.5 -386t-409.5 -142q-111 0 -197.5 35t-139.5 95t-80 135t-27 161q0 124 48 235.5t151 199.5t245 124q230 40 328 -41q-35 84 -114 147.5t-162 94.5t-170 44l88 224
q166 -23 299 -86zM530 244q105 0 177.5 68t99.5 177q26 103 -28.5 172.5t-162.5 69.5q-118 0 -197 -86.5t-79 -193.5q0 -86 50 -146.5t140 -60.5z" />
    <glyph glyph-name="ntilde" unicode="&#xf1;" horiz-adv-x="1261" 
d="M1044 0h-296l94 535q41 235 -168 235q-100 1 -177.5 -72.5t-95.5 -175.5l-92 -522h-291l179 1012h266l-12 -129q148 156 354 153q423 0 334 -499zM545 1188l-150 100q142 225 318 180q22 -6 53 -22.5t53 -26.5t46.5 -14t47 12t41.5 53l160 -88q-75 -127 -149.5 -169
t-155.5 -11q-23 8 -58.5 26t-57 26t-48.5 10t-51.5 -16.5t-48.5 -59.5z" />
    <glyph glyph-name="ograve" unicode="&#xf2;" horiz-adv-x="1243" 
d="M510 -23q-220 0 -344.5 121.5t-124.5 317.5q0 171 84 312.5t234.5 223.5t336.5 82q219 0 345 -123t126 -321q0 -171 -82 -310.5t-233 -221t-342 -81.5zM557 240q75 0 135.5 27.5t97 73t55.5 99t19 109.5q0 93 -52.5 157t-160.5 64q-72 0 -132 -28.5t-97.5 -74.5
t-57.5 -100t-20 -108q0 -92 53 -155.5t160 -63.5zM416 1442l2 12h344l100 -287l-2 -14h-258z" />
    <glyph glyph-name="oacute" unicode="&#xf3;" horiz-adv-x="1243" 
d="M510 -23q191 0 342 81.5t233 221t82 310.5q0 198 -126 321t-345 123q-186 0 -336.5 -82t-234.5 -223.5t-84 -312.5q0 -196 124.5 -317.5t344.5 -121.5zM557 240q-107 0 -160 63.5t-53 155.5q0 54 20 108t57.5 100t97.5 74.5t132 28.5q108 0 160.5 -64t52.5 -157
q0 -56 -19 -109.5t-55.5 -99t-97 -73t-135.5 -27.5zM1126 1458l-2 -12l-288 -289h-258l2 14l202 287h344z" />
    <glyph glyph-name="ocircumflex" unicode="&#xf4;" horiz-adv-x="1243" 
d="M510 -23q191 0 342 81.5t233 221t82 310.5q0 198 -126 321t-345 123q-186 0 -336.5 -82t-234.5 -223.5t-84 -312.5q0 -196 124.5 -317.5t344.5 -121.5zM557 240q-107 0 -160 63.5t-53 155.5q0 54 20 108t57.5 100t97.5 74.5t132 28.5q108 0 160.5 -64t52.5 -157
q0 -56 -19 -109.5t-55.5 -99t-97 -73t-135.5 -27.5zM694 1462h154l254 -286l-2 -11h-287l-82 86l-108 -86h-289l2 11z" />
    <glyph glyph-name="otilde" unicode="&#xf5;" horiz-adv-x="1243" 
d="M510 -23q-220 0 -344.5 121.5t-124.5 317.5q0 171 84 312.5t234.5 223.5t336.5 82q219 0 345 -123t126 -321q0 -171 -82 -310.5t-233 -221t-342 -81.5zM557 240q75 0 135.5 27.5t97 73t55.5 99t19 109.5q0 93 -52.5 157t-160.5 64q-72 0 -132 -28.5t-97.5 -74.5
t-57.5 -100t-20 -108q0 -92 53 -155.5t160 -63.5zM520 1178l-155 102q148 231 329 184q23 -6 55.5 -22.5t55 -27t48.5 -14.5t49 12t44 54l166 -90q-78 -129 -155 -172t-162 -12q-22 8 -52 22.5t-49.5 24t-44.5 15.5t-44 1.5t-41.5 -23.5t-43.5 -54z" />
    <glyph glyph-name="odieresis" unicode="&#xf6;" horiz-adv-x="1243" 
d="M340 1284q0 89 61.5 139t139.5 50q56 0 93.5 -36t37.5 -98q0 -88 -59.5 -138t-135.5 -50q-57 0 -97 35t-40 98zM827 1284q0 88 61.5 138.5t137.5 50.5q55 0 94 -36.5t39 -99.5q0 -88 -60 -137t-138 -49q-57 0 -95.5 35.5t-38.5 97.5zM510 -23q191 0 342 81.5t233 221
t82 310.5q0 198 -126 321t-345 123q-186 0 -336.5 -82t-234.5 -223.5t-84 -312.5q0 -196 124.5 -317.5t344.5 -121.5zM557 240q-107 0 -160 63.5t-53 155.5q0 54 20 108t57.5 100t97.5 74.5t132 28.5q108 0 160.5 -64t52.5 -157q0 -56 -19 -109.5t-55.5 -99t-97 -73
t-135.5 -27.5z" />
    <glyph glyph-name="divide" unicode="&#xf7;" horiz-adv-x="1128" 
d="M125 782l-47 -264h942l47 264h-942zM340 244q0 90 61 139t140 49q55 0 92 -36t37 -99q0 -86 -58.5 -136t-132.5 -50q-59 0 -99 35t-40 98zM475 1012q0 89 62 138.5t139 49.5q55 0 92 -35.5t37 -97.5q0 -88 -58.5 -138t-134.5 -50q-57 0 -97 35t-40 98z" />
    <glyph glyph-name="oslash" unicode="&#xf8;" horiz-adv-x="1243" 
d="M512 -23q-94 0 -164 21l-84 -111h-258l158 207q-59 55 -91 139.5t-32 182.5q0 171 84.5 313t235.5 224.5t337 82.5q88 0 168 -22l88 114h258l-165 -215q59 -56 90.5 -141.5t31.5 -183.5q0 -127 -48.5 -239.5t-133.5 -194.5t-208.5 -129.5t-266.5 -47.5zM651 770
q-72 0 -132 -28.5t-96.5 -74.5t-56.5 -100t-20 -108q0 -66 16 -105l318 414q-10 2 -29 2zM532 240h25q75 0 135.5 27.5t97 72.5t55.5 98.5t19 108.5q0 65 -16 104z" />
    <glyph glyph-name="ugrave" unicode="&#xf9;" horiz-adv-x="1263" 
d="M184 1012h297l-94 -535q-41 -235 168 -235q100 -1 177 72t95 175l93 523h290l-178 -1012h-266l12 133q-143 -156 -354 -153q-59 0 -108 9.5t-95 31.5t-75.5 59t-50.5 92t-20.5 130t15.5 173zM436 1434l2 12h344l101 -287l-2 -14h-258z" />
    <glyph glyph-name="uacute" unicode="&#xfa;" horiz-adv-x="1263" 
d="M481 1012h-297l-94 -537q-15 -98 -15.5 -173t20.5 -130t50.5 -92t75.5 -59t95 -31.5t108 -9.5q211 -3 354 153l-12 -133h266l178 1012h-290l-93 -523q-18 -102 -95 -175t-177 -72q-209 0 -168 235zM1110 1454l-2 -12l-289 -289h-258l2 14l203 287h344z" />
    <glyph glyph-name="ucircumflex" unicode="&#xfb;" horiz-adv-x="1263" 
d="M481 1012h-297l-94 -537q-15 -98 -15.5 -173t20.5 -130t50.5 -92t75.5 -59t95 -31.5t108 -9.5q211 -3 354 153l-12 -133h266l178 1012h-290l-93 -523q-18 -102 -95 -175t-177 -72q-209 0 -168 235zM696 1458h154l254 -287l-2 -10h-287l-82 86l-108 -86h-289l2 10z" />
    <glyph glyph-name="udieresis" unicode="&#xfc;" horiz-adv-x="1263" 
d="M481 1012h-297l-94 -537q-15 -98 -15.5 -173t20.5 -130t50.5 -92t75.5 -59t95 -31.5t108 -9.5q211 -3 354 153l-12 -133h266l178 1012h-290l-93 -523q-18 -102 -95 -175t-177 -72q-209 0 -168 235zM342 1278q0 86 61 133t140 47q57 0 95 -34t38 -95q0 -83 -60.5 -129.5
t-138.5 -46.5q-59 0 -97 33t-38 92zM877 1282q0 83 61 129.5t139 46.5q55 0 93 -34.5t38 -94.5q0 -71 -56 -123.5t-134 -52.5q-61 0 -101 34.5t-40 94.5z" />
    <glyph glyph-name="yacute" unicode="&#xfd;" horiz-adv-x="1257" 
d="M475 1012h-295l-92 -518q-42 -237 48 -373.5t270 -136.5q63 0 100.5 3t84.5 16t88.5 41.5t86.5 76.5l-27 -152q-19 -105 -96.5 -166t-161.5 -61q-43 0 -75 4.5t-64 18t-49.5 42t-16.5 70.5h-276q-4 -104 26.5 -182.5t91 -126.5t141.5 -72t181 -24q102 0 194 29.5
t171.5 88.5t136 157t78.5 224l184 1041h-293l-90 -506q-19 -104 -102 -180t-184 -76q-99 0 -134 69t-16 177zM1120 1450l-2 -12l-289 -289h-258l2 14l203 287h344z" />
    <glyph glyph-name="thorn" unicode="&#xfe;" horiz-adv-x="1314" 
d="M637 258q120 0 208.5 80.5t88.5 206.5q0 92 -59.5 148.5t-151.5 56.5q-110 0 -203.5 -86t-93.5 -193q0 -88 60.5 -150.5t150.5 -62.5zM240 -422h-295l327 1856h295l-94 -531q55 63 148.5 97t171.5 34q203 2 322.5 -108t119.5 -318q0 -150 -48 -271.5t-131.5 -200.5
t-195.5 -121t-242 -42q-82 0 -163.5 32t-120.5 104z" />
    <glyph glyph-name="ydieresis" unicode="&#xff;" horiz-adv-x="1257" 
d="M475 1012h-295l-92 -518q-42 -237 48 -373.5t270 -136.5q63 0 100.5 3t84.5 16t88.5 41.5t86.5 76.5l-27 -152q-19 -105 -96.5 -166t-161.5 -61q-43 0 -75 4.5t-64 18t-49.5 42t-16.5 70.5h-276q-4 -104 26.5 -182.5t91 -126.5t141.5 -72t181 -24q102 0 194 29.5
t171.5 88.5t136 157t78.5 224l184 1041h-293l-90 -506q-19 -104 -102 -180t-184 -76q-99 0 -134 69t-16 177zM324 1276q0 90 60 140t138 50q57 0 95 -36t38 -99q0 -88 -60 -137t-138 -49q-58 0 -95.5 34.5t-37.5 96.5zM856 1280q0 88 61.5 137t139.5 49q55 0 93 -36t38 -99
q0 -75 -56.5 -130.5t-134.5 -55.5q-61 0 -101 36t-40 99z" />
    <glyph glyph-name="Amacron" unicode="&#x100;" horiz-adv-x="1619" 
d="M1192 0l-62 246h-735l-147 -246h-357l895 1434h349l391 -1434h-334zM1059 528l-141 588l-353 -588h494zM618 1563l44 243h735l-43 -243h-736z" />
    <glyph glyph-name="amacron" unicode="&#x101;" horiz-adv-x="1312" 
d="M952 895l31 117h277q-30 -168 -90 -506t-89 -506h-266l6 127q-59 -73 -155.5 -110.5t-182.5 -39.5q-201 -2 -320.5 114t-119.5 319q0 142 51.5 261.5t138.5 198.5t202.5 122t242.5 42q95 0 171.5 -38.5t102.5 -100.5zM662 774q-130 0 -224 -87t-94 -228q0 -101 61.5 -160
t161.5 -59q134 0 227 92.5t93 210.5q0 99 -57.5 165t-167.5 66zM399 1200l43 244h736l-43 -244h-736z" />
    <glyph glyph-name="Abreve" unicode="&#x102;" horiz-adv-x="1619" 
d="M1192 0l-62 246h-735l-147 -246h-357l895 1434h349l391 -1434h-334zM1059 528l-141 588l-353 -588h494zM1157 1853h246q-22 -137 -131.5 -220t-263.5 -83q-77 0 -138.5 18.5t-103 56t-52.5 94.5t11 134h248q-6 -25 0.5 -43.5t20.5 -27t28 -12t29 -3.5q90 0 106 86z" />
    <glyph glyph-name="abreve" unicode="&#x103;" horiz-adv-x="1312" 
d="M952 895l31 117h277q-30 -168 -90 -506t-89 -506h-266l6 127q-59 -73 -155.5 -110.5t-182.5 -39.5q-201 -2 -320.5 114t-119.5 319q0 142 51.5 261.5t138.5 198.5t202.5 122t242.5 42q95 0 171.5 -38.5t102.5 -100.5zM662 774q-130 0 -224 -87t-94 -228q0 -101 61.5 -160
t161.5 -59q134 0 227 92.5t93 210.5q0 99 -57.5 165t-167.5 66zM944 1462h242q-20 -132 -128.5 -212.5t-260.5 -80.5q-160 0 -243 76t-38 217h244q-9 -46 17.5 -64t60.5 -18q90 0 106 82z" />
    <glyph glyph-name="Aogonek" unicode="&#x104;" horiz-adv-x="1624" 
d="M1036 543l-139 530l-322 -530h461zM1368 -141l125 -115q-45 -49 -109.5 -81t-128.5 -40q-85 -11 -153.5 10t-107 63t-51.5 98.5t3.5 113t69 109.5t135.5 85l-39 144h-719l-155 -246h-347l895 1434h349l397 -1434q-132 6 -234 -4q-73 -7 -102 -62q-24 -45 1 -79
q23 -31 77 -27q39 3 94 31z" />
    <glyph glyph-name="aogonek" unicode="&#x105;" horiz-adv-x="1314" 
d="M1004 -246l124 -112q-83 -104 -241 -125q-74 -9 -140.5 8t-112 66t-46.5 122q0 23 4 46.5t18 58t38 65t68 63t103 56.5l-4 125q-46 -74 -147.5 -119t-184.5 -45q-204 0 -322 109.5t-118 320.5q0 158 51 283t139 202.5t202 117.5t245 40q94 0 168.5 -39.5t101.5 -101.5
l31 115h281l-199 -1119q-16 4 -45 4.5t-65.5 -5t-69 -17.5t-54.5 -37.5t-22 -60.5q0 -32 24 -50.5t71 -12.5t102 42zM666 776q-132 0 -226 -87t-94 -232q0 -104 62 -164t161 -60q142 0 233 112q75 94 77 211q2 118 -75 178q-54 42 -138 42z" />
    <glyph glyph-name="Cacute" unicode="&#x106;" horiz-adv-x="1427" 
d="M1321 174l-160 221q-72 -62 -178.5 -99.5t-196.5 -37.5q-77 0 -140 18.5t-105 51t-73 76t-43.5 93t-17 103t6.5 105.5q11 65 37 128.5t71.5 124.5t105 107t142 74t176.5 28t175.5 -28.5t131.5 -87.5l234 194q-187 221 -488 221q-176 0 -327 -52t-257.5 -140
t-182.5 -203.5t-112 -242.5t-36 -257q0 -126 39 -234t115.5 -192.5t203.5 -133t291 -48.5q338 0 588 211zM1370 1868l-2 -13l-287 -272h-256l2 14l201 271h342z" />
    <glyph glyph-name="cacute" unicode="&#x107;" horiz-adv-x="1040" 
d="M934 133l-152 193q-41 -35 -103.5 -55.5t-115.5 -20.5q-94 0 -156.5 57.5t-62.5 155.5q0 136 94 220.5t224 84.5q113 0 180 -59l196 186q-60 76 -143 107.5t-199 31.5q-126 0 -242.5 -42.5t-209 -120t-148 -198t-55.5 -265.5q0 -108 36.5 -191.5t101 -135t149 -78
t184.5 -26.5q237 0 422 156zM1022 1432l-2 -11l-262 -256h-236l2 13l185 254h313z" />
    <glyph glyph-name="Ccircumflex" unicode="&#x108;" horiz-adv-x="1427" 
d="M948 1888h164l277 -289l-3 -10h-307l-88 86l-123 -86h-311l2 10zM1321 174l-160 221q-72 -62 -178.5 -99.5t-196.5 -37.5q-77 0 -140 18.5t-105 51t-73 76t-43.5 93t-17 103t6.5 105.5q11 65 37 128.5t71.5 124.5t105 107t142 74t176.5 28t175.5 -28.5t131.5 -87.5
l234 194q-187 221 -488 221q-176 0 -327 -52t-257.5 -140t-182.5 -203.5t-112 -242.5t-36 -257q0 -126 39 -234t115.5 -192.5t203.5 -133t291 -48.5q338 0 588 211z" />
    <glyph glyph-name="ccircumflex" unicode="&#x109;" horiz-adv-x="1040" 
d="M934 133l-152 193q-41 -35 -103.5 -55.5t-115.5 -20.5q-94 0 -156.5 57.5t-62.5 155.5q0 136 94 220.5t224 84.5q113 0 180 -59l196 186q-60 76 -143 107.5t-199 31.5q-126 0 -242.5 -42.5t-209 -120t-148 -198t-55.5 -265.5q0 -108 36.5 -191.5t101 -135t149 -78
t184.5 -26.5q237 0 422 156zM666 1444h147l242 -287l-2 -10h-275l-78 86l-102 -86h-274l2 10z" />
    <glyph glyph-name="Cdotaccent" unicode="&#x10a;" horiz-adv-x="1427" 
d="M1321 174l-160 221q-72 -62 -178.5 -99.5t-196.5 -37.5q-77 0 -140 18.5t-105 51t-73 76t-43.5 93t-17 103t6.5 105.5q11 65 37 128.5t71.5 124.5t105 107t142 74t176.5 28t175.5 -28.5t131.5 -87.5l234 194q-187 221 -488 221q-176 0 -327 -52t-257.5 -140
t-182.5 -203.5t-112 -242.5t-36 -257q0 -126 39 -234t115.5 -192.5t203.5 -133t291 -48.5q338 0 588 211zM858 1718q0 85 62 134t141 49q64 0 106.5 -35t42.5 -97q0 -56 -32 -98.5t-78 -62t-96 -19.5q-63 0 -104.5 34t-41.5 95z" />
    <glyph glyph-name="cdotaccent" unicode="&#x10b;" horiz-adv-x="1040" 
d="M934 133l-152 193q-41 -35 -103.5 -55.5t-115.5 -20.5q-94 0 -156.5 57.5t-62.5 155.5q0 136 94 220.5t224 84.5q113 0 180 -59l196 186q-60 76 -143 107.5t-199 31.5q-126 0 -242.5 -42.5t-209 -120t-148 -198t-55.5 -265.5q0 -108 36.5 -191.5t101 -135t149 -78
t184.5 -26.5q237 0 422 156zM549 1288q0 78 58 122t134 44q62 0 102 -31t40 -88q0 -74 -61.5 -119t-135.5 -45q-59 0 -98 31t-39 86z" />
    <glyph glyph-name="Ccaron" unicode="&#x10c;" horiz-adv-x="1427" 
d="M1321 174l-160 221q-72 -62 -178.5 -99.5t-196.5 -37.5q-77 0 -140 18.5t-105 51t-73 76t-43.5 93t-17 103t6.5 105.5q11 65 37 128.5t71.5 124.5t105 107t142 74t176.5 28t175.5 -28.5t131.5 -87.5l234 194q-187 221 -488 221q-176 0 -327 -52t-257.5 -140
t-182.5 -203.5t-112 -242.5t-36 -257q0 -126 39 -234t115.5 -192.5t203.5 -133t291 -48.5q338 0 588 211zM614 1860l2 12h312l84 -88l127 88h321l-2 -12l-399 -285h-166z" />
    <glyph glyph-name="ccaron" unicode="&#x10d;" horiz-adv-x="1040" 
d="M934 133l-152 193q-41 -35 -103.5 -55.5t-115.5 -20.5q-94 0 -156.5 57.5t-62.5 155.5q0 136 94 220.5t224 84.5q113 0 180 -59l196 186q-60 76 -143 107.5t-199 31.5q-126 0 -242.5 -42.5t-209 -120t-148 -198t-55.5 -265.5q0 -108 36.5 -191.5t101 -135t149 -78
t184.5 -26.5q237 0 422 156zM379 1413l2 12h262l72 -82l106 82h273l-2 -12l-338 -264h-142z" />
    <glyph glyph-name="Dcaron" unicode="&#x10e;" horiz-adv-x="1550" 
d="M895 1434h-588l-252 -1434h588q148 0 274.5 34.5t218.5 96t162.5 142.5t113 177.5t64 197.5t21.5 206q0 121 -35.5 223.5t-106 183.5t-188.5 127t-272 46zM422 295l151 850h273q90 0 156.5 -27t104 -74.5t55.5 -104.5t18 -124q0 -65 -13 -131.5t-48 -138t-88 -126
t-140 -89.5t-197 -35h-272zM502 1825l2 12h315l86 -82l127 82h328l-2 -12l-406 -266h-170z" />
    <glyph glyph-name="dcaron" unicode="&#x10f;" horiz-adv-x="1447" 
d="M645 766q-130 0 -214.5 -88t-84.5 -219q0 -94 54 -153.5t153 -59.5q60 0 115 17t102 51t75.5 94t28.5 139q0 103 -66.5 161t-162.5 58zM1038 1432h297l-252 -1432h-264l4 129q-82 -84 -168.5 -115.5t-193.5 -31.5q-192 0 -305 116.5t-113 311.5q0 183 80.5 326
t218.5 219.5t309 76.5q199 0 291 -143zM1323 997l166 437h266l-229 -437h-203z" />
    <glyph glyph-name="Dcroat" unicode="&#x110;" horiz-adv-x="1562" 
d="M33 590l45 258h143l105 586h587q125 0 226.5 -33t169.5 -89t114.5 -133t67 -162.5t20.5 -180.5q0 -122 -33.5 -240.5t-104 -226.5t-169 -190t-239.5 -130.5t-306 -48.5h-587l104 590h-143zM485 590l-51 -295h279q97 0 178.5 30t136 79t92.5 114t55 134t17 139
q0 69 -18 129t-56 110.5t-104 79.5t-154 29h-278l-52 -291h205l-45 -258h-205z" />
    <glyph glyph-name="dcroat" unicode="&#x111;" horiz-adv-x="1308" 
d="M1040 1432h289l-20 -113h129l-35 -201h-129l-197 -1118h-268l-2 115q-116 -140 -322 -140q-199 0 -319.5 118t-120.5 319q0 147 48.5 266t132.5 197t197 119.5t243 41.5q73 0 163 -39.5t117 -99.5l39 221h-203l35 201h203zM643 762q-121 0 -209 -85t-88 -212
q0 -93 58 -155t149 -62q77 0 146.5 35.5t115 105t45.5 156.5q0 97 -62 157t-155 60z" />
    <glyph glyph-name="Emacron" unicode="&#x112;" horiz-adv-x="1343" 
d="M1198 295l-51 -295h-1092q42 239 126 717.5t126 716.5h1063l-51 -293h-750l-49 -277h707l-49 -280h-707l-51 -289h778zM506 1589l41 238h715l-43 -238h-713z" />
    <glyph glyph-name="emacron" unicode="&#x113;" horiz-adv-x="1179" 
d="M1077 410h-743q-2 -78 61.5 -128.5t182.5 -50.5q168 0 276 80l133 -184q-90 -75 -214 -112.5t-247 -37.5q-234 0 -358.5 119t-124.5 322q0 177 81 318.5t227 221.5t331 80q175 0 286 -71t144 -210.5t-35 -346.5zM373 625h479q9 79 -52.5 120t-160.5 41q-89 0 -160.5 -43
t-105.5 -118zM373 1196l39 225h655l-39 -225h-655z" />
    <glyph glyph-name="Ebreve" unicode="&#x114;" horiz-adv-x="1343" 
d="M1198 295l-51 -295h-1092q42 239 126 717.5t126 716.5h1063l-51 -293h-750l-49 -277h707l-49 -280h-707l-51 -289h778zM1026 1855h246q-22 -129 -131.5 -207.5t-263.5 -78.5q-162 0 -246 74t-39 212h248q-9 -45 17.5 -62t62.5 -17q91 0 106 79z" />
    <glyph glyph-name="ebreve" unicode="&#x115;" horiz-adv-x="1179" 
d="M1077 410h-743q-2 -78 61.5 -128.5t182.5 -50.5q168 0 276 80l133 -184q-90 -75 -214 -112.5t-247 -37.5q-234 0 -358.5 119t-124.5 322q0 177 81 318.5t227 221.5t331 80q175 0 286 -71t144 -210.5t-35 -346.5zM373 625h479q9 79 -52.5 120t-160.5 41q-89 0 -160.5 -43
t-105.5 -118zM838 1456h241q-22 -133 -129.5 -214t-257.5 -81q-102 0 -173.5 32.5t-103 98t0.5 164.5h241q-9 -46 17 -64t61 -18q87 0 103 82z" />
    <glyph glyph-name="Edotaccent" unicode="&#x116;" horiz-adv-x="1343" 
d="M1147 0l51 295h-778l51 289h707l49 280h-707l49 277h750l51 293h-1063q-42 -238 -126 -716.5t-126 -717.5h1092zM750 1702q0 85 61.5 132.5t142.5 47.5q66 0 109 -33.5t43 -95.5q0 -82 -64.5 -130t-144.5 -48q-63 0 -105 33.5t-42 93.5z" />
    <glyph glyph-name="edotaccent" unicode="&#x117;" horiz-adv-x="1179" 
d="M1077 410h-743q-2 -78 61.5 -128.5t182.5 -50.5q168 0 276 80l133 -184q-90 -75 -214 -112.5t-247 -37.5q-234 0 -358.5 119t-124.5 322q0 177 81 318.5t227 221.5t331 80q175 0 286 -71t144 -210.5t-35 -346.5zM373 625h479q9 79 -52.5 120t-160.5 41q-89 0 -160.5 -43
t-105.5 -118zM590 1296q0 81 56 127.5t130 46.5q60 0 99.5 -32t39.5 -92q0 -80 -59 -126t-133 -46q-58 0 -95.5 31.5t-37.5 90.5z" />
    <glyph glyph-name="Eogonek" unicode="&#x118;" horiz-adv-x="1372" 
d="M1202 313l-55 -313q-52 7 -99 7.5t-93 -7t-79.5 -31t-46.5 -61.5q-23 -67 58 -75q66 -7 139 21q14 6 23 11l122 -115q-66 -83 -183 -123.5t-225 -26t-153 75.5q-26 35 -28 84.5t16.5 96.5t59.5 87t94 56h-697l252 1434h1098l-53 -310h-783l-47 -262h758l-51 -297h-758
l-45 -252h776z" />
    <glyph glyph-name="eogonek" unicode="&#x119;" horiz-adv-x="1187" 
d="M1092 403h-752q-2 -73 58.5 -120t179.5 -47q64 0 139 20.5t117 54.5l153 -186q-96 -77 -225 -119q-60 -4 -94.5 -49.5t-22.5 -81.5q12 -38 67 -40t134 48l125 -114q-85 -79 -204 -115t-219.5 -16t-135.5 90q-30 55 -11 127t84 120q-77 6 -149 27q-144 46 -218.5 156
t-74.5 262q0 130 47 245t131 198.5t206 132t265 48.5q269 0 376 -164.5t24 -476.5zM387 643h461q-2 73 -51 112.5t-140 39.5q-177 0 -270 -152z" />
    <glyph glyph-name="Ecaron" unicode="&#x11a;" horiz-adv-x="1343" 
d="M1147 0l51 295h-778l51 289h707l49 280h-707l49 277h750l51 293h-1063q-42 -238 -126 -716.5t-126 -717.5h1092zM555 1835l2 12h289l80 -82l116 82h299l-2 -12l-370 -260h-156z" />
    <glyph glyph-name="ecaron" unicode="&#x11b;" horiz-adv-x="1179" 
d="M1077 410h-743q-2 -78 61.5 -128.5t182.5 -50.5q168 0 276 80l133 -184q-90 -75 -214 -112.5t-247 -37.5q-234 0 -358.5 119t-124.5 322q0 177 81 318.5t227 221.5t331 80q175 0 286 -71t144 -210.5t-35 -346.5zM373 625h479q9 79 -52.5 120t-160.5 41q-89 0 -160.5 -43
t-105.5 -118zM365 1421l2 13h284l78 -80l117 80h297l-2 -13l-369 -258h-154z" />
    <glyph glyph-name="Gcircumflex" unicode="&#x11c;" horiz-adv-x="1523" 
d="M1264 1057l223 205q-142 215 -486 215q-183 0 -336 -50.5t-258 -136t-178 -201t-107 -244t-34 -265.5q0 -98 21 -186.5t70 -169t121.5 -138.5t183 -92.5t247.5 -34.5q398 0 631 266l111 625h-619l-47 -266h342l-41 -230q-87 -58 -162 -79t-160 -21q-93 0 -164 23.5
t-112.5 60t-67.5 88t-35 100.5t-8 103q3 251 155.5 403t395.5 152q90 0 175 -33t139 -94zM973 1888h168l278 -282l-2 -11h-315l-90 86l-119 -86h-315l2 11z" />
    <glyph glyph-name="gcircumflex" unicode="&#x11d;" horiz-adv-x="1318" 
d="M662 776q137 0 190 -103q46 -89 9 -205q-37 -117 -134 -180q-73 -46 -162 -46q-99 0 -160 56t-61 159q0 146 93.5 232.5t224.5 86.5zM270 -123h-293q-12 -98 19.5 -175t97.5 -125.5t155.5 -73.5t196.5 -25q258 0 427.5 122.5t213.5 372.5l175 1037h-285l-31 -115
q-27 62 -100.5 101.5t-167.5 39.5q-128 2 -243 -41t-202 -121.5t-138.5 -199t-51.5 -264.5q0 -203 119.5 -322t318.5 -117q216 4 336 150l-24 -141q-11 -63 -43 -110.5t-76 -73t-91 -38t-96 -12.5q-94 0 -156 31.5t-61 99.5zM766 1470h162l264 -301l-2 -10h-299l-86 90
l-115 -90h-303l2 10z" />
    <glyph glyph-name="Gbreve" unicode="&#x11e;" horiz-adv-x="1523" 
d="M1487 1262l-223 -205q-54 61 -139 94t-175 33q-243 0 -395.5 -152t-155.5 -403q-1 -54 8 -103t35 -100.5t67.5 -88t112.5 -60t164 -23.5q85 0 160 21t162 79l41 230h-342l47 266h619l-111 -625q-233 -266 -631 -266q-137 0 -247.5 34.5t-183 92.5t-121.5 138.5t-70 169
t-21 186.5q0 137 34 265.5t107 244t178 201t258 136t336 50.5q344 0 486 -215zM1147 1890h250q-22 -136 -133 -218.5t-267 -82.5q-78 0 -140.5 18.5t-104.5 56t-53 94t12 132.5h250q-6 -25 0.5 -43.5t21 -27t28.5 -12t29 -3.5q91 0 107 86z" />
    <glyph glyph-name="gbreve" unicode="&#x11f;" horiz-adv-x="1318" 
d="M662 776q-131 0 -224.5 -86.5t-93.5 -232.5q0 -103 61 -159t160 -56q143 0 234 111q76 92 78 207q1 116 -77 175q-54 41 -138 41zM-23 -123h293q-1 -68 61 -99.5t156 -31.5q49 0 96 12.5t91 38t76 73t43 110.5l24 141q-120 -146 -336 -150q-199 -2 -318.5 117t-119.5 322
q0 144 51.5 264.5t138.5 199t202 121.5t243 41q94 0 167.5 -39.5t100.5 -101.5l31 115h285l-175 -1037q-44 -250 -213.5 -372.5t-427.5 -122.5q-107 0 -196.5 25t-155.5 73.5t-97.5 125.5t-19.5 175zM922 1466h249q-22 -135 -133 -217t-266 -82q-78 0 -140.5 18t-104.5 55
t-53.5 93.5t11.5 132.5h250q-11 -47 17 -66.5t63 -19.5q91 0 107 86z" />
    <glyph glyph-name="Gdotaccent" unicode="&#x120;" horiz-adv-x="1523" 
d="M1264 1057l223 205q-142 215 -486 215q-183 0 -336 -50.5t-258 -136t-178 -201t-107 -244t-34 -265.5q0 -98 21 -186.5t70 -169t121.5 -138.5t183 -92.5t247.5 -34.5q398 0 631 266l111 625h-619l-47 -266h342l-41 -230q-87 -58 -162 -79t-160 -21q-93 0 -164 23.5
t-112.5 60t-67.5 88t-35 100.5t-8 103q3 251 155.5 403t395.5 152q90 0 175 -33t139 -94zM856 1729q0 85 62 133.5t141 48.5q65 0 107 -34t42 -97q0 -83 -63.5 -130.5t-143.5 -47.5q-63 0 -104 33t-41 94z" />
    <glyph glyph-name="gdotaccent" unicode="&#x121;" horiz-adv-x="1318" 
d="M662 776q137 0 190 -103q46 -89 9 -205q-37 -117 -134 -180q-73 -46 -162 -46q-99 0 -160 56t-61 159q0 146 93.5 232.5t224.5 86.5zM270 -123h-293q-12 -98 19.5 -175t97.5 -125.5t155.5 -73.5t196.5 -25q258 0 427.5 122.5t213.5 372.5l175 1037h-285l-31 -115
q-27 62 -100.5 101.5t-167.5 39.5q-128 2 -243 -41t-202 -121.5t-138.5 -199t-51.5 -264.5q0 -203 119.5 -322t318.5 -117q216 4 336 150l-24 -141q-11 -63 -43 -110.5t-76 -73t-91 -38t-96 -12.5q-94 0 -156 31.5t-61 99.5zM625 1305q0 81 60.5 127.5t139.5 46.5
q65 0 106.5 -32.5t41.5 -92.5q0 -81 -63.5 -127.5t-141.5 -46.5q-61 0 -102 33t-41 92z" />
    <glyph glyph-name="Gcommaaccent" unicode="&#x122;" horiz-adv-x="1523" 
d="M1487 1262l-223 -205q-54 61 -139 94t-175 33q-243 0 -395.5 -152t-155.5 -403q-1 -54 8 -103t35 -100.5t67.5 -88t112.5 -60t164 -23.5q85 0 160 21t162 79l41 230h-342l47 266h619l-111 -625q-233 -266 -631 -266q-137 0 -247.5 34.5t-183 92.5t-121.5 138.5t-70 169
t-21 186.5q0 137 34 265.5t107 244t178 201t258 136t336 50.5q344 0 486 -215zM858 -258q0 -35 -16 -80t-34.5 -80t-52.5 -95.5t-53 -96.5h-159l69 207q-51 8 -75 37t-15 79q13 72 70 112t127 40q59 0 99 -32.5t40 -90.5z" />
    <glyph glyph-name="gcommaaccent" unicode="&#x123;" horiz-adv-x="1318" 
d="M610 1329q8 43 32 91.5t65.5 117.5t60.5 104h166l-72 -198q58 0 82.5 -32t16.5 -79q-13 -79 -73.5 -120.5t-135.5 -41.5q-72 0 -114 43t-28 115zM662 776q137 0 190 -103q46 -89 9 -205q-37 -117 -134 -180q-73 -46 -162 -46q-99 0 -160 56t-61 159q0 146 93.5 232.5
t224.5 86.5zM270 -123h-293q-12 -98 19.5 -175t97.5 -125.5t155.5 -73.5t196.5 -25q258 0 427.5 122.5t213.5 372.5l175 1037h-285l-31 -115q-27 62 -100.5 101.5t-167.5 39.5q-128 2 -243 -41t-202 -121.5t-138.5 -199t-51.5 -264.5q0 -203 119.5 -322t318.5 -117
q216 4 336 150l-24 -141q-11 -63 -43 -110.5t-76 -73t-91 -38t-96 -12.5q-94 0 -156 31.5t-61 99.5z" />
    <glyph glyph-name="Hcircumflex" unicode="&#x124;" horiz-adv-x="1599" 
d="M1016 -2h315l252 1434h-315l-101 -574h-641l101 574h-320l-252 -1434h320l100 567h641zM940 1876h150l247 -279l-2 -10h-278l-80 84l-107 -84h-280l2 10z" />
    <glyph glyph-name="hcircumflex" unicode="&#x125;" horiz-adv-x="1245" 
d="M567 1434h-297l-252 -1434h295l90 512q21 117 96.5 182.5t172.5 65.5q89 0 131 -57.5t24 -161.5l-96 -541h295l96 543q85 485 -317 485q-199 0 -334 -141zM760 1876h147l244 -277l-2 -10h-277l-77 84l-105 -84h-276l2 10z" />
    <glyph glyph-name="Hbar" unicode="&#x126;" horiz-adv-x="1619" 
d="M1341 -2h-315l98 557h-641l-98 -557h-319l186 1057h-127l35 196h127l30 181h320l-31 -181h641l31 181h315l-30 -181h133l-35 -196h-133zM535 850h641l36 205h-641z" />
    <glyph glyph-name="hbar" unicode="&#x127;" horiz-adv-x="1243" 
d="M98 1122l35 197h119l18 115h297l-18 -115h209l-35 -197h-209l-43 -235q142 137 326 137q106 0 179 -36t109.5 -102t45.5 -159.5t-13 -208.5l-92 -518h-295l90 516q22 123 -24 179.5t-133 56.5q-94 0 -169 -72.5t-94 -175.5l-88 -504h-295l199 1122h-119z" />
    <glyph glyph-name="Itilde" unicode="&#x128;" horiz-adv-x="641" 
d="M373 0h-318l252 1434h318zM297 1587l-154 101q146 225 324 178q22 -6 53 -21.5t53.5 -25.5t47.5 -14.5t48 11t44 52.5l161 -88q-77 -125 -152.5 -167t-158.5 -11q-21 7 -50 21t-47.5 23t-42.5 15t-42.5 1.5t-40.5 -23t-43 -52.5z" />
    <glyph glyph-name="itilde" unicode="&#x129;" horiz-adv-x="546" 
d="M315 0h-297l179 1012h297zM203 1178l-129 98q58 104 124 152.5t148 23.5q19 -6 45.5 -21.5t45 -25.5t40 -14t40.5 11.5t36 51.5l135 -86q-65 -125 -128 -166t-132 -10q-20 8 -50 26t-48 25.5t-41.5 9.5t-44 -16.5t-41.5 -58.5z" />
    <glyph glyph-name="Imacron" unicode="&#x12a;" horiz-adv-x="641" 
d="M373 0h-318l252 1434h318zM209 1581l31 240h551l-33 -240h-549z" />
    <glyph glyph-name="imacron" unicode="&#x12b;" horiz-adv-x="546" 
d="M315 0h-297l179 1012h297zM145 1206l29 224h488l-27 -224h-490z" />
    <glyph glyph-name="Ibreve" unicode="&#x12c;" horiz-adv-x="641" 
d="M373 0h-318l252 1434h318zM651 1888h236q-20 -145 -125.5 -232t-253.5 -87q-74 0 -133 19.5t-99 59.5t-51 99.5t11 140.5h237q-9 -50 17 -70t59 -20q86 0 102 90z" />
    <glyph glyph-name="ibreve" unicode="&#x12d;" horiz-adv-x="546" 
d="M315 0h-297l179 1012h297zM489 1432h209q-19 -135 -111.5 -218.5t-221.5 -83.5q-137 0 -208.5 78.5t-33.5 223.5h211q-5 -25 0 -43t17.5 -26t24 -11.5t23.5 -3.5q77 0 90 84z" />
    <glyph glyph-name="Iogonek" unicode="&#x12e;" horiz-adv-x="643" 
d="M348 -139l125 -115q-51 -51 -121.5 -84.5t-142 -41t-135 6t-106 59.5t-48.5 117q-6 58 29.5 131.5t116.5 114.5l243 1385h318l-252 -1434q-102 8 -169.5 -35t-60.5 -90q2 -20 17 -35t40 -21.5t63.5 4t82.5 38.5z" />
    <glyph glyph-name="iogonek" unicode="&#x12f;" horiz-adv-x="550" 
d="M498 1012h-295l-168 -957q-108 -48 -151.5 -129t-30.5 -164q5 -36 21.5 -63t39.5 -43t55 -26.5t63.5 -15t71.5 -5.5q86 -3 171 33.5t141 105.5l-127 115q-60 -41 -117 -41q-35 1 -55.5 19.5t-20.5 43.5q0 36 23 62.5t57 37.5t73 16.5t70 -1.5zM229 1260q0 92 62.5 143
t142.5 51q58 0 97.5 -36.5t39.5 -100.5q0 -91 -61 -143t-139 -52q-60 0 -101 36.5t-41 101.5z" />
    <glyph glyph-name="Idotaccent" unicode="&#x130;" horiz-adv-x="641" 
d="M55 0h318l252 1434h-318zM326 1716q0 88 64.5 137.5t148.5 49.5q68 0 112.5 -35.5t44.5 -98.5q0 -57 -34.5 -100.5t-83 -63.5t-99.5 -20q-66 0 -109.5 34.5t-43.5 96.5z" />
    <glyph glyph-name="dotlessi" unicode="&#x131;" horiz-adv-x="546" 
d="M315 0h-297l179 1012h297z" />
    <glyph glyph-name="IJ" unicode="&#x132;" horiz-adv-x="2107" 
d="M373 0h-318l252 1434h318zM676 596h301q-24 -172 45.5 -248t230.5 -76q158 0 261.5 89.5t132.5 254.5l94 535h-395l49 283h716l-145 -820q-26 -145 -80.5 -259t-143.5 -201.5t-222 -134t-303 -46.5q-311 0 -453 152.5t-88 470.5z" />
    <glyph glyph-name="ij" unicode="&#x133;" horiz-adv-x="1089" 
d="M492 1014h-295l-179 -1014h295zM221 1251q0 91 60.5 143t138.5 52q60 0 101.5 -36t41.5 -101q0 -89 -60 -141t-136 -54q-62 -2 -104 34.5t-42 102.5zM338 -172l-76 -242q57 -25 118.5 -33t121.5 1t116.5 39t102.5 77t79.5 119t47.5 162l188 1063h-295l-188 -1071
q-13 -68 -44.5 -102.5t-74.5 -35t-96 22.5zM768 1251q0 90 60 142.5t139 52.5q59 0 100 -36.5t41 -100.5q0 -91 -61.5 -143t-139.5 -52q-59 0 -99 36t-40 101z" />
    <glyph glyph-name="Jcircumflex" unicode="&#x134;" horiz-adv-x="1466" 
d="M336 596h-301q-54 -318 87.5 -470.5t452.5 -152.5q170 0 303 46.5t222.5 134t144 201.5t80.5 259l145 820h-716l-49 -283h395l-94 -535q-29 -165 -132.5 -254.5t-261.5 -89.5q-161 0 -230.5 76t-45.5 248zM1087 1892h160l264 -301l-2 -10h-297l-86 90l-112 -90h-301l2 10
z" />
    <glyph glyph-name="jcircumflex" unicode="&#x135;" horiz-adv-x="542" 
d="M342 1470h127l209 -299l-2 -10h-236l-67 88l-88 -88h-238l2 10zM489 1014h-292l-195 -1106q-26 -149 -115 -158q-45 -3 -108 25l-137 -213q96 -72 225 -72q175 0 282 99.5t146 318.5z" />
    <glyph glyph-name="Kcommaaccent" unicode="&#x136;" horiz-adv-x="1378" 
d="M1491 1434v-9l-711 -700l514 -707l-4 -18h-385l-422 612l-108 -612h-320l252 1434h320l-105 -592l582 592h387zM778 -209q0 -34 -16.5 -78.5t-36 -79t-56 -95t-55.5 -95.5h-165l73 205q-54 8 -79.5 37t-16.5 77q14 71 74 110.5t131 39.5q62 0 104.5 -32.5t42.5 -88.5z
" />
    <glyph glyph-name="kcommaaccent" unicode="&#x137;" horiz-adv-x="1118" 
d="M270 1432h295l-143 -818l369 396h348l-4 -19l-455 -465l342 -503l-4 -23h-346l-281 444l-78 -444h-295zM623 -211q0 -35 -16 -80t-34.5 -80t-52.5 -95.5t-53 -96.5h-158l70 207q-51 8 -75 37t-15 79q13 72 69.5 112t124.5 40q59 0 99.5 -33t40.5 -90z" />
    <glyph glyph-name="kgreenlandic" unicode="&#x138;" horiz-adv-x="1118" 
d="M197 1008h295l-70 -394l369 396h348l-4 -19l-461 -456l348 -512l-4 -23h-354l-273 444l-78 -444h-295z" />
    <glyph glyph-name="Lacute" unicode="&#x139;" horiz-adv-x="1224" 
d="M627 1434h-320l-252 -1434h1037l51 293h-717zM901 1858l-2 -11l-283 -264h-251l2 14l198 261h336z" />
    <glyph glyph-name="lacute" unicode="&#x13a;" horiz-adv-x="550" 
d="M567 1432h-293l-251 -1432h292zM848 1825l-2 -10l-277 -259h-245l2 13l192 256h330z" />
    <glyph glyph-name="Lcommaaccent" unicode="&#x13b;" horiz-adv-x="1224" 
d="M307 1434h320l-201 -1141h717l-51 -293h-1037zM713 -229q0 -36 -16 -82t-34.5 -82.5t-53 -99t-52.5 -99.5h-158l70 213q-51 8 -75 39t-15 82q13 74 69.5 115t124.5 41q59 0 99.5 -34t40.5 -93z" />
    <glyph glyph-name="lcommaaccent" unicode="&#x13c;" horiz-adv-x="550" 
d="M274 1432h293l-252 -1432h-292zM293 -240q0 -46 -19.5 -97t-70 -142t-66.5 -123h-157l69 213q-51 8 -75 39t-15 82q13 74 70 114.5t125 40.5q58 0 98.5 -34t40.5 -93z" />
    <glyph glyph-name="Lcaron" unicode="&#x13d;" horiz-adv-x="1228" 
d="M307 1434h320l-201 -1141h717l-51 -293h-1037zM831 979l173 448h274l-238 -448h-209z" />
    <glyph glyph-name="lcaron" unicode="&#x13e;" horiz-adv-x="690" 
d="M274 1432h293l-252 -1432h-292zM551 981l172 453h274l-237 -453h-209z" />
    <glyph glyph-name="Ldot" unicode="&#x13f;" horiz-adv-x="1224" 
d="M307 1434h320l-201 -1141h717l-51 -293h-1037zM709 735q0 95 65.5 150t149.5 55q63 0 105 -38t42 -107q0 -97 -66 -151t-151 -54q-62 0 -103.5 38t-41.5 107z" />
    <glyph glyph-name="ldot" unicode="&#x140;" horiz-adv-x="872" 
d="M274 1432h293l-252 -1432h-292zM545 641q0 95 65.5 150t149.5 55q63 0 105 -38.5t42 -107.5q0 -97 -66 -150.5t-151 -53.5q-62 0 -103.5 38t-41.5 107z" />
    <glyph glyph-name="Lslash" unicode="&#x141;" horiz-adv-x="1247" 
d="M551 872l229 109l-41 -240l-229 -104l-61 -344h716l-51 -293h-1034l84 479l-178 -84l41 234l178 84l127 721h317z" />
    <glyph glyph-name="lslash" unicode="&#x142;" horiz-adv-x="620" 
d="M645 928l-35 -209l-153 -74l-113 -645h-293l88 500l-137 -66l37 213l137 66l127 719h293l-102 -576z" />
    <glyph glyph-name="Nacute" unicode="&#x143;" horiz-adv-x="1622" 
d="M1141 502l-559 932h-275l-252 -1434h324l78 446l71 472l551 -918h275l252 1434h-322l-84 -482zM1405 1862l-2 -13l-303 -280h-273l2 14l213 279h363z" />
    <glyph glyph-name="nacute" unicode="&#x144;" horiz-adv-x="1261" 
d="M748 0h296l95 537q89 499 -334 499q-206 3 -354 -153l12 129h-266l-179 -1012h291l92 522q18 102 95.5 175.5t177.5 72.5q209 0 168 -235zM1120 1454l-2 -12l-272 -273h-242l2 13l191 272h323z" />
    <glyph glyph-name="Ncommaaccent" unicode="&#x145;" horiz-adv-x="1622" 
d="M582 1434l559 -932l59 450l84 482h322l-252 -1434h-275l-551 918l-71 -472l-78 -446h-324l252 1434h275zM872 -205q0 -36 -15.5 -82t-34 -82t-53 -98.5t-52.5 -99.5h-158l70 213q-51 8 -75 39t-15 82q13 74 69.5 114.5t124.5 40.5q58 0 98.5 -34t40.5 -93z" />
    <glyph glyph-name="ncommaaccent" unicode="&#x146;" horiz-adv-x="1261" 
d="M1044 0h-296l94 535q41 235 -168 235q-100 1 -177.5 -72.5t-95.5 -175.5l-92 -522h-291l179 1012h266l-12 -129q148 156 354 153q423 0 334 -499zM653 -217q0 -36 -15.5 -82.5t-34 -82t-53 -98.5t-52.5 -100h-158l70 213q-51 8 -75.5 39t-15.5 82q13 74 70 115t125 41
q58 0 98.5 -34t40.5 -93z" />
    <glyph glyph-name="Ncaron" unicode="&#x147;" horiz-adv-x="1622" 
d="M1141 502l-559 932h-275l-252 -1434h324l78 446l71 472l551 -918h275l252 1434h-322l-84 -482zM670 1845l2 10h278l76 -81l113 81h288l-2 -10l-358 -266h-149z" />
    <glyph glyph-name="ncaron" unicode="&#x148;" horiz-adv-x="1261" 
d="M748 0h296l95 537q89 499 -334 499q-206 3 -354 -153l12 129h-266l-179 -1012h291l92 522q18 102 95.5 175.5t177.5 72.5q209 0 168 -235zM442 1432l2 12h269l73 -84l109 84h279l-3 -12l-344 -269h-145z" />
    <glyph glyph-name="napostrophe" unicode="&#x149;" horiz-adv-x="1261" 
d="M1044 0h-296l94 535q41 235 -168 235q-100 1 -177.5 -72.5t-95.5 -175.5l-92 -522h-291l179 1012h266l-12 -129q148 156 354 153q423 0 334 -499z" />
    <glyph glyph-name="Eng" unicode="&#x14a;" horiz-adv-x="1613" 
d="M578 1434l544 -895l158 895h317l-258 -1473q-27 -152 -95 -255t-157.5 -143.5t-195 -27.5t-207.5 82l150 227q94 -43 142.5 -15t67.5 132l13 72l-527 852l-155 -885h-320l252 1434h271z" />
    <glyph glyph-name="eng" unicode="&#x14b;" horiz-adv-x="1257" 
d="M737 -59l101 571q18 105 -23.5 175.5t-142.5 70.5q-100 0 -178 -75t-97 -181l-88 -502h-291l179 1012h260l-2 -125q102 72 181 105t167 32q86 0 155.5 -33.5t116.5 -98t63 -159.5t-5 -219l-101 -573q-19 -107 -57.5 -186t-93 -125.5t-118 -68.5t-138.5 -22
q-130 0 -242 72l129 207q52 -27 102 -27q97 0 123 150z" />
    <glyph glyph-name="Omacron" unicode="&#x14c;" horiz-adv-x="1714" 
d="M1667 850q0 -197 -71 -364t-194 -280.5t-292.5 -177t-364.5 -63.5q-303 0 -480 166t-177 453q0 197 71 364t194 280t292.5 176.5t364.5 63.5q303 0 480 -165.5t177 -452.5zM1337 717q36 200 -68.5 332.5t-310.5 132.5q-150 0 -277 -73.5t-200 -198t-73 -269.5
q0 -171 105 -279t282 -108q207 0 356.5 130.5t185.5 332.5zM680 1610l43 243h735l-43 -243h-735z" />
    <glyph glyph-name="omacron" unicode="&#x14d;" horiz-adv-x="1243" 
d="M510 -23q-220 0 -344.5 121.5t-124.5 317.5q0 171 84 312.5t234.5 223.5t336.5 82q219 0 345 -123t126 -321q0 -171 -82 -310.5t-233 -221t-342 -81.5zM557 240q75 0 135.5 27.5t97 73t55.5 99t19 109.5q0 93 -52.5 157t-160.5 64q-72 0 -132 -28.5t-97.5 -74.5
t-57.5 -100t-20 -108q0 -92 53 -155.5t160 -63.5zM385 1184l39 248h641l-39 -248h-641z" />
    <glyph glyph-name="Obreve" unicode="&#x14e;" horiz-adv-x="1716" 
d="M1667 850q0 -197 -71 -364t-194 -280.5t-292.5 -177t-364.5 -63.5q-303 0 -480 166t-177 453q0 197 71 364t194 280t292.5 176.5t364.5 63.5q303 0 480 -165.5t177 -452.5zM1337 717q36 200 -68.5 332.5t-310.5 132.5q-150 0 -277 -73.5t-200 -198t-73 -269.5
q0 -171 105 -279t282 -108q207 0 356.5 130.5t185.5 332.5zM1223 1866h250q-22 -135 -134.5 -217t-269.5 -82q-78 0 -140.5 18t-105.5 55t-54.5 93.5t11.5 132.5h252q-9 -48 19 -67t63 -19q91 0 109 86z" />
    <glyph glyph-name="obreve" unicode="&#x14f;" horiz-adv-x="1243" 
d="M510 -23q-220 0 -344.5 121.5t-124.5 317.5q0 171 84 312.5t234.5 223.5t336.5 82q219 0 345 -123t126 -321q0 -171 -82 -310.5t-233 -221t-342 -81.5zM557 240q75 0 135.5 27.5t97 73t55.5 99t19 109.5q0 93 -52.5 157t-160.5 64q-72 0 -132 -28.5t-97.5 -74.5
t-57.5 -100t-20 -108q0 -92 53 -155.5t160 -63.5zM895 1446h233q-20 -132 -124 -211.5t-252 -79.5q-99 0 -169 31.5t-100.5 96.5t0.5 163h236q-9 -46 16 -64t58 -18q86 0 102 82z" />
    <glyph glyph-name="Ohungarumlaut" unicode="&#x150;" horiz-adv-x="1716" 
d="M1667 850q0 287 -177 452.5t-480 165.5q-195 0 -364.5 -63.5t-292.5 -176.5t-194 -280t-71 -364q0 -287 177 -453t480 -166q195 0 364.5 63.5t292.5 177t194 280.5t71 364zM1337 717q-36 -202 -185.5 -332.5t-356.5 -130.5q-177 0 -282 108t-105 279q0 145 73 269.5
t200 198t277 73.5q206 0 310.5 -132.5t68.5 -332.5zM1346 1870h325l-2 -10l-317 -285h-285zM913 1872h326l-2 -10l-287 -285h-299z" />
    <glyph glyph-name="ohungarumlaut" unicode="&#x151;" horiz-adv-x="1243" 
d="M510 -23q191 0 342 81.5t233 221t82 310.5q0 198 -126 321t-345 123q-186 0 -336.5 -82t-234.5 -223.5t-84 -312.5q0 -196 124.5 -317.5t344.5 -121.5zM557 240q-107 0 -160 63.5t-53 155.5q0 54 20 108t57.5 100t97.5 74.5t132 28.5q108 0 160.5 -64t52.5 -157
q0 -56 -19 -109.5t-55.5 -99t-97 -73t-135.5 -27.5zM977 1395h293l-2 -9l-285 -251h-256zM588 1397h293l-2 -8l-256 -252h-269z" />
    <glyph glyph-name="OE" unicode="&#x152;" horiz-adv-x="2115" 
d="M1976 283l-47 -279h-948q-134 -39 -272 -39q-156 0 -275.5 45t-194 126.5t-112 191t-37.5 243.5q0 151 36.5 286t110.5 246.5t178.5 193t248 126.5t311.5 45q27 0 55 -2t59 -6.5t48 -7t52.5 -9t41.5 -7.5h907l-49 -275h-619l-51 -291h580l-49 -276h-580l-55 -311h661z
M426 721q-13 -61 -10.5 -121.5t14 -115.5t41 -101.5t70.5 -80.5t102.5 -53.5t136.5 -19.5q139 0 246 39l156 893q-112 45 -240 45q-200 0 -338 -130.5t-178 -354.5z" />
    <glyph glyph-name="oe" unicode="&#x153;" horiz-adv-x="1957" 
d="M510 -23q-220 0 -344.5 121.5t-124.5 317.5q0 171 84.5 313t235.5 224.5t337 82.5q123 0 215 -49.5t138 -136.5q76 89 183.5 138.5t227.5 49.5q175 0 285.5 -71.5t143 -211.5t-35.5 -347h-749q-2 -77 64 -128t186 -51q168 0 276 80l133 -184q-91 -76 -214.5 -114
t-245.5 -38q-133 0 -227.5 51.5t-143.5 141.5q-76 -88 -187.5 -138.5t-236.5 -50.5zM557 242q74 0 135 27.5t99 72t58.5 97.5t20.5 106q0 93 -55.5 159t-163.5 66q-72 0 -132 -28.5t-96.5 -74t-56.5 -99t-20 -107.5q0 -90 52 -154.5t159 -64.5zM1145 623h491q9 79 -52.5 121
t-160.5 42q-90 0 -166.5 -44.5t-111.5 -118.5z" />
    <glyph glyph-name="Racute" unicode="&#x154;" horiz-adv-x="1490" 
d="M1327 0l4 25l-309 475q217 73 318.5 200t101.5 322q0 84 -28.5 157t-83.5 130.5t-143 91t-200 33.5h-680l-252 -1434h320l84 471h237l283 -471h348zM580 1159h360q91 0 135.5 -55.5t44.5 -130.5q0 -85 -67.5 -158.5t-182.5 -73.5h-364zM1255 1870l-2 -12l-301 -275h-268
l2 12l211 275h358z" />
    <glyph glyph-name="racute" unicode="&#x155;" horiz-adv-x="933" 
d="M471 1010h-274l-179 -1010h295l93 526q19 110 97.5 172t178.5 62q91 0 154 -51l163 233q-86 92 -231 92q-171 0 -295 -135zM944 1442v-10l-270 -250h-242l2 12l191 248h319z" />
    <glyph glyph-name="Rcommaaccent" unicode="&#x156;" horiz-adv-x="1490" 
d="M1331 25l-4 -25h-348l-283 471h-237l-84 -471h-320l252 1434h680q112 0 200 -33.5t143 -91t83.5 -130.5t28.5 -157q0 -195 -101.5 -322t-318.5 -200zM940 1159h-360l-74 -418h364q115 0 182.5 73.5t67.5 158.5q0 75 -44.5 130.5t-135.5 55.5zM797 -221q0 -36 -16 -82
t-34.5 -82.5t-53 -99t-52.5 -99.5h-158l70 213q-51 8 -75 39t-15 82q13 74 69.5 115t124.5 41q59 0 99.5 -34t40.5 -93z" />
    <glyph glyph-name="rcommaaccent" unicode="&#x157;" horiz-adv-x="933" 
d="M197 1010h274l2 -111q124 135 295 135q145 0 231 -92l-163 -233q-63 51 -154 51q-100 0 -178.5 -62t-97.5 -172l-93 -526h-295zM281 -229q0 -45 -19 -95t-68.5 -138.5t-64.5 -119.5h-154l68 207q-49 8 -72 37.5t-14 79.5q11 72 66 112t122 40q57 0 96.5 -33t39.5 -90z
" />
    <glyph glyph-name="Rcaron" unicode="&#x158;" horiz-adv-x="1490" 
d="M1327 0l4 25l-309 475q217 73 318.5 200t101.5 322q0 84 -28.5 157t-83.5 130.5t-143 91t-200 33.5h-680l-252 -1434h320l84 471h237l283 -471h348zM580 1159h360q91 0 135.5 -55.5t44.5 -130.5q0 -85 -67.5 -158.5t-182.5 -73.5h-364zM514 1845l2 10h295l80 -83l121 83
h307l-2 -10l-381 -274h-158z" />
    <glyph glyph-name="rcaron" unicode="&#x159;" horiz-adv-x="933" 
d="M471 1010h-274l-179 -1010h295l93 526q19 110 97.5 172t178.5 62q91 0 154 -51l163 233q-86 92 -231 92q-171 0 -295 -135zM287 1430l2 10h280l76 -82l115 82h291l-2 -10l-361 -267h-151z" />
    <glyph glyph-name="Sacute" unicode="&#x15a;" horiz-adv-x="1323" 
d="M1073 1094l215 192q-91 112 -200 155.5t-273 43.5q-113 0 -218.5 -27t-194 -78t-150 -133.5t-80.5 -185.5q-15 -96 4 -171.5t61.5 -124t112.5 -83t144 -52t168 -28.5q134 -16 196 -51.5t62 -106.5q0 -92 -89.5 -145t-230.5 -53q-117 0 -227 48.5t-172 143.5l-205 -239
q74 -121 223.5 -184.5t327.5 -61.5q112 1 210.5 18.5t188 57.5t154 100t102 150t37.5 202q0 79 -26 143.5t-69.5 108t-106 74.5t-129.5 48t-146 24q-70 6 -115.5 14t-86 23.5t-60 42.5t-19.5 67q0 83 84 132.5t203 49.5q90 0 174 -28.5t131 -85.5zM1194 1905l-2 -13
l-287 -284h-256l2 12l201 285h342z" />
    <glyph glyph-name="sacute" unicode="&#x15b;" horiz-adv-x="1015" 
d="M963 909l-179 -184q-92 74 -227 74q-76 0 -119 -26.5t-43 -70.5q0 -72 135 -75q67 -2 121 -10t111 -30t92.5 -57t53 -96t3.5 -141q-11 -64 -45 -121.5t-93 -105.5t-152 -76.5t-209 -28.5q-128 0 -235.5 36.5t-209.5 135.5l164 209q128 -123 330 -127q70 -2 119 25t49 73
q0 73 -158 78q-69 2 -131 18t-118 47t-89 86t-33 128q0 75 28.5 138t77 105t113 71.5t134.5 42.5t145 13q237 0 365 -131zM940 1448l-2 -12l-266 -265h-238l2 13l187 264h317z" />
    <glyph glyph-name="Scircumflex" unicode="&#x15c;" horiz-adv-x="1323" 
d="M1073 1094l215 192q-91 112 -200 155.5t-273 43.5q-113 0 -218.5 -27t-194 -78t-150 -133.5t-80.5 -185.5q-15 -96 4 -171.5t61.5 -124t112.5 -83t144 -52t168 -28.5q134 -16 196 -51.5t62 -106.5q0 -92 -89.5 -145t-230.5 -53q-117 0 -227 48.5t-172 143.5l-205 -239
q74 -121 223.5 -184.5t327.5 -61.5q112 1 210.5 18.5t188 57.5t154 100t102 150t37.5 202q0 79 -26 143.5t-69.5 108t-106 74.5t-129.5 48t-146 24q-70 6 -115.5 14t-86 23.5t-60 42.5t-19.5 67q0 83 84 132.5t203 49.5q90 0 174 -28.5t131 -85.5zM813 1903h164l270 -289
l-2 -10h-305l-88 86l-117 -86h-307l2 10z" />
    <glyph glyph-name="scircumflex" unicode="&#x15d;" horiz-adv-x="1015" 
d="M963 909l-179 -184q-92 74 -227 74q-76 0 -119 -26.5t-43 -70.5q0 -72 135 -75q67 -2 121 -10t111 -30t92.5 -57t53 -96t3.5 -141q-11 -64 -45 -121.5t-93 -105.5t-152 -76.5t-209 -28.5q-128 0 -235.5 36.5t-209.5 135.5l164 209q128 -123 330 -127q70 -2 119 25t49 73
q0 73 -158 78q-69 2 -131 18t-118 47t-89 86t-33 128q0 75 28.5 138t77 105t113 71.5t134.5 42.5t145 13q237 0 365 -131zM592 1458h143l238 -278l-2 -11h-269l-75 84l-103 -84h-270l2 11z" />
    <glyph glyph-name="Scedilla" unicode="&#x15e;" horiz-adv-x="1353" 
d="M209 -401l147 100q26 -34 58 -47q47 -23 103.5 -12.5t76.5 49.5q17 35 -10 59.5t-73.5 23.5t-80.5 -28l-65 55l94 170q-185 15 -299.5 97.5t-167.5 246.5l287 138q35 -116 121 -163.5t225 -47.5q130 0 218 49.5t105 142.5q14 80 -53 124.5t-203 57.5q-59 5 -109.5 13
t-102 21.5t-91.5 31.5t-78 44t-61 58.5t-41 75t-18 94t8 115.5q23 104 88 187.5t154.5 135.5t193.5 79.5t211 27.5q170 0 302 -57.5t183 -165.5l-248 -170q-35 60 -111 89.5t-171 27.5q-123 -2 -208 -52t-85 -131q0 -117 256 -143q98 -10 174 -27t148 -51.5t115 -83.5
t61.5 -125.5t1.5 -175.5q-34 -201 -194 -320t-392 -143l-41 -78q57 -3 98 -19t62.5 -39.5t30.5 -54t6.5 -60.5t-13.5 -60q-24 -63 -80 -110t-127 -70q-82 -24 -160 -20t-145.5 41t-99.5 100z" />
    <glyph glyph-name="scedilla" unicode="&#x15f;" horiz-adv-x="1019" 
d="M61 -389l136 92q19 -29 64.5 -46.5t95 -8.5t71.5 49q18 35 -9.5 61.5t-69 26t-75.5 -24.5l-61 54l88 151q-98 8 -179 45t-155 123l156 201q119 -129 336 -129q69 0 118.5 32t49.5 74q0 75 -156 80q-59 2 -114 13t-107.5 36t-88.5 61t-52.5 91.5t-4.5 124.5
q15 87 68.5 152.5t127 101t148 52.5t146.5 17q128 0 215 -28t162 -103l-178 -174q-63 68 -226 68q-74 0 -123 -22.5t-49 -65.5q0 -25 20 -41.5t53.5 -24t76.5 -14.5t89 -13t91.5 -19.5t83.5 -33.5t65.5 -55.5t37.5 -85.5t-1 -123q-10 -59 -39.5 -114t-79.5 -103t-128 -81
t-175 -42l-34 -65q109 -2 162.5 -64t13.5 -164q-24 -64 -81 -110t-125.5 -66.5t-137.5 -17.5q-75 3 -135.5 38t-90.5 95z" />
    <glyph glyph-name="Scaron" unicode="&#x160;" horiz-adv-x="1323" 
d="M1073 1094l215 192q-91 112 -200 155.5t-273 43.5q-113 0 -218.5 -27t-194 -78t-150 -133.5t-80.5 -185.5q-15 -96 4 -171.5t61.5 -124t112.5 -83t144 -52t168 -28.5q134 -16 196 -51.5t62 -106.5q0 -92 -89.5 -145t-230.5 -53q-117 0 -227 48.5t-172 143.5l-205 -239
q74 -121 223.5 -184.5t327.5 -61.5q112 1 210.5 18.5t188 57.5t154 100t102 150t37.5 202q0 79 -26 143.5t-69.5 108t-106 74.5t-129.5 48t-146 24q-70 6 -115.5 14t-86 23.5t-60 42.5t-19.5 67q0 83 84 132.5t203 49.5q90 0 174 -28.5t131 -85.5zM440 1870l2 12h312l84 -86
l127 86h323l-2 -12l-401 -279h-166z" />
    <glyph glyph-name="scaron" unicode="&#x161;" horiz-adv-x="1015" 
d="M963 909l-179 -184q-92 74 -227 74q-76 0 -119 -26.5t-43 -70.5q0 -72 135 -75q67 -2 121 -10t111 -30t92.5 -57t53 -96t3.5 -141q-11 -64 -45 -121.5t-93 -105.5t-152 -76.5t-209 -28.5q-128 0 -235.5 36.5t-209.5 135.5l164 209q128 -123 330 -127q70 -2 119 25t49 73
q0 73 -158 78q-69 2 -131 18t-118 47t-89 86t-33 128q0 75 28.5 138t77 105t113 71.5t134.5 42.5t145 13q237 0 365 -131zM293 1430l2 10h266l74 -84l108 84h277l-2 -10l-344 -275h-144z" />
    <glyph glyph-name="Tcommaaccent" unicode="&#x162;" horiz-adv-x="1259" 
d="M362 0l203 1145h-436l51 289h1190l-51 -289h-436l-203 -1145h-107l-49 -100q115 -13 169 -74.5t32 -142.5q-18 -64 -63 -115t-102.5 -80t-125 -39t-129.5 1t-116 46.5t-85 91.5l150 113q55 -74 145 -70q44 3 72.5 20.5t36.5 41.5q11 30 -9.5 57.5t-68 39.5t-125.5 -7
l-41 33z" />
    <glyph glyph-name="tcommaaccent" unicode="&#x163;" horiz-adv-x="847" 
d="M336 1255l301 33l-49 -282h260l-45 -254h-262l-72 -408q-8 -48 24 -69t74 -21q56 0 115 27l35 -252q-113 -41 -225 -41l-39 -72q55 -3 94.5 -20t60 -41t29.5 -54t6.5 -59t-12.5 -57q-29 -76 -91 -127t-136 -67.5t-147.5 -11t-133.5 39.5t-86 86l133 114q32 -36 86 -50.5
t101 -3t61 45.5q12 29 -2.5 52.5t-45 34.5t-68 14t-71.5 -11l-36 23l108 199q-74 43 -110.5 125t-16.5 196l72 408h-180l45 254h180z" />
    <glyph glyph-name="Tcaron" unicode="&#x164;" horiz-adv-x="1257" 
d="M565 1149l-203 -1149h318l203 1149h436l51 285h-1190l-51 -285h436zM453 1843l2 12h286l78 -88l117 88h297l-2 -12l-369 -287h-153z" />
    <glyph glyph-name="tcaron" unicode="&#x165;" horiz-adv-x="1003" 
d="M324 1255l299 33l-50 -282h195l-43 -246h-197l-67 -381q-12 -72 20 -103.5t82 -31.5q71 0 127 24l25 -245q-112 -41 -221 -46q-69 -3 -124 8t-102 38.5t-73 75t-35.5 117t8.5 163.5l68 381h-170l43 246h170zM807 856l168 442h268l-231 -442h-205z" />
    <glyph glyph-name="Tbar" unicode="&#x166;" horiz-adv-x="1277" 
d="M248 582l41 239h227l57 324h-436l51 289h1190l-51 -289h-436l-57 -324h253l-40 -239h-254l-105 -582h-317l104 582h-227z" />
    <glyph glyph-name="tbar" unicode="&#x167;" horiz-adv-x="847" 
d="M47 418l33 186h141l29 160h-180l43 242h180l43 249l301 33l-49 -282h260l-43 -242h-262l-29 -160h197l-33 -186h-197l-14 -76q-11 -59 18.5 -90t75.5 -31q67 0 117 23l37 -230q-93 -35 -219 -41q-176 -8 -266.5 84.5t-55.5 284.5l14 76h-141z" />
    <glyph glyph-name="Utilde" unicode="&#x168;" horiz-adv-x="1587" 
d="M1274 1432h317l-141 -801q-57 -318 -252.5 -492t-492.5 -174q-115 0 -211 25t-173 76.5t-124 130.5t-63 187t9 247l142 801h317l-141 -801q-34 -193 40.5 -290.5t250.5 -88.5q159 9 254.5 110t126.5 269zM756 1577l-164 109q156 246 350 196q24 -7 58.5 -24.5t59 -28
t52 -15t52 12.5t46.5 57l176 -96q-84 -138 -165 -183.5t-172 -11.5q-23 8 -55 23.5t-52.5 25.5t-47 16.5t-47 1.5t-44.5 -25t-47 -58z" />
    <glyph glyph-name="utilde" unicode="&#x169;" horiz-adv-x="1263" 
d="M184 1012h297l-94 -535q-41 -235 168 -235q100 -1 177 72t95 175l93 523h290l-178 -1012h-266l12 133q-143 -156 -354 -153q-59 0 -108 9.5t-95 31.5t-75.5 59t-50.5 92t-20.5 130t15.5 173zM516 1165l-151 105q144 238 321 190q22 -7 54 -24t54 -27.5t47.5 -14.5
t48 12.5t42.5 55.5l162 -92q-77 -134 -152 -178.5t-158 -11.5q-24 9 -60 27.5t-57.5 27.5t-49 11t-52 -18t-49.5 -63z" />
    <glyph glyph-name="Umacron" unicode="&#x16a;" horiz-adv-x="1587" 
d="M1274 1432h317l-141 -801q-57 -318 -252.5 -492t-492.5 -174q-115 0 -211 25t-173 76.5t-124 130.5t-63 187t9 247l142 801h317l-141 -801q-34 -193 40.5 -290.5t250.5 -88.5q159 9 254.5 110t126.5 269zM600 1579l41 256h700l-41 -256h-700z" />
    <glyph glyph-name="umacron" unicode="&#x16b;" horiz-adv-x="1263" 
d="M184 1012h297l-94 -535q-41 -235 168 -235q100 -1 177 72t95 175l93 523h290l-178 -1012h-266l12 133q-143 -156 -354 -153q-59 0 -108 9.5t-95 31.5t-75.5 59t-50.5 92t-20.5 130t15.5 173zM385 1212l39 242h653l-39 -242h-653z" />
    <glyph glyph-name="Ubreve" unicode="&#x16c;" horiz-adv-x="1587" 
d="M1274 1432h317l-141 -801q-57 -318 -252.5 -492t-492.5 -174q-115 0 -211 25t-173 76.5t-124 130.5t-63 187t9 247l142 801h317l-141 -801q-34 -193 40.5 -290.5t250.5 -88.5q159 9 254.5 110t126.5 269zM1141 1853h245q-22 -135 -131.5 -217t-263.5 -82
q-162 0 -244.5 77t-37.5 222h247q-6 -25 0.5 -43.5t20.5 -27t28 -12t29 -3.5q91 0 107 86z" />
    <glyph glyph-name="ubreve" unicode="&#x16d;" horiz-adv-x="1263" 
d="M184 1012h297l-94 -535q-41 -235 168 -235q100 -1 177 72t95 175l93 523h290l-178 -1012h-266l12 133q-143 -156 -354 -153q-59 0 -108 9.5t-95 31.5t-75.5 59t-50.5 92t-20.5 130t15.5 173zM907 1448h236q-20 -131 -125.5 -210t-253.5 -79q-74 0 -133 17.5t-99 53.5
t-51 90.5t11 127.5h237q-9 -46 16.5 -64t59.5 -18q86 0 102 82z" />
    <glyph glyph-name="Uring" unicode="&#x16e;" horiz-adv-x="1587" 
d="M1274 1432h317l-141 -801q-57 -318 -252.5 -492t-492.5 -174q-115 0 -211 25t-173 76.5t-124 130.5t-63 187t9 247l142 801h317l-141 -801q-34 -193 40.5 -290.5t250.5 -88.5q159 9 254.5 110t126.5 269zM737 1739q0 58 20 105.5t52.5 78.5t75.5 52.5t88 30.5t92 9
q97 0 163 -48t66 -146q0 -67 -29.5 -121t-76.5 -86.5t-101 -50t-108 -17.5q-46 0 -87.5 10.5t-77 32t-56.5 60.5t-21 90zM1034 1876q-58 0 -93.5 -33.5t-35.5 -75.5q0 -34 24 -57.5t68 -23.5q59 0 94 33t35 75q0 34 -24 58t-68 24z" />
    <glyph glyph-name="uring" unicode="&#x16f;" horiz-adv-x="1263" 
d="M184 1012h297l-94 -535q-41 -235 168 -235q100 -1 177 72t95 175l93 523h290l-178 -1012h-266l12 133q-143 -156 -354 -153q-59 0 -108 9.5t-95 31.5t-75.5 59t-50.5 92t-20.5 130t15.5 173zM522 1317q0 65 28.5 115t75.5 78.5t100 42.5t110 14q92 0 153.5 -43.5
t61.5 -132.5q0 -60 -27.5 -109.5t-71.5 -79t-95 -45.5t-103 -16q-61 0 -111 16t-85.5 57t-35.5 103zM805 1442q-55 0 -88 -31t-33 -70q0 -30 22.5 -51.5t63.5 -21.5q56 0 89.5 30.5t33.5 69.5q0 30 -23 52t-65 22z" />
    <glyph glyph-name="Uhungarumlaut" unicode="&#x170;" horiz-adv-x="1587" 
d="M1591 1432h-317l-141 -801q-31 -168 -126.5 -269t-254.5 -110q-176 -9 -250.5 88.5t-40.5 290.5l141 801h-317l-142 -801q-25 -139 -9 -247t63 -187t124 -130.5t173 -76.5t211 -25q297 0 492.5 174t252.5 492zM1251 1858h299l-2 -11l-291 -288h-262zM854 1860h301l-2 -11
l-264 -288h-273z" />
    <glyph glyph-name="uhungarumlaut" unicode="&#x171;" horiz-adv-x="1263" 
d="M481 1012h-297l-94 -537q-15 -98 -15.5 -173t20.5 -130t50.5 -92t75.5 -59t95 -31.5t108 -9.5q211 -3 354 153l-12 -133h266l178 1012h-290l-93 -523q-18 -102 -95 -175t-177 -72q-209 0 -168 235zM1010 1436h288l-2 -9l-280 -260h-252zM629 1438h289l-3 -11l-253 -258
h-263z" />
    <glyph glyph-name="Uogonek" unicode="&#x172;" horiz-adv-x="1591" 
d="M1274 1432h317l-149 -846q-35 -206 -158 -354t-293 -214h2q-93 -31 -109 -88q-12 -44 24 -70q45 -32 110 0q25 12 49 34l141 -144q-60 -77 -148.5 -119t-178.5 -41t-158 43q-77 46 -91 146.5t46 191.5q-146 3 -257.5 46t-183.5 125.5t-96.5 205t2.5 283.5l142 801h317
l-141 -801q-31 -176 35.5 -273t226.5 -104q168 -9 273 92.5t137 284.5z" />
    <glyph glyph-name="uogonek" unicode="&#x173;" horiz-adv-x="1257" 
d="M1204 1008l-203 -1149q-23 5 -61.5 -1.5t-76 -22t-62.5 -45.5t-19 -66q4 -24 24.5 -40.5t51.5 -20.5t75 12t89 53l70 -125q-47 -51 -113 -85t-134 -42.5t-130.5 2t-109 49.5t-62.5 100q-17 62 3 130t76.5 126.5t137.5 85.5l6 152q-104 -74 -182 -105.5t-178 -31.5
q-168 0 -264 128.5t-58 346.5l96 549h295l-96 -547q-15 -85 34.5 -148t135.5 -63q100 0 177.5 75t96.5 181l88 502h293z" />
    <glyph glyph-name="Wcircumflex" unicode="&#x174;" horiz-adv-x="2199" 
d="M1559 2l772 1432h-359l-256 -492l-205 -461l-168 953h-208l-490 -953l-47 463l-92 490h-359l283 -1432h262l438 801l166 -801h263zM1243 1909h168l277 -312l-2 -10h-314l-88 92l-119 -92h-313l2 10z" />
    <glyph glyph-name="wcircumflex" unicode="&#x175;" horiz-adv-x="1732" 
d="M1051 1012h-232l-309 -645l-25 229l-67 416h-330l193 -1018h294l269 506l90 -506h293l555 1018h-330l-215 -416l-107 -229zM952 1470h156l258 -284l-2 -10h-291l-84 86l-110 -86h-293l2 10z" />
    <glyph glyph-name="Ycircumflex" unicode="&#x176;" horiz-adv-x="1443" 
d="M750 864l-244 570h-361l-2 -17l400 -848l-101 -569h320l100 569l723 848l2 17h-375zM877 1884h157l264 -282l-2 -11h-297l-86 86l-110 -86h-299l2 11z" />
    <glyph glyph-name="ycircumflex" unicode="&#x177;" horiz-adv-x="1257" 
d="M475 1012h-295l-92 -518q-42 -237 48 -373.5t270 -136.5q63 0 100.5 3t84.5 16t88.5 41.5t86.5 76.5l-27 -152q-19 -105 -96.5 -166t-161.5 -61q-43 0 -75 4.5t-64 18t-49.5 42t-16.5 70.5h-276q-4 -104 26.5 -182.5t91 -126.5t141.5 -72t181 -24q102 0 194 29.5
t171.5 88.5t136 157t78.5 224l184 1041h-293l-90 -506q-19 -104 -102 -180t-184 -76q-99 0 -134 69t-16 177zM715 1481h170l282 -299l-2 -11h-319l-90 89l-121 -89h-322l2 11z" />
    <glyph glyph-name="Ydieresis" unicode="&#x178;" horiz-adv-x="1443" 
d="M750 864l-244 570h-361l-2 -17l400 -848l-101 -569h320l100 569l723 848l2 17h-375zM483 1690q0 86 59 134t136 48q56 0 93.5 -34t37.5 -95q0 -85 -59.5 -132.5t-135.5 -47.5q-58 0 -94.5 33t-36.5 94zM1008 1694q0 83 60 130.5t136 47.5q55 0 93 -34.5t38 -94.5
q0 -72 -56 -126t-132 -54q-61 0 -100 35t-39 96z" />
    <glyph glyph-name="Zacute" unicode="&#x179;" horiz-adv-x="1286" 
d="M246 1434l-47 -275h665l-876 -993l-29 -166h1147l53 299h-704l862 995l24 140h-1095zM1192 1872l-2 -12l-289 -289h-258l2 14l203 287h344z" />
    <glyph glyph-name="zacute" unicode="&#x17a;" horiz-adv-x="976" 
d="M958 1012h-784l-45 -256h395l-555 -631l-22 -125h854l47 272h-445l531 596zM954 1413l-2 -10l-268 -252h-240l2 12l189 250h319z" />
    <glyph glyph-name="Zdotaccent" unicode="&#x17b;" horiz-adv-x="1286" 
d="M246 1434l-47 -275h665l-876 -993l-29 -166h1147l53 299h-704l862 995l24 140h-1095zM698 1712q0 88 67 137t153 49q71 0 117 -34t46 -99q0 -85 -69.5 -134.5t-155.5 -49.5q-69 0 -113.5 34.5t-44.5 96.5z" />
    <glyph glyph-name="zdotaccent" unicode="&#x17c;" horiz-adv-x="976" 
d="M958 1012h-784l-45 -256h395l-555 -631l-22 -125h854l47 272h-445l531 596zM485 1296q0 81 59 127.5t136 46.5q62 0 102.5 -32t40.5 -92q0 -81 -61 -128t-137 -47q-60 0 -100 33t-40 92z" />
    <glyph glyph-name="Zcaron" unicode="&#x17d;" horiz-adv-x="1286" 
d="M246 1434l-47 -275h665l-876 -993l-29 -166h1147l53 299h-704l862 995l24 140h-1095zM461 1845l2 13h305l84 -89l123 89h315l-2 -13l-391 -284h-164z" />
    <glyph glyph-name="zcaron" unicode="&#x17e;" horiz-adv-x="976" 
d="M958 1012h-784l-45 -256h395l-555 -631l-22 -125h854l47 272h-445l531 596zM299 1415l2 12h270l72 -79l111 79h278l-2 -12l-346 -258h-143z" />
    <glyph glyph-name="longs" unicode="&#x17f;" horiz-adv-x="694" 
d="M422 0h-293l129 735h-182l45 258h182l10 60q18 105 68.5 187t119.5 129t144 71t152 24q154 0 252 -69l-144 -221q-32 25 -59.5 31.5t-71.5 6.5q-60 0 -106.5 -40.5t-59.5 -118.5z" />
    <glyph glyph-name="florin" unicode="&#x192;" horiz-adv-x="1064" 
d="M946 725h-280l-129 -735q-25 -143 -104 -241t-180 -135t-212.5 -24t-204.5 78l137 207q98 -61 173.5 -30t95.5 145l129 735h-252l43 248h252l14 80q16 96 53 169.5t83.5 117.5t107 72t117 38t120.5 10q81 0 143 -21t124 -65l-138 -207q-58 41 -137 41q-69 0 -117 -39
t-61 -116l-14 -80h280z" />
    <glyph glyph-name="Aringacute" unicode="&#x1fa;" horiz-adv-x="1619" 
d="M905 1110l142 -582h-494zM989 1599q47 0 72.5 -27.5t25.5 -66.5q0 -48 -37.5 -85.5t-99.5 -37.5q-48 0 -72 27t-24 66q0 48 36.5 86t98.5 38zM676 1458q0 -82 43 -131l-828 -1327h345l147 246h735l62 -246h346l-363 1333q105 87 105 209q0 73 -39 122t-92.5 68t-114.5 19
q-44 0 -89 -9t-92 -31t-83 -54t-59 -84t-23 -115zM1456 2007l-2 -8l-301 -197h-268l2 10l211 195h358z" />
    <glyph glyph-name="aringacute" unicode="&#x1fb;" horiz-adv-x="1312" 
d="M952 895q-26 62 -102.5 100.5t-171.5 38.5q-127 1 -242.5 -42t-202.5 -122t-138.5 -198.5t-51.5 -261.5q0 -203 119.5 -319t320.5 -114q86 2 182.5 39.5t155.5 110.5l-6 -127h266q29 168 89 506t90 506h-277zM662 774q110 0 167.5 -66t57.5 -165q0 -118 -93 -210.5
t-227 -92.5q-100 0 -161.5 59t-61.5 160q0 141 94 228t224 87zM530 1276q0 -47 20 -82.5t53.5 -55t72.5 -29t82 -9.5q71 0 136.5 26t113 85t47.5 139q0 89 -61.5 132.5t-153.5 43.5q-56 0 -108.5 -14t-99 -42.5t-74.5 -78.5t-28 -115zM811 1401q41 0 63.5 -22.5t22.5 -53.5
q0 -37 -33 -67.5t-88 -30.5q-41 0 -63.5 21t-22.5 52q0 39 33 70t88 31zM1229 1808l-2 -10l-277 -196h-245l2 8l192 198h330z" />
    <glyph glyph-name="AEacute" unicode="&#x1fc;" horiz-adv-x="1839" 
d="M1645 0l49 283h-551l55 307h483l48 270h-484l51 295h519l49 279h-895l-1119 -1434h373l168 223h455l-39 -223h838zM895 504h-291l395 520zM1673 1851l-2 -10l-297 -272h-266l2 14l209 268h354z" />
    <glyph glyph-name="aeacute" unicode="&#x1fd;" horiz-adv-x="1974" 
d="M1126 420h750q71 196 37.5 333.5t-136 212t-245.5 74.5q-92 0 -187 -31.5t-167 -101.5l18 103h-221l-31 -115q-37 67 -112 103t-170 36q-92 0 -181 -26t-168.5 -79.5t-140 -128.5t-96 -180t-35.5 -227q0 -209 116.5 -313.5t321.5 -102.5q87 0 188 39t144 111l-20 -127
h215l30 109q38 -71 117.5 -106.5t173.5 -35.5q266 0 434 154l-125 188q-51 -38 -123.5 -61t-140.5 -23q-100 0 -170 51t-76 144zM662 776q143 0 200 -104q49 -89 14 -205q-35 -118 -135 -183q-79 -51 -176 -51q-99 0 -160 60t-61 164q0 145 93 232t225 87zM1171 637
q45 71 123.5 110t180.5 39q74 0 121 -38t46 -111h-471zM1491 1434l-2 -13l-266 -264h-238l2 12l187 265h317z" />
    <glyph glyph-name="Oslashacute" unicode="&#x1fe;" horiz-adv-x="1642" 
d="M1432 1909l-2 -13l-289 -288h-258l2 14l202 287h345zM975 1464q-164 0 -308.5 -52t-249 -140t-180.5 -202t-113.5 -240t-37.5 -252q0 -124 34.5 -238t102.5 -193l-229 -290h305l125 157q119 -49 287 -49q149 0 280 42t228 113t172.5 166.5t121.5 201.5t68 219
q32 167 -5 323t-142 264l217 277h-308l-116 -146q-125 39 -252 39zM762 256q-69 0 -137 14l600 762q81 -134 41 -332q-14 -66 -38.5 -126.5t-66.5 -119.5t-96.5 -102t-132.5 -69.5t-170 -26.5zM926 1176q26 0 100 -9l-594 -747q-26 77 -26 192q0 76 19.5 154t62 152t102 131
t147 92t189.5 35z" />
    <glyph glyph-name="oslashacute" unicode="&#x1ff;" horiz-adv-x="1243" 
d="M1081 1452l-2 -10l-260 -260h-231l2 12l182 258h309zM512 -23q143 0 266.5 47.5t208.5 129.5t133.5 194.5t48.5 239.5q0 98 -31.5 183.5t-90.5 141.5l165 215h-258l-88 -114q-80 22 -168 22q-186 0 -337 -82.5t-235.5 -224.5t-84.5 -313q0 -98 32 -182.5t91 -139.5
l-158 -207h258l84 111q70 -21 164 -21zM651 770q19 0 29 -2l-318 -414q-16 39 -16 105q0 54 20 108t56.5 100t96.5 74.5t132 28.5zM557 240h-25l316 411q16 -39 16 -104q0 -55 -19 -108.5t-55.5 -98.5t-97 -72.5t-135.5 -27.5z" />
    <glyph glyph-name="Scommaaccent" unicode="&#x218;" horiz-adv-x="1323" 
d="M1288 1286l-215 -192q-47 57 -131 85.5t-174 28.5q-119 0 -203 -49.5t-84 -132.5q0 -40 19.5 -67t60 -42.5t86 -23.5t115.5 -14q79 -7 146 -24t129.5 -48t106 -74.5t69.5 -108t26 -143.5q0 -112 -37.5 -202t-102 -150t-154 -100t-188 -57.5t-210.5 -18.5
q-178 -2 -327.5 61.5t-223.5 184.5l205 239q62 -95 172 -143.5t227 -48.5q141 0 230.5 53t89.5 145q0 71 -62 106.5t-196 51.5q-94 11 -168 28.5t-144 52t-112.5 83t-61.5 124t-4 171.5q19 103 80.5 185.5t150 133.5t194 78t218.5 27q164 0 273 -43.5t200 -155.5zM743 -256
q0 -34 -17 -79t-37 -79t-57 -94.5t-57 -95.5h-169l73 205q-54 8 -80 37t-16 79q14 71 75 110.5t134 39.5q63 0 107 -33t44 -90z" />
    <glyph glyph-name="scommaaccent" unicode="&#x219;" horiz-adv-x="1015" 
d="M963 909l-179 -184q-92 74 -227 74q-76 0 -119 -26.5t-43 -70.5q0 -72 135 -75q67 -2 121 -10t111 -30t92.5 -57t53 -96t3.5 -141q-11 -64 -45 -121.5t-93 -105.5t-152 -76.5t-209 -28.5q-128 0 -235.5 36.5t-209.5 135.5l164 209q128 -123 330 -127q70 -2 119 25t49 73
q0 73 -158 78q-69 2 -131 18t-118 47t-89 86t-33 128q0 75 28.5 138t77 105t113 71.5t134.5 42.5t145 13q237 0 365 -131zM567 -244q0 -32 -14.5 -72.5t-32 -72t-49.5 -86.5t-49 -88h-148l66 188q-47 6 -70 34t-16 73q13 64 66 99.5t116 35.5q55 0 93 -29.5t38 -81.5z" />
    <glyph glyph-name="uni021A" unicode="&#x21a;" horiz-adv-x="1257" 
d="M362 0l203 1149h-436l51 285h1190l-51 -285h-436l-203 -1149h-318zM639 -225q0 -45 -20 -96.5t-69 -140.5t-65 -122h-155l67 211q-49 8 -73 38.5t-15 80.5q13 74 69 114t124 40q57 0 97 -33t40 -92z" />
    <glyph glyph-name="uni021B" unicode="&#x21b;" horiz-adv-x="843" 
d="M334 1255l299 33l-49 -282h256l-43 -246h-258l-68 -381q-12 -73 15.5 -104t76.5 -31q71 0 127 24l25 -245q-112 -41 -221 -46q-69 -3 -123 8t-99.5 38.5t-70 75t-33 117t9.5 163.5l68 381h-180l43 246h180zM504 -240q0 -45 -20 -96.5t-68.5 -139.5t-65.5 -122h-155
l67 211q-49 8 -73 38.5t-15 80.5q13 74 68.5 113.5t124.5 39.5q57 0 97 -33t40 -92z" />
    <glyph glyph-name="dotlessj" unicode="&#x237;" horiz-adv-x="542" 
d="M197 1014h292l-194 -1106q-39 -219 -146 -318.5t-282 -99.5q-129 0 -225 72l137 213q63 -28 108 -25q89 9 115 158z" />
    <glyph glyph-name="circumflex" unicode="&#x2c6;" horiz-adv-x="923" 
d="M635 1473h153l254 -287l-2 -10h-286l-82 86l-109 -86h-289l2 10z" />
    <glyph glyph-name="caron" unicode="&#x2c7;" horiz-adv-x="888" 
d="M301 1421l2 13h287l78 -88l116 88h297l-2 -13l-368 -286h-154z" />
    <glyph glyph-name="breve" unicode="&#x2d8;" horiz-adv-x="831" 
d="M752 1432h235q-20 -145 -125.5 -232.5t-253.5 -87.5q-74 0 -133 20t-99 59.5t-51 99.5t11 141h237q-9 -50 17 -70.5t59 -20.5q87 0 103 91z" />
    <glyph glyph-name="dotaccent" unicode="&#x2d9;" horiz-adv-x="565" 
d="M346 1268q0 88 60 138t137 50q63 0 104 -35t41 -100q0 -86 -62 -136t-139 -50q-61 0 -101 34.5t-40 98.5z" />
    <glyph glyph-name="ring" unicode="&#x2da;" horiz-adv-x="874" 
d="M344 1155q0 64 21 117t56 87.5t81 58.5t94 34t98 10q104 0 174 -54t70 -163q0 -60 -20.5 -111t-54.5 -86t-78 -60t-90.5 -36.5t-92.5 -11.5q-68 0 -123.5 19.5t-95 69.5t-39.5 126zM662 1309q-62 0 -100 -38t-38 -85q0 -38 26 -64t73 -26q62 0 99.5 37t37.5 84
q0 38 -25.5 65t-72.5 27z" />
    <glyph glyph-name="ogonek" unicode="&#x2db;" horiz-adv-x="798" 
d="M463 -319l123 -123q-99 -116 -262 -123q-103 -3 -181 38.5t-98 137.5q-7 32 1 77t36 98.5t82.5 92t140 58t209.5 -2.5l8 -118q-10 5 -38.5 5.5t-65 -5t-70 -17.5t-55.5 -37.5t-19 -60.5t39 -47t78.5 -2.5t71.5 29.5z" />
    <glyph glyph-name="tilde" unicode="&#x2dc;" horiz-adv-x="856" 
d="M459 1319l-156 102q149 232 330 185q23 -6 55.5 -22.5t55 -27t48.5 -14.5t49 12t44 54l166 -90q-78 -129 -155.5 -172.5t-162.5 -12.5q-22 8 -52 22.5t-49 24t-44 15.5t-44 1.5t-41.5 -23.5t-43.5 -54z" />
    <glyph glyph-name="hungarumlaut" unicode="&#x2dd;" horiz-adv-x="911" 
d="M889 1436h303l-2 -11l-295 -295h-264zM487 1438h304l-3 -11l-266 -294h-276z" />
    <glyph glyph-name="_375" unicode="&#x394;" horiz-adv-x="1626" 
d="M1602 63l-11 -63h-1573l13 74l850 1360h348zM999 1118l-512 -842h727z" />
    <glyph glyph-name="_376" unicode="&#x3a9;" horiz-adv-x="1691" 
d="M1053 1176q-106 0 -198.5 -39.5t-155.5 -104t-104.5 -141t-57.5 -156.5q-29 -142 23 -267t177 -183l-51 -285h-553l47 272h197q-82 66 -120 165t-38 210q0 169 74 321.5t195.5 260.5t283 171.5t332.5 63.5q184 0 328.5 -78t224.5 -217t80 -313q0 -168 -79 -321t-247 -263
h197l-47 -272h-555l51 285q143 58 239 183.5t117 266.5q11 52 6 104.5t-18.5 101.5t-44 92t-71.5 74.5t-100.5 50t-131.5 18.5z" />
    <glyph glyph-name="pi" unicode="&#x3c0;" horiz-adv-x="1374" 
d="M432 0h-293l133 752h-200l45 258h1257l-45 -258h-201l-75 -428q-11 -68 21 -93.5t122 -3.5l-12 -233q-240 -45 -350.5 31t-73.5 294l76 433h-271z" />
    <glyph glyph-name="Wgrave" unicode="&#x1e80;" horiz-adv-x="2199" 
d="M2331 1434l-772 -1432h-263l-166 801l-438 -801h-262l-283 1432h359l92 -490l47 -463l490 953h208l168 -953l205 461l256 492h359zM967 1849l2 13h372l109 -267l-2 -12h-281z" />
    <glyph glyph-name="wgrave" unicode="&#x1e81;" horiz-adv-x="1732" 
d="M819 1012h232l79 -645l107 229l215 416h330l-555 -1018h-293l-90 506l-269 -506h-294l-193 1018h330l67 -416l25 -229zM659 1419l3 13h335l99 -252l-2 -13h-252z" />
    <glyph glyph-name="Wacute" unicode="&#x1e82;" horiz-adv-x="2199" 
d="M1559 2l772 1432h-359l-256 -492l-205 -461l-168 953h-208l-490 -953l-47 463l-92 490h-359l283 -1432h262l438 801l166 -801h263zM1729 1864l-3 -11l-307 -272h-276l2 14l217 269h367z" />
    <glyph glyph-name="wacute" unicode="&#x1e83;" horiz-adv-x="1732" 
d="M1051 1012h-232l-309 -645l-25 229l-67 416h-330l193 -1018h294l269 506l90 -506h293l555 1018h-330l-215 -416l-107 -229zM1364 1436l-2 -13l-287 -258h-256l2 13l201 258h342z" />
    <glyph glyph-name="Wdieresis" unicode="&#x1e84;" horiz-adv-x="2199" 
d="M823 1694q0 90 60.5 140t138.5 50q57 0 95 -36t38 -99q0 -88 -60.5 -137t-138.5 -49q-59 0 -96 34t-37 97zM1438 1698q0 88 61 137t139 49q55 0 93 -36t38 -99q0 -75 -56 -130.5t-134 -55.5q-61 0 -101 36t-40 99zM1559 2l772 1432h-359l-256 -492l-205 -461l-168 953
h-208l-490 -953l-47 463l-92 490h-359l283 -1432h262l438 801l166 -801h263z" />
    <glyph glyph-name="wdieresis" unicode="&#x1e85;" horiz-adv-x="1732" 
d="M1051 1012h-232l-309 -645l-25 229l-67 416h-330l193 -1018h294l269 506l90 -506h293l555 1018h-330l-215 -416l-107 -229zM580 1272q0 85 55.5 131.5t128.5 46.5q52 0 87.5 -33t35.5 -92q0 -82 -56 -128t-129 -46q-53 0 -87.5 31.5t-34.5 89.5zM1073 1276q0 82 57 128
t130 46q52 0 86 -33t34 -92q0 -71 -52 -122.5t-124 -51.5q-56 0 -93.5 33.5t-37.5 91.5z" />
    <glyph glyph-name="Ygrave" unicode="&#x1ef2;" horiz-adv-x="1443" 
d="M506 1434l244 -570l462 570h375l-2 -17l-723 -848l-100 -569h-320l101 569l-400 848l2 17h361zM565 1853l2 11h375l111 -265l-2 -12h-283z" />
    <glyph glyph-name="ygrave" unicode="&#x1ef3;" horiz-adv-x="1257" 
d="M180 1012h295l-90 -516q-19 -108 16 -177t134 -69q101 0 184 76t102 180l90 506h293l-184 -1041q-22 -126 -78.5 -224t-136 -157t-171.5 -88.5t-194 -29.5q-100 0 -181 24t-141.5 72t-91 126.5t-26.5 182.5h276q-1 -42 16.5 -70.5t49.5 -42t64 -18t75 -4.5q84 0 161.5 61
t96.5 166l27 152q-45 -48 -86.5 -76.5t-88.5 -41.5t-84.5 -16t-100.5 -3q-180 0 -270 136.5t-48 373.5zM408 1417l2 13h346l100 -271l-2 -14h-258z" />
    <glyph glyph-name="endash" unicode="&#x2013;" horiz-adv-x="1220" 
d="M90 457l45 256h985l-45 -256h-985z" />
    <glyph glyph-name="emdash" unicode="&#x2014;" horiz-adv-x="1409" 
d="M90 463l45 256h1176l-45 -256h-1176z" />
    <glyph glyph-name="quoteleft" unicode="&#x2018;" horiz-adv-x="563" 
d="M629 1436l-189 -500h-301l262 500h228z" />
    <glyph glyph-name="quoteright" unicode="&#x2019;" horiz-adv-x="555" 
d="M154 938l188 496h301l-260 -496h-229z" />
    <glyph glyph-name="quotesinglbase" unicode="&#x201a;" horiz-adv-x="575" 
d="M-98 -276l188 495h299l-260 -495h-227z" />
    <glyph glyph-name="quotedblleft" unicode="&#x201c;" horiz-adv-x="919" 
d="M983 1432l-188 -496h-277l236 496h229zM629 1432l-209 -496h-279l258 496h230z" />
    <glyph glyph-name="quotedblright" unicode="&#x201d;" horiz-adv-x="909" 
d="M154 936l188 496h276l-235 -496h-229zM508 936l209 496h278l-258 -496h-229z" />
    <glyph glyph-name="quotedblbase" unicode="&#x201e;" horiz-adv-x="962" 
d="M-98 -276l188 495h299l-260 -495h-227zM289 -276l188 495h299l-260 -495h-227z" />
    <glyph glyph-name="dagger" unicode="&#x2020;" horiz-adv-x="1239" 
d="M928 1432l-66 -377h387l-47 -264h-387l-180 -1018h-326l180 1018h-387l48 264h387l65 377h326z" />
    <glyph glyph-name="daggerdbl" unicode="&#x2021;" horiz-adv-x="1300" 
d="M954 1432l-65 -373h389l-47 -264h-389l-74 -418h389l-45 -260h-389l-66 -369h-315l66 369h-390l45 260h390l73 418h-389l47 264h389l66 373h315z" />
    <glyph glyph-name="bullet" unicode="&#x2022;" horiz-adv-x="862" 
d="M389 369q-108 0 -175 63.5t-67 167.5q0 139 99.5 231.5t238.5 92.5q106 0 173 -65t67 -169q0 -138 -99.5 -229.5t-236.5 -91.5z" />
    <glyph glyph-name="ellipsis" unicode="&#x2026;" horiz-adv-x="1642" 
d="M23 125q0 92 60.5 143t139.5 51q59 0 100.5 -37t41.5 -102q0 -89 -61.5 -140.5t-139.5 -51.5q-60 0 -100.5 36t-40.5 101zM575 125q0 92 61.5 143t139.5 51q60 0 101 -37t41 -102q0 -89 -61.5 -140.5t-139.5 -51.5q-60 0 -101 36t-41 101zM1128 125q0 92 61.5 143
t139.5 51q60 0 100.5 -37t40.5 -102q0 -89 -61 -140.5t-139 -51.5q-60 0 -101 36t-41 101z" />
    <glyph glyph-name="perthousand" unicode="&#x2030;" horiz-adv-x="2449" 
d="M569 1442q72 0 128.5 -23t91 -62.5t52 -88.5t17.5 -103q0 -69 -27.5 -136.5t-77.5 -122t-128 -88.5t-170 -34q-142 0 -215.5 80t-73.5 197q0 69 27.5 136.5t77 122t127.5 88.5t171 34zM1300 1432h322l-1190 -1434h-326zM1280 643q140 0 213.5 -80.5t73.5 -195.5
q0 -69 -27.5 -136.5t-77.5 -122t-128.5 -88.5t-170.5 -34q-95 0 -161.5 40.5t-95.5 101.5t-29 136q0 69 27.5 136t77.5 121.5t128 88t170 33.5zM1241 430q-59 0 -98 -41.5t-39 -93.5q0 -40 25.5 -68t70.5 -28q63 0 99 40t36 95q0 40 -24 68t-70 28zM532 1233q-63 0 -101 -42
t-38 -95q0 -41 25.5 -70t73.5 -29q63 0 100 41.5t37 96.5q0 42 -24.5 70t-72.5 28zM2050 643q140 0 213.5 -80.5t73.5 -195.5q0 -69 -27.5 -136.5t-77.5 -122t-128.5 -88.5t-170.5 -34q-95 0 -161.5 40.5t-95.5 101.5t-29 136q0 69 27.5 136t77.5 121.5t128 88t170 33.5z
M2011 430q-59 0 -98 -41.5t-39 -93.5q0 -40 25.5 -68t70.5 -28q63 0 99 40t36 95q0 40 -24 68t-70 28z" />
    <glyph glyph-name="guilsinglleft" unicode="&#x2039;" horiz-adv-x="731" 
d="M63 604l365 455h313v2l-364 -457q16 -36 61.5 -141.5t78 -176.5t65.5 -139h-314z" />
    <glyph glyph-name="guilsinglright" unicode="&#x203a;" horiz-adv-x="733" 
d="M467 1069l205 -455l-365 -454h-313l362 454l-202 457v-2h313z" />
    <glyph glyph-name="fraction" unicode="&#x2044;" horiz-adv-x="350" 
d="M602 1450h248l-1061 -1460h-248z" />
    <glyph glyph-name="zerosuperior" unicode="&#x2070;" horiz-adv-x="835" 
d="M412 1389l-21 -115q-16 -89 49 -126q57 -32 129 -6q77 28 103 102l8 30l20 115q16 90 -49 129q-57 33 -128 8q-76 -28 -103 -104q-5 -16 -8 -33zM190 1278l21 113q31 172 174 265q121 78 263 68q137 -11 208.5 -101t46.5 -232l-20 -113q-32 -175 -175 -270
q-121 -79 -261 -69q-137 11 -209 102q-74 92 -48 237z" />
    <glyph glyph-name="foursuperior" unicode="&#x2074;" horiz-adv-x="821" 
d="M586 1714h266l-80 -459h92l-30 -174h-93l-22 -125h-205l23 125h-396l23 176zM567 1255l45 261l-239 -261h194z" />
    <glyph glyph-name="fivesuperior" unicode="&#x2075;" horiz-adv-x="774" 
d="M858 1704l-31 -176h-376l-17 -90h111q276 0 276 -205q0 -67 -23 -121.5t-60 -89.5t-85.5 -58.5t-97.5 -33.5t-98 -10q-143 0 -218 62t-53 192h207q-3 -40 24.5 -61t69.5 -21q49 0 85 29t36 77q0 35 -26.5 53.5t-65.5 18.5h-303q67 383 76 434h569z" />
    <glyph glyph-name="sixsuperior" unicode="&#x2076;" horiz-adv-x="786" 
d="M618 1206q0 34 -29 52t-71 18q-51 0 -89 -23t-38 -67q0 -31 29 -49.5t69 -18.5q50 0 89.5 24t39.5 64zM860 1495h-192q2 44 -51 59t-110 -5.5t-65 -63.5l-14 -82q55 30 124 36t131 -11t104 -67.5t42 -125.5q0 -59 -22 -108.5t-58.5 -83t-85 -57t-100 -34t-104.5 -10.5
q-82 0 -148 28t-103 88t-22 140l52 287q14 78 70.5 134t130.5 80.5t157 24.5q133 0 206.5 -56t57.5 -173z" />
    <glyph glyph-name="sevensuperior" unicode="&#x2077;" horiz-adv-x="673" 
d="M393 948h-229l373 570h-320l33 188h579l-6 -84z" />
    <glyph glyph-name="eightsuperior" unicode="&#x2078;" horiz-adv-x="806" 
d="M375 1161q-8 -30 19.5 -57t97.5 -27q67 0 102 26t39 58q6 33 -26 56.5t-85 23.5q-58 0 -99.5 -21.5t-47.5 -58.5zM166 1163q7 39 46 86t95 72q-31 16 -49 53.5t-18 73.5q0 118 101.5 188t254.5 70q122 0 200 -54.5t78 -152.5q0 -114 -120 -170q42 -21 64 -61.5t22 -83.5
q0 -73 -32.5 -128t-87.5 -87t-122 -47t-143 -13q-68 0 -124.5 13.5t-99.5 42.5t-61 79.5t-4 118.5zM547 1391q55 0 86 23.5t31 55.5q0 27 -25.5 47.5t-69.5 20.5q-55 0 -87.5 -24.5t-32.5 -57.5q0 -27 25 -46t73 -19z" />
    <glyph glyph-name="ninesuperior" unicode="&#x2079;" horiz-adv-x="790" 
d="M430 1462q0 -33 28.5 -51t71.5 -18q50 0 88.5 23t38.5 67q0 31 -29 49t-69 18q-50 0 -89.5 -24t-39.5 -64zM178 1174h197q-2 -44 52.5 -59t112.5 5.5t66 63.5l15 82q-55 -30 -125 -36t-132 11t-104.5 67.5t-42.5 125.5q0 59 22 108t59 82.5t85.5 57t100 34t104.5 10.5
q82 0 148 -28t102.5 -88t21.5 -140l-51 -286q-21 -116 -124.5 -180t-231.5 -64q-67 0 -119.5 13t-91.5 40t-56 73t-8 108z" />
    <glyph glyph-name="zeroinferior" unicode="&#x2080;" horiz-adv-x="833" 
d="M209 262l-19 -115q-14 -87 51 -125q58 -32 130 -6q76 28 101 103q5 13 7 28l19 115q15 90 -49 129q-56 34 -128 8q-76 -27 -104 -106q-5 -15 -8 -31zM-10 154l20 110q32 172 176 266q121 78 262 67q138 -10 209 -101t45 -232l-20 -110q-32 -176 -176 -271
q-120 -80 -260 -69q-136 10 -208 101q-74 93 -48 239z" />
    <glyph glyph-name="oneinferior" unicode="&#x2081;" horiz-adv-x="579" 
d="M-66 -170l31 170h127l64 360l-111 -22l31 172l325 82l-104 -592h131l-31 -170h-463z" />
    <glyph glyph-name="twoinferior" unicode="&#x2082;" horiz-adv-x="772" 
d="M236 369h-201q22 111 123 175t223 64q126 0 202 -54t76 -157q0 -64 -20 -112t-53.5 -76t-76 -48.5t-87.5 -30.5t-89.5 -21t-80 -21t-59.5 -28.5t-29 -45.5h424l-33 -184h-618l34 197q11 62 43 106.5t74.5 68t91.5 39t96 25.5t85 20.5t61.5 29.5t23.5 49q0 31 -29 47
t-65 15.5t-71 -16t-45 -42.5z" />
    <glyph glyph-name="threeinferior" unicode="&#x2083;" horiz-adv-x="782" 
d="M305 147h-119l29 154h111q64 0 95.5 22.5t31.5 57.5q0 27 -28.5 44t-74.5 19t-84.5 -14t-48.5 -47h-182q10 59 46 105t86.5 72.5t106 40t111.5 13.5q70 0 130.5 -22t102 -71.5t41.5 -117.5q0 -128 -127 -180q40 -13 64.5 -52.5t24.5 -86.5q0 -61 -24 -109t-61.5 -77
t-88.5 -47.5t-100 -25.5t-101 -7q-57 0 -110 14t-96.5 41.5t-65 75t-11.5 108.5h215q-3 -57 98 -57q51 0 91.5 22t40.5 62q0 30 -27 46.5t-76 16.5z" />
    <glyph glyph-name="fourinferior" unicode="&#x2084;" horiz-adv-x="819" 
d="M385 586h266l-80 -459h93l-31 -174h-92l-23 -125h-205l23 125h-395l22 176zM367 127l45 260l-240 -260h195z" />
    <glyph glyph-name="fiveinferior" unicode="&#x2085;" horiz-adv-x="772" 
d="M659 596l-30 -176h-377l-16 -90h110q277 0 277 -205q0 -83 -34.5 -146.5t-90.5 -98t-116.5 -51.5t-123.5 -17q-143 0 -217.5 62t-52.5 192h207q-3 -40 24.5 -61t69.5 -21q49 0 85 29t36 77q0 35 -27 53.5t-66 18.5h-303q67 383 76 434h569z" />
    <glyph glyph-name="sixinferior" unicode="&#x2086;" horiz-adv-x="784" 
d="M420 92q0 34 -29 52t-72 18q-51 0 -88.5 -23t-37.5 -67q0 -31 29 -49.5t69 -18.5q50 0 89.5 24t39.5 64zM662 381h-193q2 44 -51 59t-109.5 -5.5t-64.5 -63.5l-15 -82q55 30 124 36t131 -11t104.5 -68t42.5 -125q0 -73 -33.5 -131t-88 -92t-118.5 -52t-131 -18
q-82 0 -148 28t-102.5 88t-21.5 140l51 287q14 78 70.5 134t130.5 80.5t157 24.5q134 0 207.5 -56t57.5 -173z" />
    <glyph glyph-name="seveninferior" unicode="&#x2087;" horiz-adv-x="671" 
d="M195 -170h-230l373 569h-320l33 189h580l-6 -84z" />
    <glyph glyph-name="eightinferior" unicode="&#x2088;" horiz-adv-x="806" 
d="M180 63q-8 -30 19.5 -56.5t97.5 -26.5q67 0 102 25.5t39 57.5q6 33 -25.5 56.5t-84.5 23.5q-58 0 -100 -21.5t-48 -58.5zM-29 66q7 39 46.5 85.5t95.5 71.5q-31 16 -49.5 53.5t-18.5 73.5q0 118 101.5 188t254.5 70q122 0 200.5 -54.5t78.5 -152.5q0 -113 -119 -170
q40 -21 62 -61.5t22 -83.5q0 -96 -57 -160.5t-141 -90t-187 -23.5q-68 0 -124.5 13.5t-99.5 42.5t-61 79.5t-4 118.5zM352 293q55 0 86 24t31 56q0 27 -25 47t-69 20q-56 0 -88.5 -24.5t-32.5 -57.5q0 -27 25 -46t73 -19z" />
    <glyph glyph-name="nineinferior" unicode="&#x2089;" horiz-adv-x="788" 
d="M233 338q0 -34 29 -52t72 -18q50 0 88.5 23t38.5 67q0 31 -29.5 49.5t-69.5 18.5q-50 0 -89.5 -24t-39.5 -64zM-18 49h196q-2 -44 52.5 -59t113 5.5t66.5 63.5l14 82q-55 -30 -125 -36t-132 11t-104.5 67.5t-42.5 125.5q0 73 33.5 131t88.5 92t119 52t130 18
q82 0 148 -28t103 -88t22 -140l-52 -287q-21 -116 -124 -179.5t-232 -63.5q-67 0 -119.5 13t-91 39.5t-55.5 72.5t-8 108z" />
    <glyph glyph-name="Euro" unicode="&#x20ac;" horiz-adv-x="1290" 
d="M61 432l39 223h123l8 52q11 56 13 63h-123l41 227h170q111 211 313.5 340t478.5 129q127 0 222 -34l-136 -269q-70 19 -135 19q-125 0 -229 -49t-176 -136h403l-90 -227h-434q-14 -55 -17 -70q0 -3 -3 -20t-3 -25h400l-84 -223h-281q29 -53 76.5 -92t99.5 -57.5
t94.5 -26.5t77.5 -8q81 0 160 26l43 -276q-121 -31 -252 -31q-284 0 -446.5 121.5t-192.5 343.5h-160z" />
    <glyph glyph-name="afii61289" unicode="&#x2113;" horiz-adv-x="802" 
d="M387 496l-35 -195q-17 -90 54 -126t190 -9l-27 -141q-83 -26 -152.5 -31.5t-127 10t-93 56t-49 108.5t4.5 166l-109 -49l-12 94q70 27 137 61l121 682q33 187 116 264.5t263 77.5q276 0 155 -395q-46 -159 -163 -305t-273 -268zM492 1122q-1 -8 -89 -485q268 255 326 450
q8 28 13.5 48t11.5 50.5t6.5 52t-4 46t-16.5 39.5t-34 25t-53 10q-58 0 -101 -70.5t-60 -165.5z" />
    <glyph glyph-name="uni2117" unicode="&#x2117;" horiz-adv-x="1671" 
d="M987 1468q151 0 271.5 -48.5t197 -133.5t116.5 -197.5t40 -242.5q0 -171 -64 -328.5t-177 -278.5t-282 -193.5t-366 -72.5q-150 0 -270 48.5t-195.5 134t-115.5 197.5t-40 243q0 170 63.5 328t176.5 278.5t281 193t364 72.5zM330 625q0 -202 111.5 -328.5t316.5 -126.5
q139 0 256.5 52.5t197 141.5t124 207.5t44.5 249.5q0 129 -47 229.5t-145.5 161t-235.5 60.5q-111 0 -210 -34.5t-173 -96t-128.5 -142.5t-82.5 -177t-28 -197zM772 547h135q162 0 263 110q79 87 81 197q1 111 -82 172q-65 47 -168 47h-348l-129 -729h211zM831 881h138
q50 0 64 -44q13 -42 -17 -78q-27 -32 -74 -32h-139z" />
    <glyph glyph-name="trademark" unicode="&#x2122;" horiz-adv-x="1689" 
d="M647 1243l-74 -418h-217l74 418h-192l32 189h604l-32 -189h-195zM1161 1432l123 -189l186 189h216l-107 -609h-215l33 185l37 145q-32 -38 -100 -110t-83 -89h-39l-110 199l-15 -145l-32 -185h-213l106 609h213z" />
    <glyph glyph-name="Omega" unicode="&#x2126;" horiz-adv-x="1716" 
d="M961 1176q-106 0 -198.5 -39.5t-156 -104t-105 -141t-57.5 -156.5q-29 -142 23.5 -267t177.5 -183l-51 -285h-574l48 272h217q-82 66 -120 165t-38 210q0 169 74 321.5t195.5 260.5t283 171.5t332.5 63.5q184 0 328.5 -78t224.5 -217t80 -313q0 -168 -79 -321t-247 -263
h213l-47 -272h-572l52 285q164 66 263 210.5t99 303.5q0 72 -21.5 137t-64 120t-115 87.5t-165.5 32.5z" />
    <glyph glyph-name="estimated" unicode="&#x212e;" horiz-adv-x="1284" 
d="M553 -14q-203 0 -329 127.5t-126 357.5q0 171 55 311t148 230t213 139t252 49q67 0 125.5 -10.5t112.5 -34t95.5 -59t70.5 -88.5t42 -120t7 -156t-33 -193h-824l-61 -349q99 -108 270 -108q126 0 229.5 44t192.5 146l66 -59q-110 -125 -232.5 -176t-273.5 -51zM750 1104
q-182 0 -304 -94l-67 -375h579l68 381q-98 88 -276 88z" />
    <glyph glyph-name="onethird" unicode="&#x2153;" horiz-adv-x="1669" 
d="M102 670l29 164h127l66 366l-111 -22l31 172l325 82l-106 -598h131l-29 -164h-463zM1210 313h-116l28 154h109q65 0 90 11.5t33 56.5q6 34 -21.5 55.5t-70.5 21.5q-101 0 -138 -63h-182q10 59 46 104.5t86.5 72t105.5 39.5t110 13q111 0 194 -54t83 -155
q0 -58 -36 -113.5t-95 -66.5q47 -14 72.5 -51.5t25.5 -81.5q0 -57 -25 -104t-65.5 -77.5t-92.5 -51.5t-104 -30t-102 -9q-56 0 -107.5 14t-94 41.5t-63 75t-10.5 108.5h207q2 -61 105 -61q48 0 89.5 24t41.5 60q0 27 -27 47t-76 20zM1227 1450h231l-1067 -1460h-225z" />
    <glyph glyph-name="twothirds" unicode="&#x2154;" horiz-adv-x="1826" 
d="M1386 1450h230l-1065 -1460h-225zM401 1214h-200q22 111 123 175.5t223 64.5q126 0 202 -54t76 -157q0 -64 -20 -112t-53.5 -76t-76 -48.5t-87.5 -30.5t-89.5 -21t-80 -21t-59.5 -28.5t-29 -45.5h424l-33 -184h-619l35 196q11 62 43 106.5t74.5 68t91.5 39t96 25.5
t85 20.5t61.5 29.5t23.5 49q0 31 -29 47t-65.5 15.5t-71.5 -16t-45 -42.5zM1370 313h-117l27 154h109q65 0 90.5 11.5t33.5 56.5q6 34 -21.5 55.5t-70.5 21.5q-102 0 -139 -63h-182q10 59 46.5 104.5t87 72t106 39.5t110.5 13q111 0 193.5 -54t82.5 -155q0 -58 -37 -113.5
t-96 -66.5q47 -14 73 -51.5t26 -81.5q0 -70 -37.5 -125t-97 -85.5t-124.5 -46t-130 -15.5q-56 0 -107.5 14t-94 41.5t-63 75t-10.5 108.5h207q5 -61 106 -61q48 0 90 24t42 60q0 27 -27 47t-76 20z" />
    <glyph glyph-name="oneeighth" unicode="&#x215b;" horiz-adv-x="1681" 
d="M102 670l33 180h127l62 350l-111 -22l31 172l325 82l-102 -582h131l-33 -180h-463zM1217 1450h227l-1067 -1460h-221zM1079 229q-8 -30 19.5 -57t97.5 -27q67 0 102 26t39 58q6 33 -25.5 56.5t-84.5 23.5q-58 0 -100 -21.5t-48 -58.5zM870 231q7 39 46.5 86t95.5 72
q-31 16 -49.5 53.5t-18.5 73.5q0 118 101.5 188t254.5 70q122 0 200.5 -54.5t78.5 -152.5q0 -113 -119 -170q40 -21 62 -61.5t22 -83.5q0 -73 -32.5 -128t-87.5 -87t-122 -47t-143 -13q-68 0 -124.5 13.5t-99.5 42.5t-61 79.5t-4 118.5zM1251 459q56 0 86.5 24t30.5 56
q0 27 -24.5 47t-67.5 20q-57 0 -90 -24.5t-33 -57.5q0 -27 25 -46t73 -19z" />
    <glyph glyph-name="threeeighths" unicode="&#x215c;" horiz-adv-x="1841" 
d="M1362 1450h229l-1063 -1460h-223zM1237 227q0 -30 28 -52.5t91 -22.5q67 0 102 27t37 59q6 31 -25 54t-84 23q-62 0 -105.5 -24t-43.5 -64zM1034 238q9 42 42.5 87.5t88.5 69.5q-29 16 -43 50.5t-14 70.5q0 122 101 193t253 71q123 0 202 -54.5t79 -152.5
q0 -119 -111 -170q39 -20 56.5 -59.5t17.5 -81.5q0 -97 -57 -162t-141 -91t-187 -25q-68 0 -123.5 13.5t-98.5 42.5t-61 79.5t-4 118.5zM1309 528q0 -61 102 -61q101 0 117 70q7 33 -20.5 54t-75.5 21q-51 0 -87 -24t-36 -60zM467 985h-117l29 154h108q66 0 90.5 11.5
t32.5 55.5q6 34 -21.5 56t-70.5 22q-100 0 -137 -63h-182q10 59 46 104.5t86.5 72t105.5 39.5t110 13q111 0 193.5 -54t82.5 -155q0 -58 -36 -113.5t-95 -66.5q47 -14 73 -51.5t26 -81.5q0 -70 -38 -125t-98 -86t-125 -46.5t-129 -15.5q-56 0 -107.5 14t-93.5 41.5
t-62.5 75.5t-10.5 109h207q2 -61 104 -61q48 0 89.5 24t41.5 60q0 27 -26.5 47t-75.5 20z" />
    <glyph glyph-name="fiveeighths" unicode="&#x215d;" horiz-adv-x="1855" 
d="M1372 1450h230l-1065 -1460h-224zM1251 227q0 -30 27 -52.5t90 -22.5q67 0 103 27t38 59q5 32 -26 54.5t-84 22.5q-61 0 -104.5 -24t-43.5 -64zM1049 238q9 43 42 88t87 69q-27 16 -41.5 50.5t-14.5 70.5q0 122 101 193t252 71q124 0 203 -54.5t79 -152.5
q0 -119 -110 -170q39 -20 56 -59.5t17 -81.5q0 -97 -57 -162t-141 -91t-187 -25q-68 0 -123.5 13.5t-98.5 42.5t-60.5 79.5t-3.5 118.5zM1323 528q0 -61 100 -61q103 0 119 70q7 33 -20.5 54t-75.5 21q-52 0 -87.5 -24t-35.5 -60zM807 1434l-31 -177h-377l-16 -90h111
q56 0 102 -10t86.5 -33t63 -65.5t22.5 -102.5q0 -83 -34 -145.5t-89.5 -96t-115.5 -49.5t-123 -16q-143 0 -218 62t-53 192h207q-3 -40 24.5 -61t69.5 -21q49 0 85 29.5t36 77.5q0 35 -26 53t-66 18h-303q3 15 32 183t44 252h569z" />
    <glyph glyph-name="seveneighths" unicode="&#x215e;" horiz-adv-x="1658" 
d="M1149 1450h227l-1065 -1460h-223zM1053 227q0 -30 27 -52.5t89 -22.5q67 0 102.5 27t39.5 59q6 31 -26 54t-85 23q-62 0 -104.5 -24t-42.5 -64zM848 238q9 42 42.5 87.5t88.5 69.5q-29 16 -43 50.5t-14 70.5q0 122 102 193t254 71q122 0 200 -54.5t78 -152.5
q0 -122 -108 -170q39 -20 57.5 -60.5t18.5 -80.5q0 -97 -57.5 -162t-142 -91t-187.5 -25q-68 0 -124.5 13.5t-99.5 42.5t-61 79.5t-4 118.5zM1124 530q0 -63 101 -63q102 0 118 70q7 33 -19.5 54t-74.5 21q-52 0 -88.5 -23.5t-36.5 -58.5zM348 674h-209l377 581h-319l30 177
h578l-6 -84z" />
    <glyph glyph-name="arrowleft" unicode="&#x2190;" horiz-adv-x="1292" 
d="M494 219l-412 498l590 495l127 -145l-264 -225h694l-45 -256h-697l175 -234z" />
    <glyph glyph-name="arrowup" unicode="&#x2191;" horiz-adv-x="1122" 
d="M100 803l586 500l408 -502l-172 -154l-187 225l-123 -694h-256l123 696l-270 -215z" />
    <glyph glyph-name="arrowright" unicode="&#x2192;" horiz-adv-x="1292" 
d="M840 1214l409 -495l-587 -496l-127 146l262 223h-695l45 258h699l-176 233z" />
    <glyph glyph-name="arrowdown" unicode="&#x2193;" horiz-adv-x="1120" 
d="M1063 643l-584 -500l-407 502l170 154l186 -224l123 695h258l-123 -699l270 217z" />
    <glyph glyph-name="uni2196" unicode="&#x2196;" horiz-adv-x="1073" 
d="M88 403l125 705l700 -4l-28 -209l-318 -2l406 -492l-217 -180l-404 492l-69 -318z" />
    <glyph glyph-name="uni2197" unicode="&#x2197;" horiz-adv-x="1073" 
d="M291 909l43 195h702q-21 -117 -62.5 -352t-62.5 -351l-211 -8q9 53 27 160t27 160l-580 -492l-147 185l577 491z" />
    <glyph glyph-name="uni2198" unicode="&#x2198;" horiz-adv-x="1138" 
d="M201 313l26 195l320 12l-406 492l213 184l406 -491q9 53 28.5 159.5t28.5 159.5l207 -8q-19 -109 -58 -344.5t-61 -358.5h-704z" />
    <glyph glyph-name="uni2199" unicode="&#x2199;" horiz-adv-x="1140" 
d="M879 508l-43 -195h-703q17 96 59.5 334.5t65.5 368.5l213 8q-10 -53 -27.5 -159.5t-27.5 -159.5l579 491l148 -184l-578 -492z" />
    <glyph glyph-name="partialdiff" unicode="&#x2202;" horiz-adv-x="1187" 
d="M1098 512q-47 -244 -203.5 -386t-409.5 -142q-111 0 -197.5 35t-139.5 95t-80 135t-27 161q0 124 48 235.5t151 199.5t245 124q230 40 328 -41q-35 84 -114 147.5t-162 94.5t-170 44l88 224q133 -10 248.5 -62t199 -137t139 -199t68.5 -247t-12 -281zM530 244
q105 0 177.5 68t99.5 177q26 103 -28.5 172.5t-162.5 69.5q-118 0 -197 -86.5t-79 -193.5q0 -86 50 -146.5t140 -60.5z" />
    <glyph glyph-name="Delta" unicode="&#x2206;" horiz-adv-x="1693" 
d="M1538 63l-10 -63h-1573l12 74l850 1360h348zM936 1118l-512 -842h727z" />
    <glyph glyph-name="product" unicode="&#x220f;" horiz-adv-x="1419" 
d="M1081 -393h-297l273 1548h-494l-272 -1548h-305l321 1827h1096z" />
    <glyph glyph-name="summation" unicode="&#x2211;" horiz-adv-x="1239" 
d="M834 754l-404 -459h647l-51 -295h-1046l32 188l486 557l-273 535l27 154h1014l-49 -279h-592z" />
    <glyph glyph-name="minus" unicode="&#x2212;" horiz-adv-x="1077" 
d="M102 436l48 269h811l-48 -269h-811z" />
    <glyph glyph-name="uni2215" unicode="&#x2215;" horiz-adv-x="1007" 
d="M932 1450h248l-1061 -1460h-248z" />
    <glyph glyph-name="uni2219" unicode="&#x2219;" horiz-adv-x="567" 
d="M109 616q0 97 66.5 152t150.5 55q63 0 103 -37.5t40 -105.5q0 -96 -64.5 -151.5t-146.5 -55.5q-63 0 -106 37.5t-43 105.5z" />
    <glyph glyph-name="radical" unicode="&#x221a;" horiz-adv-x="1257" 
d="M1386 1427l-720 -1427h-201l-225 629l-158 -60l-41 174l416 175l186 -609l590 1166z" />
    <glyph glyph-name="infinity" unicode="&#x221e;" horiz-adv-x="1527" 
d="M387 324q-141 6 -215 86t-74 194q0 70 29.5 138.5t82.5 124t134 90t176 34.5q73 0 147 -51.5t128 -130.5q84 76 180 129t166 53q100 0 170.5 -42.5t101.5 -106t31 -140.5q0 -94 -46.5 -177.5t-141 -140t-218.5 -60.5q-164 -5 -297 182q-200 -187 -354 -182zM430 545
q37 3 77.5 22t65.5 37.5t64 50.5q-4 5 -18.5 21t-19.5 21.5t-18 19t-20 19t-19.5 14.5t-22.5 12.5t-22.5 6.5t-25.5 3q-62 0 -104.5 -31.5t-53.5 -76.5q-11 -47 20 -82.5t97 -36.5zM1073 545q64 1 105 33.5t49 76.5q10 48 -19.5 82.5t-93.5 34.5q-47 0 -98 -31.5t-113 -87.5
q30 -39 80 -75.5t90 -32.5z" />
    <glyph glyph-name="integral" unicode="&#x222b;" horiz-adv-x="964" 
d="M1102 1401l-111 -242q-71 53 -141 53q-60 0 -106.5 -40.5t-59.5 -118.5l-186 -1057q-20 -112 -74.5 -209.5t-137 -160t-173.5 -62.5q-152 0 -273 59l94 250q69 -44 136 -37q52 6 86.5 48.5t46.5 111.5l186 1057q15 85 51 155t83.5 116.5t106.5 78.5t119 46.5t121 14.5
q121 0 232 -63z" />
    <glyph glyph-name="approxequal" unicode="&#x2248;" horiz-adv-x="1200" 
d="M311 655l-159 99q64 106 160.5 167t197.5 48q63 -7 163.5 -55t147.5 -56q84 -14 127 82l170 -74q-27 -75 -67 -127t-85.5 -75t-96.5 -30t-99 9q-47 12 -143 50t-144 48q-52 10 -93.5 -7t-78.5 -79zM236 225l-160 99q64 106 160.5 167t197.5 48q63 -7 163.5 -55t147.5 -56
q84 -14 127 82l170 -74q-27 -75 -67 -127t-85.5 -75t-96.5 -30t-99 9q-47 12 -142.5 50t-143.5 48q-52 10 -93.5 -7t-78.5 -79z" />
    <glyph glyph-name="notequal" unicode="&#x2260;" horiz-adv-x="1208" 
d="M88 262l47 262h340l154 219h-457l47 265h608l140 188l108 -66l-94 -122h143l-47 -265h-291l-155 -219h409l-47 -262h-559l-141 -190l-107 67l93 123h-191z" />
    <glyph glyph-name="lessequal" unicode="&#x2264;" horiz-adv-x="935" 
d="M31 147l41 238h710l-41 -238h-710zM182 897v10l570 451l143 -176l-346 -281l246 -272l-203 -176z" />
    <glyph glyph-name="greaterequal" unicode="&#x2265;" horiz-adv-x="933" 
d="M793 385l-41 -238h-711l41 238h711zM866 907v-10l-569 -444l-143 176l344 272l-248 281l207 176z" />
    <glyph glyph-name="lozenge" unicode="&#x25ca;" horiz-adv-x="1239" 
d="M1194 719l-553 -703h-246l-311 703l559 706h246zM393 719l174 -434l316 434l-162 436z" />
    <glyph glyph-name="fi" unicode="&#xfb01;" horiz-adv-x="1335" 
d="M985 1417l-127 -227q-45 22 -84 22q-60 0 -106.5 -40.5t-59.5 -118.5l-10 -60h250l-45 -256h-250l-129 -737h-295l129 737h-182l45 256h182l10 60q18 105 68.5 187t119.5 129t144 71t152 24q94 0 188 -47zM989 1014h295l-178 -1014h-295zM1012 1251q0 92 63.5 143.5
t143.5 51.5q57 0 96 -37t39 -100q0 -91 -61.5 -143t-139.5 -52q-59 0 -100 36.5t-41 100.5z" />
    <glyph glyph-name="fl" unicode="&#xfb02;" horiz-adv-x="1341" 
d="M985 1419l-127 -227q-39 20 -84 20q-60 0 -106.5 -40.5t-59.5 -118.5l-10 -60h236l-46 -256h-235l-129 -737h-295l129 737h-182l45 256h182l10 60q18 105 68.5 187t119.5 129t144 71t152 24q102 0 188 -45zM1063 1434h295l-252 -1434h-295z" />
    <glyph glyph-name="CR" horiz-adv-x="659" 
 />
    <glyph glyph-name="_0004" horiz-adv-x="0" 
 />
    <glyph glyph-name="g.alt" horiz-adv-x="1241" 
d="M-47 -139h274q-11 -110 47.5 -157.5t169.5 -47.5q75 0 139 23t106 73.5t42 118.5q0 67 -52 106t-167 39q-217 0 -341 113.5t-124 308.5q0 115 37 214.5t99.5 170t145.5 121t176 74.5t189 24q158 0 228 -55l135 143l184 -163l-156 -154q86 -130 54 -291q-25 -114 -95 -207
t-186 -147q53 -25 90 -61t54.5 -73.5t24.5 -68.5t7 -61q0 -98 -36.5 -182t-98.5 -143t-144 -101t-172.5 -62t-183.5 -20q-260 0 -374 122t-72 343zM647 780q-132 0 -221.5 -80t-89.5 -211q0 -92 62 -148t163 -56q77 0 144 30.5t111 96t44 153.5q0 93 -58.5 154t-154.5 61z
" />
    <glyph glyph-name="gcircumflex.alt" horiz-adv-x="1239" 
d="M-47 -139h274q-11 -110 47.5 -157.5t169.5 -47.5q75 0 139 23t106 73.5t42 118.5q0 67 -52 106t-167 39q-217 0 -341 113.5t-124 308.5q0 115 37 214.5t99.5 170t145.5 121t176 74.5t189 24q155 0 230 -59l135 129l178 -149l-152 -150q86 -130 54 -291q-25 -114 -95 -207
t-186 -147q53 -25 90 -61t54.5 -73.5t24.5 -68.5t7 -61q0 -98 -36.5 -182t-98.5 -143t-144 -101t-172.5 -62t-183.5 -20q-260 0 -374 122t-72 343zM647 780q-132 0 -221.5 -80t-89.5 -211q0 -92 62 -148t163 -56q77 0 144 30.5t111 96t44 153.5q0 93 -58.5 154t-154.5 61z
M737 1255l-114 -88h-287l2 13l367 286h147l254 -286l-2 -13h-279z" />
    <glyph glyph-name="gbreve.alt" horiz-adv-x="1241" 
d="M874 1460h238q-27 -147 -131 -223t-252 -76q-151 0 -234 78t-44 221h239q-10 -51 12 -73.5t62 -22.5q93 0 110 96zM-47 -139h274q-11 -110 47.5 -157.5t169.5 -47.5q75 0 139 23t106 73.5t42 118.5q0 67 -52 106t-167 39q-217 0 -341 113.5t-124 308.5q0 115 37 214.5
t99.5 170t145.5 121t176 74.5t189 24q158 0 228 -55l135 143l184 -163l-156 -154q86 -130 54 -291q-25 -114 -95 -207t-186 -147q53 -25 90 -61t54.5 -73.5t24.5 -68.5t7 -61q0 -98 -36.5 -182t-98.5 -143t-144 -101t-172.5 -62t-183.5 -20q-260 0 -374 122t-72 343z
M647 780q-132 0 -221.5 -80t-89.5 -211q0 -92 62 -148t163 -56q77 0 144 30.5t111 96t44 153.5q0 93 -58.5 154t-154.5 61z" />
    <glyph glyph-name="gdotaccent.alt" horiz-adv-x="1241" 
d="M592 1300q0 86 61.5 132.5t143.5 46.5q62 0 102.5 -33.5t40.5 -95.5q0 -84 -62.5 -132.5t-140.5 -48.5q-62 0 -103.5 35t-41.5 96zM-47 -139h274q-11 -110 47.5 -157.5t169.5 -47.5q75 0 139 23t106 73.5t42 118.5q0 67 -52 106t-167 39q-217 0 -341 113.5t-124 308.5
q0 115 37 214.5t99.5 170t145.5 121t176 74.5t189 24q158 0 228 -55l135 143l184 -163l-156 -154q86 -130 54 -291q-25 -114 -95 -207t-186 -147q53 -25 90 -61t54.5 -73.5t24.5 -68.5t7 -61q0 -98 -36.5 -182t-98.5 -143t-144 -101t-172.5 -62t-183.5 -20q-260 0 -374 122
t-72 343zM647 780q-132 0 -221.5 -80t-89.5 -211q0 -92 62 -148t163 -56q77 0 144 30.5t111 96t44 153.5q0 93 -58.5 154t-154.5 61z" />
    <glyph glyph-name="gcommaaccent.alt" horiz-adv-x="1241" 
d="M588 1298q0 33 14 71.5t28 63t50.5 81.5t52.5 83h158l-62 -157q44 -6 68.5 -31.5t24.5 -67.5q0 -83 -60.5 -130.5t-136.5 -47.5q-61 0 -99 35.5t-38 99.5zM-47 -139h274q-11 -110 47.5 -157.5t169.5 -47.5q75 0 139 23t106 73.5t42 118.5q0 67 -52 106t-167 39
q-217 0 -341 113.5t-124 308.5q0 115 37 214.5t99.5 170t145.5 121t176 74.5t189 24q158 0 228 -55l135 143l184 -163l-156 -154q86 -130 54 -291q-25 -114 -95 -207t-186 -147q53 -25 90 -61t54.5 -73.5t24.5 -68.5t7 -61q0 -98 -36.5 -182t-98.5 -143t-144 -101
t-172.5 -62t-183.5 -20q-260 0 -374 122t-72 343zM647 780q-132 0 -221.5 -80t-89.5 -211q0 -92 62 -148t163 -56q77 0 144 30.5t111 96t44 153.5q0 93 -58.5 154t-154.5 61z" />
    <glyph glyph-name="commaaccent" horiz-adv-x="782" 
d="M346 -586h-156l70 213q-51 8 -75 39t-15 84q14 78 71 117t128 39q62 0 101.5 -44t29.5 -114q-12 -57 -154 -334z" />
    <glyph glyph-name="commaaccent.alt" horiz-adv-x="831" 
d="M600 1587h156l-68 -213q42 -6 66 -32t24 -68q0 -83 -60.5 -129.5t-133.5 -46.5q-79 0 -120 56.5t-7 135.5q36 87 143 297z" />
    <glyph glyph-name="zero.tf" 
d="M444 821l-36 -207q-33 -182 38.5 -277t215.5 -95t249 95t138 277l36 207q31 177 -39 272t-212 95q-145 0 -252 -93t-138 -274zM90 614l37 209q23 131 76 240t125 185t162.5 129t189.5 77.5t205 24.5q132 0 238.5 -41t179.5 -123t99 -205t-1 -287l-37 -207
q-28 -159 -101 -286.5t-174 -207t-220.5 -121.5t-247.5 -42q-103 0 -192 25t-163 76t-120.5 129t-63.5 184t8 241z" />
    <glyph glyph-name="one.tf" 
d="M125 0l47 268h369l135 760l-350 -108l51 284l682 230l-205 -1166h373l-47 -268h-1055z" />
    <glyph glyph-name="two.tf" 
d="M535 1008h-308q22 97 70.5 174t112 127t143.5 82.5t161 46.5t169 14q142 0 253.5 -40.5t180.5 -129t69 -213.5q0 -524 -661 -524q-44 0 -78.5 -3t-79.5 -14t-77 -31t-59 -57.5t-36 -89.5l-10 -55h858l-51 -295h-1159q8 48 29 167t32 185q16 93 53.5 168t90.5 125.5
t114.5 86t135 55t142 28t144.5 8.5q48 0 94 8.5t93.5 29t76.5 62t29 99.5q0 75 -61 116.5t-170 41.5q-67 0 -128.5 -18t-110 -58t-62.5 -96z" />
    <glyph glyph-name="three.tf" 
d="M731 604h-219l47 260h199q32 0 57 1.5t59 5.5t60.5 14t52 25t42 39.5t22.5 56.5q5 26 -2 51.5t-29 51.5t-74 42t-127 16q-237 0 -287 -139h-317q24 93 74.5 168t114.5 123t143.5 80t159.5 45.5t165 13.5q74 0 143 -11.5t135 -39t114.5 -68t78 -103t29.5 -140.5
q0 -123 -66.5 -221t-179.5 -142q115 -51 152 -159t-6 -232q-126 -371 -674 -371q-86 0 -164 15.5t-146.5 51.5t-116.5 89t-71 132t-12 177h322q-3 -49 15 -85t52 -56t77 -29.5t95 -9.5q35 0 71 3.5t82.5 16.5t82 34t60 59t24.5 88q0 25 -9 47.5t-32.5 46.5t-73.5 38.5
t-123 14.5z" />
    <glyph glyph-name="four.tf" 
d="M1008 1432h317l-158 -897h164l-49 -277h-164l-45 -260h-313l45 260h-764l31 328zM391 535h463l90 509z" />
    <glyph glyph-name="five.tf" 
d="M1380 1432l-49 -287h-753l-39 -221h252q60 0 112.5 -5t104.5 -16t93.5 -29t79 -44.5t61.5 -62t41 -81t17 -102.5t-10 -127q-18 -102 -67.5 -184.5t-115.5 -135.5t-148 -89t-163 -51t-163 -15q-129 0 -227.5 24.5t-170.5 77.5t-100.5 143.5t-7.5 214.5h315
q-11 -61 25 -103t91 -58.5t120 -16.5q36 0 76 8t88.5 26.5t85 59.5t47.5 99q10 56 -10 96.5t-61 60t-81 27.5t-82 8h-548q94 539 137 783h1050z" />
    <glyph glyph-name="six.tf" 
d="M516 971l-29 -160q78 72 161 101.5t198 29.5q140 0 248.5 -44t174.5 -136.5t66 -222.5q0 -116 -40 -212t-107.5 -160t-158 -108.5t-189 -64t-203.5 -19.5q-92 0 -175 17t-155 55t-120.5 94t-69 139t-2.5 185l90 506q21 122 88.5 218t163 154.5t205.5 88.5t227 30
q98 0 179 -14t149.5 -46.5t112.5 -82t63 -124t6 -169.5h-299q-1 83 -75.5 123.5t-184.5 40.5q-117 0 -211.5 -60.5t-112.5 -158.5zM686 258q136 0 231 64t95 170q0 85 -66.5 132.5t-183.5 47.5q-145 0 -239.5 -63t-94.5 -171q0 -85 69.5 -132.5t188.5 -47.5z" />
    <glyph glyph-name="seven.tf" 
d="M573 0h-358l735 1143h-643l51 291h1055l-16 -158z" />
    <glyph glyph-name="eight.tf" 
d="M725 614q-130 0 -220.5 -48t-107.5 -130q-6 -31 2 -61t33.5 -60t84 -48.5t142.5 -18.5t148.5 18t101 48t55.5 60.5t23 61.5q12 81 -56.5 129.5t-205.5 48.5zM66 453q15 76 88.5 164.5t187.5 125.5q-90 54 -119.5 148.5t4.5 200.5q36 119 132 204.5t227 127.5t284 42
q244 0 385.5 -93.5t141.5 -272.5q0 -113 -65 -204t-175 -136q49 -20 85 -52.5t54.5 -71t26.5 -74t8 -70.5q0 -106 -40 -194.5t-109 -149.5t-161.5 -102.5t-197 -60.5t-217.5 -18q-101 1 -188.5 18t-163.5 53.5t-123 93.5t-67.5 137t2.5 184zM537 1018q0 -71 59.5 -117.5
t171.5 -46.5q119 0 195 50.5t94 127.5q15 67 -43.5 120.5t-188.5 53.5q-63 0 -114.5 -14t-83 -35t-52.5 -47.5t-29.5 -49.5t-8.5 -42z" />
    <glyph glyph-name="nine.tf" 
d="M987 467l27 160q-78 -72 -161 -101.5t-198 -29.5q-140 0 -248.5 44t-174.5 136.5t-66 222.5q0 116 40.5 212t108 160t158 108t189 63.5t202.5 19.5q92 0 175 -17t155 -55t120.5 -93.5t69 -138.5t2.5 -185l-88 -506q-15 -88 -52.5 -161.5t-90.5 -126.5t-117.5 -93
t-139 -64t-149.5 -35.5t-153 -11.5q-124 0 -221.5 23.5t-171.5 73t-107.5 136t-17.5 204.5h299q1 -43 24.5 -74.5t62.5 -49.5t84.5 -26t98.5 -8q80 0 148.5 20t122.5 70t69 123zM815 1180q-136 0 -231 -64t-95 -170q0 -85 66.5 -132.5t183.5 -47.5q145 0 240.5 63t95.5 170
q0 85 -70.5 133t-189.5 48z" />
    <glyph glyph-name="Euro.tf" 
d="M147 432l39 223h123l8 52q11 56 13 63h-123l41 227h170q111 211 313.5 340t478.5 129q127 0 222 -34l-136 -269q-70 19 -135 19q-125 0 -229 -49t-176 -136h403l-90 -227h-434q-14 -55 -17 -70q0 -3 -3 -20t-3 -25h400l-84 -223h-281q29 -53 76.5 -92t99.5 -57.5
t94.5 -26.5t77.5 -8q81 0 160 26l43 -276q-121 -31 -252 -31q-284 0 -446.5 121.5t-192.5 343.5h-160z" />
    <glyph glyph-name="cent.tf" 
d="M983 305l145 -209q-65 -58 -137 -90.5t-166 -52.5l-28 -156h-271l29 160q-151 45 -239.5 154.5t-88.5 275.5q0 226 140 387.5t372 222.5l27 158h270l-26 -156q143 -35 233 -141l-201 -182q-59 74 -198 74q-75 0 -148 -40.5t-121.5 -114.5t-48.5 -159q0 -100 65.5 -163.5
t158.5 -63.5q58 0 121.5 24.5t111.5 71.5z" />
    <glyph glyph-name="sterling.tf" 
d="M639 889q0 -36 4 -90h406l-45 -256h-349q-5 -30 -17.5 -66.5t-33 -78t-52.5 -72t-69 -37.5h772l-51 -289h-1149l51 291q56 1 97 21t67.5 57.5t42.5 77.5t29 96h-190l45 256h141q-6 47 -6 102q0 117 43 219t121 177t193 118t253 43q230 0 342 -117t70 -333h-277
q14 93 -38.5 133.5t-145.5 40.5q-102 0 -178 -75.5t-76 -217.5z" />
    <glyph glyph-name="florin.tf" 
d="M1182 729h-293l-131 -739q-25 -143 -104 -241t-180 -135t-212.5 -24t-204.5 78l138 207q98 -61 173 -30t95 145l131 739h-279l45 248h275l14 76q20 105 70 186t118 128t142 70t151 23q81 0 143 -21t124 -65l-137 -207q-58 41 -138 41q-69 0 -116 -39t-62 -116l-14 -76
h297z" />
    <glyph glyph-name="yen.tf" 
d="M174 209l39 219h307l21 119h-308l39 219h193l-322 651l2 17h361l129 -291l117 -297l227 295l242 293h366l-2 -17l-571 -651h188l-39 -219h-309l-20 -119h309l-39 -219h-309l-37 -209h-314l37 209h-307z" />
    <glyph glyph-name="dollar.tf" 
d="M1419 1190l-272 -117q-20 65 -105 113.5t-200 48.5q-119 0 -211.5 -45.5t-110.5 -130.5q-7 -44 12.5 -75t63.5 -48t90 -25.5t111 -13.5q92 -10 163.5 -25t149 -45.5t128 -73t83.5 -110.5t33 -156q0 -227 -151.5 -366.5t-432.5 -167.5l-33 -195h-280l32 193
q-182 19 -314.5 118t-168.5 253l289 129q27 -96 134.5 -160t234.5 -64q67 0 117.5 4.5t98.5 18t78.5 35.5t49 60t18.5 89q0 150 -305 176q-55 5 -98 11t-94.5 16t-87.5 22.5t-78 31t-66.5 42.5t-51.5 56t-34 71.5t-13.5 89.5t9.5 109q18 98 72 176.5t131.5 129t168 79.5
t189.5 37l29 170h270l-29 -170q306 -35 381 -291z" />
    <glyph glyph-name="zero.denom" horiz-adv-x="835" 
d="M242 424l-21 -115q-16 -87 50 -125q56 -32 128 -6q77 27 103 101l8 30l18 115q15 90 -49 129q-55 34 -126 9q-76 -28 -103 -106q-5 -16 -8 -32zM20 315l21 111q32 172 176 266q121 78 262 67q138 -10 209 -101t45 -232l-20 -111q-32 -176 -176 -271q-121 -80 -262 -69
q-136 10 -208 102q-73 93 -47 238z" />
    <glyph glyph-name="one.denom" horiz-adv-x="577" 
d="M-37 0l31 170h127l63 360l-110 -22l30 172l326 82l-104 -592h131l-31 -170h-463z" />
    <glyph glyph-name="two.denom" horiz-adv-x="772" 
d="M264 539h-201q22 111 123.5 175t223.5 64q126 0 202 -54t76 -157q0 -83 -35 -140t-87.5 -83t-115 -44t-117 -26.5t-94 -27.5t-44.5 -49h423l-34 -197h-619l35 197q11 62 43 106.5t74.5 68t91.5 39t96 25.5t85 20.5t61.5 29.5t23.5 49q0 31 -29 47t-65.5 15.5t-71.5 -16
t-45 -42.5z" />
    <glyph glyph-name="three.denom" horiz-adv-x="782" 
d="M332 305h-119l29 154h110q64 0 95.5 22.5t31.5 57.5q0 28 -28 44.5t-74 18.5t-84.5 -14t-48.5 -47h-183q10 59 46.5 105t87 72.5t106 40t111.5 13.5q70 0 130.5 -22t102 -71.5t41.5 -117.5q0 -128 -127 -180q40 -13 64 -52.5t24 -86.5q0 -61 -24 -109t-61.5 -77
t-88.5 -48t-100 -26t-101 -7q-57 0 -109.5 14t-96 41.5t-65 75.5t-11.5 109h215q-3 -57 98 -57q51 0 91 22t40 62q0 30 -26.5 46.5t-75.5 16.5z" />
    <glyph glyph-name="four.denom" horiz-adv-x="821" 
d="M416 758h266l-80 -459h92l-30 -174h-93l-22 -125h-205l23 125h-396l23 176zM397 299l45 260l-239 -260h194z" />
    <glyph glyph-name="five.denom" horiz-adv-x="770" 
d="M686 758l-31 -176h-376l-17 -90h111q276 0 276 -205q0 -83 -34.5 -146.5t-90 -98.5t-116 -52t-123.5 -17q-143 0 -218 62t-53 192h207q-3 -40 24.5 -61t69.5 -21q49 0 85 29.5t36 77.5q0 35 -26.5 53.5t-65.5 18.5h-303q67 383 76 434h569z" />
    <glyph glyph-name="six.denom" horiz-adv-x="790" 
d="M453 252q0 34 -29 52t-72 18q-51 0 -89 -23.5t-38 -67.5q0 -31 29 -49t70 -18q50 0 89.5 24t39.5 64zM694 541h-192q2 44 -51 59t-110 -6t-65 -64l-14 -81q55 30 124 36t131 -11t104.5 -68t42.5 -125q0 -73 -33.5 -131t-88 -92t-118.5 -52t-131 -18q-82 0 -148 28
t-103 88t-22 140l52 286q14 78 70.5 134t130.5 81t157 25q133 0 206.5 -56t57.5 -173z" />
    <glyph glyph-name="seven.denom" horiz-adv-x="671" 
d="M225 0h-229l373 569h-320l33 189h580l-7 -84z" />
    <glyph glyph-name="eight.denom" horiz-adv-x="806" 
d="M209 223q0 -28 28.5 -50.5t90.5 -22.5q67 0 102 25.5t39 57.5q6 33 -26 56.5t-85 23.5q-63 0 -106 -24.5t-43 -65.5zM2 236q8 40 46.5 86.5t94.5 70.5q-31 16 -49 53.5t-18 73.5q0 118 101.5 188t254.5 70q122 0 200.5 -54.5t78.5 -152.5q0 -113 -119 -170
q42 -20 63 -60.5t21 -84.5q0 -72 -32.5 -127t-88 -86.5t-122.5 -46.5t-142 -14q-68 0 -124.5 13.5t-99.5 42.5t-61 79.5t-4 118.5zM383 463q55 0 86 24t31 56q0 27 -24.5 47t-67.5 20q-56 0 -89.5 -24.5t-33.5 -57.5q0 -27 25 -46t73 -19z" />
    <glyph glyph-name="nine.denom" horiz-adv-x="790" 
d="M262 504q0 -34 29 -52t71 -18q51 0 89 23t38 67q0 31 -29 49.5t-69 18.5q-50 0 -89.5 -24t-39.5 -64zM10 215h197q-2 -44 52.5 -59t112.5 5.5t66 63.5l15 82q-55 -30 -125 -36t-132 11t-104.5 67.5t-42.5 125.5q0 73 33.5 131t88.5 92t119 52t130 18q82 0 147.5 -28
t102 -88t22.5 -140l-49 -287q-21 -116 -125 -179.5t-233 -63.5q-90 0 -154 22t-98.5 75.5t-22.5 135.5z" />
    <glyph glyph-name="zero.num" horiz-adv-x="835" 
d="M365 1122l-21 -114q-16 -87 49 -125q57 -32 129 -6q77 27 103 101q5 15 8 30l20 114q16 90 -49 129q-56 34 -127 9q-76 -28 -103 -105zM143 1014l21 110q32 172 176 266q121 78 262 67q138 -10 209 -101t45 -232l-20 -110q-32 -176 -176 -271q-121 -80 -262 -69
q-136 10 -208 102q-73 93 -47 238z" />
    <glyph glyph-name="one.num" horiz-adv-x="581" 
d="M88 696l31 170h127l63 361l-110 -23l30 172l326 82l-104 -592h131l-31 -170h-463z" />
    <glyph glyph-name="two.num" horiz-adv-x="774" 
d="M385 1214h-201q22 111 123 175.5t223 64.5q126 0 202.5 -54.5t76.5 -156.5q0 -72 -26 -124t-68 -80.5t-93 -47t-103 -29t-96 -20t-73.5 -27t-34.5 -43.5h424l-34 -196h-619l35 196q11 62 43 106.5t74.5 68t91.5 39t96 25.5t85 20.5t61.5 29.5t23.5 49q0 31 -29 47
t-65.5 15.5t-71.5 -16t-45 -42.5z" />
    <glyph glyph-name="three.num" horiz-adv-x="784" 
d="M455 991h-119l29 154h110q64 0 95.5 22.5t31.5 57.5q0 28 -28 44.5t-74 18.5t-84.5 -14t-48.5 -47h-183q10 59 46.5 105t87 72.5t106 40t111.5 13.5q70 0 130.5 -22t102 -71.5t41.5 -117.5q0 -128 -127 -180q40 -13 64 -52.5t24 -86.5q0 -61 -24 -109t-61.5 -77
t-88.5 -47.5t-100 -25.5t-101 -7q-57 0 -109.5 14t-96 41.5t-65 75t-11.5 108.5h215q-3 -57 98 -57q51 0 91 22t40 62q0 30 -26.5 46.5t-75.5 16.5z" />
    <glyph glyph-name="four.num" horiz-adv-x="821" 
d="M537 1442h266l-80 -459h92l-31 -174h-92l-22 -125h-205l22 125h-395l23 176zM518 983l45 260l-239 -260h194z" />
    <glyph glyph-name="five.num" horiz-adv-x="770" 
d="M807 1436l-31 -176h-377l-16 -91h111q276 0 276 -204q0 -83 -34.5 -146.5t-90 -98.5t-116 -52t-123.5 -17q-143 0 -218 62t-53 192h207q-3 -40 24.5 -61t69.5 -21q49 0 85 29.5t36 77.5q0 35 -26 53t-66 18h-303q3 15 32 183t44 252h569z" />
    <glyph glyph-name="six.num" horiz-adv-x="784" 
d="M569 940q0 34 -29 52t-71 18q-51 0 -89 -23t-38 -67q0 -31 29 -49.5t69 -18.5q50 0 89.5 24t39.5 64zM811 1229h-193q2 44 -51 59t-109.5 -5.5t-64.5 -63.5l-14 -82q55 30 124 36t131 -11t104 -67.5t42 -125.5q0 -59 -22 -108.5t-58.5 -83t-85 -57t-100 -34t-104.5 -10.5
q-82 0 -148 28t-103 88t-22 140l51 287q14 78 71 134t131 80.5t157 24.5q133 0 206.5 -56t57.5 -173z" />
    <glyph glyph-name="seven.num" horiz-adv-x="673" 
d="M346 680h-229l372 569h-319l33 189h579l-6 -84z" />
    <glyph glyph-name="eight.num" horiz-adv-x="808" 
d="M330 907q0 -28 28.5 -50.5t90.5 -22.5q67 0 102 26t39 58q6 33 -26 56t-85 23q-63 0 -106 -24.5t-43 -65.5zM123 920q8 40 46.5 86.5t94.5 70.5q-31 16 -49 53.5t-18 73.5q0 118 101.5 188t254.5 70q122 0 200 -54.5t78 -152.5q0 -114 -120 -170q42 -21 64 -61.5
t22 -83.5q0 -72 -32.5 -127t-88 -86.5t-122.5 -46.5t-142 -14q-68 0 -124.5 13.5t-99.5 42.5t-61 79.5t-4 118.5zM504 1147q55 0 86 24t31 56q0 27 -25 47t-70 20q-55 0 -87.5 -24.5t-32.5 -57.5q0 -27 25 -46t73 -19z" />
    <glyph glyph-name="nine.num" horiz-adv-x="790" 
d="M383 1190q0 -34 29 -52t71 -18q51 0 89 23t38 67q0 31 -29 49.5t-69 18.5q-50 0 -89.5 -24t-39.5 -64zM131 901h197q-2 -44 52.5 -59t112.5 5.5t66 63.5l14 82q-55 -30 -125 -36t-131.5 11t-104 67.5t-42.5 125.5q0 73 33.5 131t88.5 92t119 52t130 18q82 0 148 -28
t102.5 -88t21.5 -140l-51 -287q-21 -116 -124 -179.5t-232 -63.5q-90 0 -154 22t-98.5 75.5t-22.5 135.5z" />
    <glyph glyph-name="parenleft.case" horiz-adv-x="770" 
d="M766 1679l113 -202q-186 -134 -307.5 -337t-157.5 -421q-42 -238 3 -439t181 -331l-182 -199q-164 124 -248 319.5t-84 436.5q0 196 51 374t144.5 323.5t215 263.5t271.5 212z" />
    <glyph glyph-name="parenright.case" horiz-adv-x="772" 
d="M201 1477l182 202q159 -128 249.5 -331t90.5 -447q0 -359 -168 -656t-502 -495l-112 199q183 130 299 331t157 439q40 219 -9 421.5t-187 336.5z" />
    <glyph glyph-name="hyphen.case" horiz-adv-x="1036" 
d="M125 561l45 260h768l-45 -260h-768z" />
    <glyph glyph-name="bracketleft.case" horiz-adv-x="772" 
d="M547 -188h-524l319 1806h524l-45 -248h-233l-230 -1307h234z" />
    <glyph glyph-name="bracketright.case" horiz-adv-x="774" 
d="M471 -193h-524l45 252h233l230 1307h-234l45 248h525z" />
    <glyph glyph-name="braceleft.case" horiz-adv-x="759" 
d="M565 25l-41 -228q-233 -43 -333.5 47t-65.5 285l53 305q7 26 5.5 52.5t-9.5 49t-35.5 36.5t-72.5 14l38 219q45 0 77 13t49.5 37t26 47t13.5 54l52 289q36 210 165 303.5t355 50.5l-41 -231q-80 19 -131 -22t-64 -117l-47 -273q-19 -105 -27 -128q-26 -76 -104 -112
q-26 -13 -59 -22q34 -11 57.5 -24.5t36 -31.5t18.5 -35t4.5 -43.5t-4 -46t-9.5 -53.5q-3 -17 -5 -26l-47 -266q-17 -98 10 -125t135 -18z" />
    <glyph glyph-name="bar.case" horiz-adv-x="608" 
d="M608 1536l-303 -1718h-280l303 1718h280z" />
    <glyph glyph-name="braceright.case" horiz-adv-x="761" 
d="M-49 -203l41 228q105 -9 141 17.5t53 125.5l47 266q2 10 6.5 35.5t6 35.5t7 31t9.5 30.5t12 26.5t16.5 25.5l21.5 21.5t28.5 21t36 17t45.5 16q-40 13 -65 30.5t-36.5 37t-13 47.5t2 54t10.5 63l6 30l47 273q13 77 -22.5 117.5t-123.5 21.5l41 231q242 43 338 -50.5
t60 -303.5l-52 -289q-4 -25 -5 -43t3.5 -40t16.5 -35.5t36.5 -23t61.5 -9.5l-39 -219q-45 0 -77 -13.5t-49.5 -38t-26 -47t-13.5 -53.5l-53 -305q-35 -195 -167.5 -285t-350.5 -47z" />
    <glyph glyph-name="guilsinglleft.case" horiz-adv-x="817" 
d="M115 692l364 453h314v4l-365 -457q151 -348 205 -456h-314z" />
    <glyph glyph-name="guilsinglright.case" horiz-adv-x="819" 
d="M530 1153l205 -455l-364 -456h-314l363 456l-201 457l-2 -2h313z" />
    <glyph glyph-name="guillemotleft.case" horiz-adv-x="1222" 
d="M125 729l364 453h314v4l-365 -457q155 -356 205 -457h-313zM528 729l365 453h313v4l-364 -457l205 -457h-314z" />
    <glyph glyph-name="guillemotright.case" horiz-adv-x="1220" 
d="M936 1182l205 -455l-365 -455h-315l364 455l-202 459q-2 -2 -2 -4h315zM532 1182l205 -455l-364 -455h-314l365 455l-203 459q-2 -2 -2 -4h313z" />
    <glyph glyph-name="endash.case" horiz-adv-x="1253" 
d="M121 543l45 256h985l-45 -256h-985z" />
    <glyph glyph-name="emdash.case" horiz-adv-x="1443" 
d="M121 545l45 256h1175l-45 -256h-1175z" />
    <glyph glyph-name="bullet.case" horiz-adv-x="862" 
d="M391 375q-109 0 -176.5 63t-67.5 168q0 139 100.5 231.5t239.5 92.5q106 0 172 -65t66 -169q0 -139 -98.5 -230t-235.5 -91z" />
    <glyph glyph-name="periodcentered.case" horiz-adv-x="612" 
d="M133 643q0 97 67 151t152 54q61 0 103.5 -38.5t42.5 -107.5q0 -93 -66 -148.5t-147 -55.5q-64 0 -108 38t-44 107z" />
    <glyph glyph-name="a.alt" horiz-adv-x="1146" 
d="M575 1040q58 0 107.5 -4t98.5 -13t86.5 -23.5t72 -37t55.5 -52.5t36.5 -70t15 -90t-8.5 -111l-112 -639h-250l-6 100q-109 -120 -340 -120q-152 0 -240 73.5t-88 216.5q0 95 42 172.5t111 125t152.5 73t171.5 25.5q60 0 137.5 -17.5t124.5 -48.5l7 39q7 45 -9.5 76
t-51 46t-72 21t-83.5 6q-81 0 -175 -21t-158 -46l-4 227q212 92 380 92zM451 225q73 0 143.5 35.5t103.5 114.5q-32 27 -84 44t-110 17q-89 0 -144.5 -33t-58.5 -88q-2 -41 34.5 -65.5t115.5 -24.5z" />
    <glyph glyph-name="agrave.alt" horiz-adv-x="1146" 
d="M406 1444l2 14h346l84 -272l-2 -15h-258zM575 1040q58 0 107.5 -4t98.5 -13t86.5 -23.5t72 -37t55.5 -52.5t36.5 -70t15 -90t-8.5 -111l-112 -639h-250l-6 100q-134 -118 -344 -118q-147 0 -235.5 73t-88.5 215q0 95 42 172.5t111 125t152.5 73t171.5 25.5
q60 0 137.5 -17.5t124.5 -48.5l7 39q7 45 -9.5 76t-51 46t-72 21t-83.5 6q-81 0 -175 -21t-158 -46l-4 227q212 92 380 92zM301 313q0 -88 150 -88q73 0 143.5 35.5t103.5 114.5q-30 30 -85.5 45.5t-106.5 13.5q-205 0 -205 -121z" />
    <glyph glyph-name="aacute.alt" horiz-adv-x="1146" 
d="M1036 1458l-2 -14l-266 -273h-260l2 15l180 272h346zM575 1040q-168 0 -380 -92l4 -227q64 25 158 46t175 21q46 0 83.5 -6t72 -21t51 -46t9.5 -76l-7 -39q-47 31 -124.5 48.5t-137.5 17.5q-88 0 -171.5 -25.5t-152.5 -73t-111 -125t-42 -172.5t47.5 -160t121 -93.5
t167.5 -28.5q205 0 332 112l6 -100h250l112 639q8 61 8.5 111t-15 90t-36.5 70t-55.5 52.5t-72 37t-86.5 23.5t-98.5 13t-107.5 4zM301 313q0 121 205 121q51 2 106.5 -13.5t85.5 -45.5q-33 -79 -103.5 -114.5t-143.5 -35.5q-150 0 -150 88z" />
    <glyph glyph-name="acircumflex.alt" horiz-adv-x="1146" 
d="M645 1466h156l260 -282l-2 -13h-299l-74 93l-102 -93h-299l2 13zM575 1040q-168 0 -380 -92l4 -227q64 25 158 46t175 21q46 0 83.5 -6t72 -21t51 -46t9.5 -76l-7 -39q-47 31 -124.5 48.5t-137.5 17.5q-88 0 -171.5 -25.5t-152.5 -73t-111 -125t-42 -172.5t47.5 -160
t121 -93.5t167.5 -28.5q205 0 332 112l6 -100h250l112 639q8 61 8.5 111t-15 90t-36.5 70t-55.5 52.5t-72 37t-86.5 23.5t-98.5 13t-107.5 4zM301 313q0 121 205 121q51 2 106.5 -13.5t85.5 -45.5q-33 -79 -103.5 -114.5t-143.5 -35.5q-150 0 -150 88z" />
    <glyph glyph-name="atilde.alt" horiz-adv-x="1144" 
d="M471 1176l-162 102q68 103 158.5 158t191.5 30q23 -6 64.5 -28t60.5 -27q25 -11 55.5 -0.5t65.5 53.5l174 -94q-73 -120 -153 -165.5t-152 -22.5q-20 6 -84.5 38t-99.5 31q-52 0 -119 -75zM573 1040q58 0 107.5 -4t98.5 -13t86.5 -23.5t72 -37t55.5 -52.5t36.5 -70
t15 -90t-8.5 -111l-112 -639h-250l-6 100q-127 -112 -332 -112q-94 0 -167.5 28.5t-121 93.5t-47.5 160t42 172.5t111 125t152.5 73t171.5 25.5q60 0 137.5 -17.5t124.5 -48.5l6 39q6 36 -4.5 63.5t-31 43.5t-51.5 25.5t-61.5 13t-66.5 3.5q-81 0 -175 -21t-158 -46l-4 227
q212 92 380 92zM299 313q0 -88 150 -88q73 0 143.5 35.5t103.5 114.5q-30 30 -85.5 45.5t-106.5 13.5q-205 0 -205 -121z" />
    <glyph glyph-name="adieresis.alt" horiz-adv-x="1144" 
d="M307 1290q0 89 60.5 140t136.5 51q58 0 95.5 -34.5t37.5 -98.5q0 -89 -62 -140t-137 -49q-56 2 -93.5 36.5t-37.5 94.5zM786 1290q0 90 60.5 140.5t138.5 50.5q54 0 92.5 -36.5t38.5 -98.5q0 -85 -58 -135t-132 -52q-59 -2 -99.5 33t-40.5 98zM573 1040q-168 0 -380 -92
l4 -227q64 25 158 46t175 21q36 0 66.5 -3.5t61.5 -13t51.5 -25.5t31 -43.5t4.5 -63.5l-6 -39q-47 31 -124.5 48.5t-137.5 17.5q-88 0 -171.5 -25.5t-152.5 -73t-111 -125t-42 -172.5t47.5 -160t121 -93.5t167.5 -28.5q205 0 332 112l6 -100h250l112 639q8 61 8.5 111
t-15 90t-36.5 70t-55.5 52.5t-72 37t-86.5 23.5t-98.5 13t-107.5 4zM299 313q0 121 205 121q51 2 106.5 -13.5t85.5 -45.5q-33 -79 -103.5 -114.5t-143.5 -35.5q-150 0 -150 88z" />
    <glyph glyph-name="amacron.alt" horiz-adv-x="1146" 
d="M328 1221l41 233h727l-41 -233h-727zM575 1040q58 0 107.5 -4t98.5 -13t86.5 -23.5t72 -37t55.5 -52.5t36.5 -70t15 -90t-8.5 -111l-112 -639h-250l-6 100q-127 -112 -332 -112q-94 0 -167.5 28.5t-121 93.5t-47.5 160t42 172.5t111 125t152.5 73t171.5 25.5
q60 0 137.5 -17.5t124.5 -48.5l7 39q7 45 -9.5 76t-51 46t-72 21t-83.5 6q-81 0 -175 -21t-158 -46l-4 227q212 92 380 92zM301 313q0 -88 150 -88q73 0 143.5 35.5t103.5 114.5q-30 30 -85.5 45.5t-106.5 13.5q-205 0 -205 -121z" />
    <glyph glyph-name="abreve.alt" horiz-adv-x="1146" 
d="M807 1456h237q-17 -138 -126.5 -223.5t-247.5 -85.5q-66 0 -124 19t-102.5 57.5t-59.5 96.5t5 136h240q-8 -49 17 -71.5t54 -22.5q31 0 65 22t42 72zM575 1040q58 0 107.5 -4t98.5 -13t86.5 -23.5t72 -37t55.5 -52.5t36.5 -70t15 -90t-8.5 -111l-112 -639h-250l-6 100
q-127 -112 -332 -112q-94 0 -167.5 28.5t-121 93.5t-47.5 160t42 172.5t111 125t152.5 73t171.5 25.5q60 0 137.5 -17.5t124.5 -48.5l7 39q7 45 -9.5 76t-51 46t-72 21t-83.5 6q-81 0 -175 -21t-158 -46l-4 227q212 92 380 92zM301 313q0 -88 150 -88q73 0 143.5 35.5
t103.5 114.5q-30 30 -85.5 45.5t-106.5 13.5q-205 0 -205 -121z" />
    <glyph glyph-name="aring.alt" horiz-adv-x="1146" 
d="M428 1341q0 87 49.5 152.5t121.5 96t151 30.5q95 0 162 -54.5t67 -150.5q0 -65 -29 -118.5t-75 -86t-100 -50t-109 -17.5q-102 0 -170 52t-68 146zM719 1473q-58 0 -93.5 -33t-35.5 -74q0 -34 24.5 -55t71.5 -21q57 0 91 30.5t34 70.5q0 35 -23.5 58.5t-68.5 23.5z
M575 1040q58 0 107.5 -4t98.5 -13t86.5 -23.5t72 -37t55.5 -52.5t36.5 -70t15 -90t-8.5 -111l-112 -639h-250l-6 100q-127 -112 -332 -112q-94 0 -167.5 28.5t-121 93.5t-47.5 160t42 172.5t111 125t152.5 73t171.5 25.5q60 0 137.5 -17.5t124.5 -48.5l7 39q7 45 -9.5 76
t-51 46t-72 21t-83.5 6q-81 0 -175 -21t-158 -46l-4 227q212 92 380 92zM301 313q0 -88 150 -88q73 0 143.5 35.5t103.5 114.5q-30 30 -85.5 45.5t-106.5 13.5q-205 0 -205 -121z" />
    <glyph glyph-name="aringacute.alt" horiz-adv-x="1144" 
d="M446 1276q0 -87 66.5 -133.5t157.5 -46.5q51 0 101 15t93.5 43t70 76t26.5 107q0 86 -64.5 135.5t-153.5 49.5q-72 0 -138.5 -27t-112.5 -85t-46 -134zM715 1389q43 0 66.5 -22t23.5 -52q0 -34 -33 -61t-86 -27q-44 0 -66 19t-22 50q0 40 31 66.5t86 26.5zM1155 1796v-8
l-272 -205h-256l2 10l184 203h342zM573 1040q-168 0 -380 -92l4 -227q64 25 158 46t175 21q36 0 66.5 -3.5t61.5 -13t51.5 -25.5t31 -43.5t4.5 -63.5l-6 -39q-47 31 -124.5 48.5t-137.5 17.5q-88 0 -171.5 -25.5t-152.5 -73t-111 -125t-42 -172.5t47.5 -160t121 -93.5
t167.5 -28.5q205 0 332 112l6 -100h250l112 639q8 61 8.5 111t-15 90t-36.5 70t-55.5 52.5t-72 37t-86.5 23.5t-98.5 13t-107.5 4zM299 313q0 121 205 121q51 2 106.5 -13.5t85.5 -45.5q-33 -79 -103.5 -114.5t-143.5 -35.5q-150 0 -150 88z" />
    <glyph glyph-name="aogonek.alt" horiz-adv-x="1144" 
d="M573 1040q58 0 107.5 -4t98.5 -13t86.5 -23.5t72 -37t55.5 -52.5t36.5 -70t15 -90t-8.5 -111l-131 -745q-25 8 -67.5 2t-83.5 -17.5t-68.5 -39t-21.5 -62.5q6 -21 38.5 -31.5t71.5 -1.5q31 5 76 27l125 -115q-58 -69 -150 -100.5t-184 -20.5q-84 12 -143.5 57t-63.5 123
q-3 24 6.5 58.5t33.5 77t77.5 82.5t128.5 63l-6 104q-127 -112 -338 -112q-94 0 -167.5 28.5t-121 93.5t-47.5 160t42 172.5t111 125t152.5 73t171.5 25.5q60 0 137.5 -17.5t124.5 -48.5l6 39q6 36 -4.5 63.5t-31 43.5t-51.5 25.5t-61.5 13t-66.5 3.5q-81 0 -175 -21
t-158 -46l-4 227q212 92 380 92zM299 313q0 -88 150 -88q73 0 143.5 35.5t103.5 114.5q-30 30 -85.5 45.5t-106.5 13.5q-205 0 -205 -121z" />
    <glyph glyph-name="y.alt" horiz-adv-x="1173" 
d="M909 1012h326l-879 -1467h-321l295 486l-252 981h332l139 -637z" />
    <glyph glyph-name="yacute.alt" horiz-adv-x="1173" 
d="M1075 1436l-2 -13l-293 -295h-258l4 15l205 293h344zM1235 1012h-326l-360 -637l-139 637h-332l252 -981l-295 -486h321z" />
    <glyph glyph-name="ycircumflex.alt" horiz-adv-x="1173" 
d="M664 1481h170l286 -299l-2 -11h-327l-84 93l-115 -93h-326l2 11zM1235 1012h-326l-360 -637l-139 637h-332l252 -981l-295 -486h321z" />
    <glyph glyph-name="ydieresis.alt" horiz-adv-x="1173" 
d="M276 1268q0 88 61 138t138 50q56 0 94.5 -35t38.5 -98q0 -89 -60 -140.5t-136 -49.5q-58 2 -97 37t-39 98zM813 1268q0 89 62.5 139.5t140.5 48.5q56 -2 93.5 -36.5t37.5 -96.5q0 -88 -58.5 -139t-134.5 -51q-59 0 -100 35.5t-41 99.5zM1235 1012h-326l-360 -637
l-139 637h-332l252 -981l-295 -486h321z" />
    <glyph glyph-name="ygrave.alt" horiz-adv-x="1173" 
d="M371 1423l2 13h346l78 -293l-4 -15h-269zM909 1012h326l-879 -1467h-321l295 486l-252 981h332l139 -637z" />
    </font>
</defs>
</svg>
